  0
SECTION
  2
HEADER
  9
$ACADVER
  1
AC1024
  9
$ACADMAINTVER
 70
   226
  9
$DWGCODEPAGE
  3
ANSI_1252
  9
$LASTSAVEDBY
  1
rgreup
  9
$INSBASE
 10
0.0
 20
0.0
 30
0.0
  9
$EXTMIN
 10
-0.0320410123467809
 20
-0.0453151460337722
 30
-0.0320410123467809
  9
$EXTMAX
 10
1050.032045901787
 20
1485.045322061105
 30
0.0480664079636881
  9
$LIMMIN
 10
0.0
 20
0.0
  9
$LIMMAX
 10
1049.999999999996
 20
1485.000000000002
  9
$ORTHOMODE
 70
     0
  9
$REGENMODE
 70
     1
  9
$FILLMODE
 70
     1
  9
$QTEXTMODE
 70
     0
  9
$MIRRTEXT
 70
     1
  9
$LTSCALE
 40
1.0
  9
$ATTMODE
 70
     1
  9
$TEXTSIZE
 40
0.2
  9
$TRACEWID
 40
0.05
  9
$TEXTSTYLE
  7
Standard
  9
$CLAYER
  8
0
  9
$CELTYPE
  6
ByLayer
  9
$CECOLOR
 62
   256
  9
$CELTSCALE
 40
1.0
  9
$DISPSILH
 70
     0
  9
$DIMSCALE
 40
1.0
  9
$DIMASZ
 40
0.18
  9
$DIMEXO
 40
0.0625
  9
$DIMDLI
 40
0.38
  9
$DIMRND
 40
0.0
  9
$DIMDLE
 40
0.0
  9
$DIMEXE
 40
0.18
  9
$DIMTP
 40
0.0
  9
$DIMTM
 40
0.0
  9
$DIMTXT
 40
0.18
  9
$DIMCEN
 40
0.09
  9
$DIMTSZ
 40
0.0
  9
$DIMTOL
 70
     0
  9
$DIMLIM
 70
     0
  9
$DIMTIH
 70
     1
  9
$DIMTOH
 70
     1
  9
$DIMSE1
 70
     0
  9
$DIMSE2
 70
     0
  9
$DIMTAD
 70
     0
  9
$DIMZIN
 70
     0
  9
$DIMBLK
  1

  9
$DIMASO
 70
     1
  9
$DIMSHO
 70
     1
  9
$DIMPOST
  1

  9
$DIMAPOST
  1

  9
$DIMALT
 70
     0
  9
$DIMALTD
 70
     2
  9
$DIMALTF
 40
25.4
  9
$DIMLFAC
 40
1.0
  9
$DIMTOFL
 70
     0
  9
$DIMTVP
 40
0.0
  9
$DIMTIX
 70
     0
  9
$DIMSOXD
 70
     0
  9
$DIMSAH
 70
     0
  9
$DIMBLK1
  1

  9
$DIMBLK2
  1

  9
$DIMSTYLE
  2
Standard
  9
$DIMCLRD
 70
     0
  9
$DIMCLRE
 70
     0
  9
$DIMCLRT
 70
     0
  9
$DIMTFAC
 40
1.0
  9
$DIMGAP
 40
0.09
  9
$DIMJUST
 70
     0
  9
$DIMSD1
 70
     0
  9
$DIMSD2
 70
     0
  9
$DIMTOLJ
 70
     1
  9
$DIMTZIN
 70
     0
  9
$DIMALTZ
 70
     0
  9
$DIMALTTZ
 70
     0
  9
$DIMUPT
 70
     0
  9
$DIMDEC
 70
     4
  9
$DIMTDEC
 70
     4
  9
$DIMALTU
 70
     2
  9
$DIMALTTD
 70
     2
  9
$DIMTXSTY
  7
Standard
  9
$DIMAUNIT
 70
     0
  9
$DIMADEC
 70
     0
  9
$DIMALTRND
 40
0.0
  9
$DIMAZIN
 70
     0
  9
$DIMDSEP
 70
    46
  9
$DIMATFIT
 70
     3
  9
$DIMFRAC
 70
     0
  9
$DIMLDRBLK
  1

  9
$DIMLUNIT
 70
     2
  9
$DIMLWD
 70
    -2
  9
$DIMLWE
 70
    -2
  9
$DIMTMOVE
 70
     0
  9
$DIMFXL
 40
1.0
  9
$DIMFXLON
 70
     0
  9
$DIMJOGANG
 40
0.7853981633974483
  9
$DIMTFILL
 70
     0
  9
$DIMTFILLCLR
 70
     0
  9
$DIMARCSYM
 70
     0
  9
$DIMLTYPE
  6

  9
$DIMLTEX1
  6

  9
$DIMLTEX2
  6

  9
$DIMTXTDIRECTION
 70
     0
  9
$LUNITS
 70
     2
  9
$LUPREC
 70
     4
  9
$SKETCHINC
 40
0.1
  9
$FILLETRAD
 40
0.5
  9
$AUNITS
 70
     0
  9
$AUPREC
 70
     0
  9
$MENU
  1
.
  9
$ELEVATION
 40
0.0
  9
$PELEVATION
 40
0.0
  9
$THICKNESS
 40
0.0
  9
$LIMCHECK
 70
     0
  9
$CHAMFERA
 40
0.5
  9
$CHAMFERB
 40
0.5
  9
$CHAMFERC
 40
1.0
  9
$CHAMFERD
 40
0.0
  9
$SKPOLY
 70
     0
  9
$TDCREATE
 40
2459467.505810185
  9
$TDUCREATE
 40
2459467.422482546
  9
$TDUPDATE
 40
2459467.519247685
  9
$TDUUPDATE
 40
2459467.435914352
  9
$TDINDWG
 40
0.0108101968
  9
$TDUSRTIMER
 40
0.0108101968
  9
$USRTIMER
 70
     1
  9
$ANGBASE
 50
0.0
  9
$ANGDIR
 70
     0
  9
$PDMODE
 70
    65
  9
$PDSIZE
 40
0.0
  9
$PLINEWID
 40
0.0
  9
$SPLFRAME
 70
     0
  9
$SPLINETYPE
 70
     6
  9
$SPLINESEGS
 70
     8
  9
$HANDSEED
  5
416
  9
$SURFTAB1
 70
     6
  9
$SURFTAB2
 70
     6
  9
$SURFTYPE
 70
     6
  9
$SURFU
 70
     6
  9
$SURFV
 70
     6
  9
$UCSBASE
  2

  9
$UCSNAME
  2

  9
$UCSORG
 10
0.0
 20
0.0
 30
0.0
  9
$UCSXDIR
 10
1.0
 20
0.0
 30
0.0
  9
$UCSYDIR
 10
0.0
 20
1.0
 30
0.0
  9
$UCSORTHOREF
  2

  9
$UCSORTHOVIEW
 70
     0
  9
$UCSORGTOP
 10
0.0
 20
0.0
 30
0.0
  9
$UCSORGBOTTOM
 10
0.0
 20
0.0
 30
0.0
  9
$UCSORGLEFT
 10
0.0
 20
0.0
 30
0.0
  9
$UCSORGRIGHT
 10
0.0
 20
0.0
 30
0.0
  9
$UCSORGFRONT
 10
0.0
 20
0.0
 30
0.0
  9
$UCSORGBACK
 10
0.0
 20
0.0
 30
0.0
  9
$PUCSBASE
  2

  9
$PUCSNAME
  2

  9
$PUCSORG
 10
0.0
 20
0.0
 30
0.0
  9
$PUCSXDIR
 10
1.0
 20
0.0
 30
0.0
  9
$PUCSYDIR
 10
0.0
 20
1.0
 30
0.0
  9
$PUCSORTHOREF
  2

  9
$PUCSORTHOVIEW
 70
     0
  9
$PUCSORGTOP
 10
0.0
 20
0.0
 30
0.0
  9
$PUCSORGBOTTOM
 10
0.0
 20
0.0
 30
0.0
  9
$PUCSORGLEFT
 10
0.0
 20
0.0
 30
0.0
  9
$PUCSORGRIGHT
 10
0.0
 20
0.0
 30
0.0
  9
$PUCSORGFRONT
 10
0.0
 20
0.0
 30
0.0
  9
$PUCSORGBACK
 10
0.0
 20
0.0
 30
0.0
  9
$USERI1
 70
     0
  9
$USERI2
 70
     0
  9
$USERI3
 70
     0
  9
$USERI4
 70
     0
  9
$USERI5
 70
     0
  9
$USERR1
 40
0.0
  9
$USERR2
 40
0.0
  9
$USERR3
 40
0.0
  9
$USERR4
 40
0.0
  9
$USERR5
 40
0.0
  9
$WORLDVIEW
 70
     1
  9
$SHADEDGE
 70
     3
  9
$SHADEDIF
 70
    70
  9
$TILEMODE
 70
     1
  9
$MAXACTVP
 70
    64
  9
$PINSBASE
 10
0.0
 20
0.0
 30
0.0
  9
$PLIMCHECK
 70
     0
  9
$PEXTMIN
 10
1.000000000000000E+20
 20
1.000000000000000E+20
 30
1.000000000000000E+20
  9
$PEXTMAX
 10
-1.000000000000000E+20
 20
-1.000000000000000E+20
 30
-1.000000000000000E+20
  9
$PLIMMIN
 10
0.0
 20
0.0
  9
$PLIMMAX
 10
12.0
 20
9.0
  9
$UNITMODE
 70
     0
  9
$VISRETAIN
 70
     1
  9
$PLINEGEN
 70
     0
  9
$PSLTSCALE
 70
     1
  9
$TREEDEPTH
 70
  3020
  9
$CMLSTYLE
  2
Standard
  9
$CMLJUST
 70
     0
  9
$CMLSCALE
 40
1.0
  9
$PROXYGRAPHICS
 70
     1
  9
$MEASUREMENT
 70
     1
  9
$CELWEIGHT
370
    -1
  9
$ENDCAPS
280
     0
  9
$JOINSTYLE
280
     0
  9
$LWDISPLAY
290
     0
  9
$INSUNITS
 70
     4
  9
$HYPERLINKBASE
  1

  9
$STYLESHEET
  1

  9
$XEDIT
290
     1
  9
$CEPSNTYPE
380
     0
  9
$PSTYLEMODE
290
     1
  9
$FINGERPRINTGUID
  2
{F23E05ED-B424-4950-BAA6-6FA2D2666E12}
  9
$VERSIONGUID
  2
{FFDF3501-BF4A-5347-B2F8-AA2B2EC42EC2}
  9
$EXTNAMES
290
     1
  9
$PSVPSCALE
 40
0.0
  9
$OLESTARTUP
290
     0
  9
$SORTENTS
280
   127
  9
$INDEXCTL
280
     0
  9
$HIDETEXT
280
     1
  9
$XCLIPFRAME
280
     2
  9
$HALOGAP
280
     0
  9
$OBSCOLOR
 70
   257
  9
$OBSLTYPE
280
     0
  9
$INTERSECTIONDISPLAY
280
     0
  9
$INTERSECTIONCOLOR
 70
   257
  9
$DIMASSOC
280
     2
  9
$PROJECTNAME
  1

  9
$CAMERADISPLAY
290
     0
  9
$LENSLENGTH
 40
50.0
  9
$CAMERAHEIGHT
 40
0.0
  9
$STEPSPERSEC
 40
2.0
  9
$STEPSIZE
 40
6.0
  9
$3DDWFPREC
 40
2.0
  9
$PSOLWIDTH
 40
0.25
  9
$PSOLHEIGHT
 40
4.0
  9
$LOFTANG1
 40
1.570796326794896
  9
$LOFTANG2
 40
1.570796326794896
  9
$LOFTMAG1
 40
0.0
  9
$LOFTMAG2
 40
0.0
  9
$LOFTPARAM
 70
     7
  9
$LOFTNORMALS
280
     1
  9
$LATITUDE
 40
37.795
  9
$LONGITUDE
 40
-122.394
  9
$NORTHDIRECTION
 40
0.0
  9
$TIMEZONE
 70
 -8000
  9
$LIGHTGLYPHDISPLAY
280
     1
  9
$TILEMODELIGHTSYNCH
280
     1
  9
$CMATERIAL
347
3C
  9
$SOLIDHIST
280
     1
  9
$SHOWHIST
280
     1
  9
$DWFFRAME
280
     2
  9
$DGNFRAME
280
     2
  9
$REALWORLDSCALE
290
     1
  9
$INTERFERECOLOR
 62
   256
  9
$INTERFEREOBJVS
345
33
  9
$INTERFEREVPVS
346
2D0
  9
$CSHADOW
280
     0
  9
$SHADOWPLANELOCATION
 40
0.0
  0
ENDSEC
  0
SECTION
  2
CLASSES
  0
CLASS
  1
ACDBDICTIONARYWDFLT
  2
AcDbDictionaryWithDefault
  3
ObjectDBX Classes
 90
        0
 91
        1
280
     0
281
     0
  0
CLASS
  1
VISUALSTYLE
  2
AcDbVisualStyle
  3
ObjectDBX Classes
 90
     4095
 91
       26
280
     0
281
     0
  0
CLASS
  1
MATERIAL
  2
AcDbMaterial
  3
ObjectDBX Classes
 90
     1153
 91
        3
280
     0
281
     0
  0
CLASS
  1
SCALE
  2
AcDbScale
  3
ObjectDBX Classes
 90
     1153
 91
       33
280
     0
281
     0
  0
CLASS
  1
SORTENTSTABLE
  2
AcDbSortentsTable
  3
ObjectDBX Classes
 90
        0
 91
        1
280
     0
281
     0
  0
CLASS
  1
DICTIONARYVAR
  2
AcDbDictionaryVar
  3
ObjectDBX Classes
 90
        0
 91
       17
280
     0
281
     0
  0
CLASS
  1
TABLESTYLE
  2
AcDbTableStyle
  3
ObjectDBX Classes
 90
     4095
 91
        1
280
     0
281
     0
  0
CLASS
  1
MLEADERSTYLE
  2
AcDbMLeaderStyle
  3
ACDB_MLEADERSTYLE_CLASS
 90
     4095
 91
        1
280
     0
281
     0
  0
CLASS
  1
ACDBSECTIONVIEWSTYLE
  2
AcDbSectionViewStyle
  3
ObjectDBX Classes
 90
     1025
 91
        1
280
     0
281
     0
  0
CLASS
  1
ACDBDETAILVIEWSTYLE
  2
AcDbDetailViewStyle
  3
ObjectDBX Classes
 90
     1025
 91
        1
280
     0
281
     0
  0
CLASS
  1
EXACXREFPANELOBJECT
  2
ExAcXREFPanelObject
  3
EXAC_ESW
 90
     1025
 91
        1
280
     0
281
     0
  0
CLASS
  1
NPOCOLLECTION
  2
AcDbImpNonPersistentObjectsCollection
  3
ObjectDBX Classes
 90
     1153
 91
        1
280
     0
281
     0
  0
CLASS
  1
CELLSTYLEMAP
  2
AcDbCellStyleMap
  3
ObjectDBX Classes
 90
     1152
 91
        1
280
     0
281
     0
  0
ENDSEC
  0
SECTION
  2
TABLES
  0
TABLE
  2
VPORT
  5
8
330
0
100
AcDbSymbolTable
 70
     1
  0
VPORT
  5
29
330
8
100
AcDbSymbolTableRecord
100
AcDbViewportTableRecord
  2
*Active
 70
     0
 10
0.0
 20
0.0
 11
1.0
 21
1.0
 12
525.0000024447199
 22
742.5000034575357
 13
0.0
 23
0.0
 14
0.5
 24
0.5
 15
0.5
 25
0.5
 16
0.0
 26
0.0
 36
1.0
 17
0.0
 27
0.0
 37
0.0
 40
1495.723744394779
 41
1.887694145758661
 42
50.0
 43
0.0
 44
0.0
 50
0.0
 51
0.0
 71
     0
 72
   100
 73
     1
 74
     3
 75
     0
 76
     0
 77
     0
 78
     0
281
     0
 65
     1
110
0.0
120
0.0
130
0.0
111
1.0
121
0.0
131
0.0
112
0.0
122
1.0
132
0.0
 79
     0
146
0.0
348
2F
 60
     3
 61
     5
292
     1
282
     1
141
0.0
142
0.0
 63
   250
1001
ACAD_NAV_VCDISPLAY
1070
     3
  0
ENDTAB
  0
TABLE
  2
LTYPE
  5
5
330
0
100
AcDbSymbolTable
 70
     5
  0
LTYPE
  5
14
330
5
100
AcDbSymbolTableRecord
100
AcDbLinetypeTableRecord
  2
ByBlock
 70
     0
  3

 72
    65
 73
     0
 40
0.0
  0
LTYPE
  5
15
330
5
100
AcDbSymbolTableRecord
100
AcDbLinetypeTableRecord
  2
ByLayer
 70
     0
  3

 72
    65
 73
     0
 40
0.0
  0
LTYPE
  5
16
330
5
100
AcDbSymbolTableRecord
100
AcDbLinetypeTableRecord
  2
Continuous
 70
     0
  3
Solid line
 72
    65
 73
     0
 40
0.0
  0
LTYPE
  5
41
330
5
100
AcDbSymbolTableRecord
100
AcDbLinetypeTableRecord
  2
PUNKT2_S9
 70
     0
  3
Eng Punktiert
 72
    65
 73
     2
 40
5.0
 49
0.0
 74
     0
 49
-5.0
 74
     0
  0
LTYPE
  5
42
330
5
100
AcDbSymbolTableRecord
100
AcDbLinetypeTableRecord
  2
STRICHPUNKT2_S5
 70
     0
  3
Lang eng gestrichelt bzw. punktiert
 72
    65
 73
     4
 40
55.0
 49
40.0
 74
     0
 49
-5.0
 74
     0
 49
5.0
 74
     0
 49
-5.0
 74
     0
  0
LTYPE
  5
43
330
5
100
AcDbSymbolTableRecord
100
AcDbLinetypeTableRecord
  2
VERDECKT2_S2
 70
     0
  3
Kurzgestrichelt
 72
    65
 73
     2
 40
13.5
 49
10.0
 74
     0
 49
-3.5
 74
     0
  0
ENDTAB
  0
TABLE
  2
LAYER
  5
2
102
{ACAD_XDICTIONARY
360
330
102
}
330
0
100
AcDbSymbolTable
 70
    18
  0
LAYER
  5
10
330
2
100
AcDbSymbolTableRecord
100
AcDbLayerTableRecord
  2
0
 70
     0
 62
     7
  6
Continuous
370
    -3
390
F
347
3E
  0
LAYER
  5
44
330
2
100
AcDbSymbolTableRecord
100
AcDbLayerTableRecord
  2
AANHAALLIJN
 70
     0
 62
     7
  6
Continuous
370
    18
390
F
347
3E
1001
AcAecLayerStandard
1000

1000
000101, on
  0
LAYER
  5
46
330
2
100
AcDbSymbolTableRecord
100
AcDbLayerTableRecord
  2
AFBREEKLIJNEN
 70
     0
 62
     7
  6
Continuous
370
    35
390
F
347
3E
1001
AcAecLayerStandard
1000

1000
000201, on
  0
LAYER
  5
47
330
2
100
AcDbSymbolTableRecord
100
AcDbLayerTableRecord
  2
ANKER
 70
     0
 62
     7
  6
Continuous
370
    25
390
F
347
3E
1001
AcAecLayerStandard
1000

1000
282213, on
  0
LAYER
  5
48
330
2
100
AcDbSymbolTableRecord
100
AcDbLayerTableRecord
  2
DILALATIEVOEG EN AFDICHTING
 70
     0
 62
     5
  6
Continuous
370
    35
390
F
347
3E
1001
AcAecLayerStandard
1000

1000
211031, on
  0
LAYER
  5
49
330
2
100
AcDbSymbolTableRecord
100
AcDbLayerTableRecord
  2
ENKELSCHALIGE DAKELEMENTEN
 70
     0
 62
    30
  6
Continuous
370
    70
390
F
347
3E
1001
AcAecLayerStandard
1000

1000
272214, on
  0
LAYER
  5
4A
330
2
100
AcDbSymbolTableRecord
100
AcDbLayerTableRecord
  2
GEVEL-ELEMENTEN
 70
     0
 62
     5
  6
Continuous
370
    35
390
F
347
3E
1001
AcAecLayerStandard
1000

1000
211341, on
  0
LAYER
  5
4B
330
2
100
AcDbSymbolTableRecord
100
AcDbLayerTableRecord
  2
HOUT
 70
     0
 62
     5
  6
Continuous
370
    35
390
F
347
3E
1001
AcAecLayerStandard
1000

1000
411211, on
  0
LAYER
  5
4C
330
2
100
AcDbSymbolTableRecord
100
AcDbLayerTableRecord
  2
HOUT_1
 70
     0
 62
     5
  6
Continuous
370
    35
390
F
347
3E
1001
AcAecLayerStandard
1000

1000
271611, on
  0
LAYER
  5
4D
330
2
100
AcDbSymbolTableRecord
100
AcDbLayerTableRecord
  2
ISOLATIEPLATEN
 70
     0
 62
     5
  6
Continuous
370
    35
390
F
347
3E
1001
AcAecLayerStandard
1000

1000
27151, on
  0
LAYER
  5
4E
330
2
100
AcDbSymbolTableRecord
100
AcDbLayerTableRecord
  2
Maatlijnen 1_5
 70
     0
 62
     7
  6
Continuous
370
    18
390
F
347
3E
1001
AcAecLayerStandard
1000

1000
ML_5, on
  0
LAYER
  5
4F
330
2
100
AcDbSymbolTableRecord
100
AcDbLayerTableRecord
  2
METALEN DAKBEDEKKING
 70
     0
 62
     5
  6
Continuous
370
    35
390
F
347
3E
1001
AcAecLayerStandard
1000

1000
47126, on
  0
LAYER
  5
50
330
2
100
AcDbSymbolTableRecord
100
AcDbLayerTableRecord
  2
PREFAB BETON
 70
     0
 62
     2
  6
Continuous
370
   100
390
F
347
3E
1001
AcAecLayerStandard
1000

1000
22218, on
  0
LAYER
  5
51
330
2
100
AcDbSymbolTableRecord
100
AcDbLayerTableRecord
  2
SAMENGESTELDE GEVELBEKLEDING
 70
     0
 62
     5
  6
Continuous
370
    35
390
F
347
3E
1001
AcAecLayerStandard
1000

1000
411251, on
  0
LAYER
  5
52
330
2
100
AcDbSymbolTableRecord
100
AcDbLayerTableRecord
  2
SANDWICH DAKELEMENTEN
 70
     0
 62
    30
  6
Continuous
370
    70
390
F
347
3E
1001
AcAecLayerStandard
1000

1000
272215, on
  0
LAYER
  5
53
330
2
100
AcDbSymbolTableRecord
100
AcDbLayerTableRecord
  2
STEENWOL
 70
     0
 62
     5
  6
Continuous
370
    35
390
F
347
3E
1001
AcAecLayerStandard
1000

1000
223111, on
  0
LAYER
  5
54
330
2
100
AcDbSymbolTableRecord
100
AcDbLayerTableRecord
  2
WANDEN
 70
     0
 62
     2
  6
Continuous
370
   100
390
F
347
3E
1001
AcAecLayerStandard
1000

1000
28211, on
  0
LAYER
  5
D0
330
2
100
AcDbSymbolTableRecord
100
AcDbLayerTableRecord
  2
DEFPOINTS
 70
     0
 62
     7
  6
Continuous
290
     0
370
    -3
390
F
347
3E
  0
ENDTAB
  0
TABLE
  2
STYLE
  5
3
330
0
100
AcDbSymbolTable
 70
     4
  0
STYLE
  5
11
330
3
100
AcDbSymbolTableRecord
100
AcDbTextStyleTableRecord
  2
Standard
 70
     0
 40
0.0
 41
1.0
 50
0.0
 71
     0
 42
0.2
  3
txt
  4

  0
STYLE
  5
3F
330
3
100
AcDbSymbolTableRecord
100
AcDbTextStyleTableRecord
  2
ARIAL
 70
     0
 40
0.0
 41
1.0
 50
0.0
 71
     0
 42
0.0
  3
ARIAL.TTF
  4

1001
ACAD
1000
Arial
1071
       34
  0
STYLE
  5
40
330
3
100
AcDbSymbolTableRecord
100
AcDbTextStyleTableRecord
  2
TAHOMA
 70
     0
 40
0.0
 41
1.0
 50
0.0
 71
     0
 42
0.0
  3
TAHOMA.TTF
  4

1001
ACAD
1000
Tahoma
1071
       34
  0
STYLE
  5
55
330
3
100
AcDbSymbolTableRecord
100
AcDbTextStyleTableRecord
  2
Trebuchet MS
 70
     0
 40
0.0
 41
1.0
 50
0.0
 71
     0
 42
0.0
  3
trebuc.ttf
  4

1001
ACAD
1000
Trebuchet MS
1071
        0
  0
ENDTAB
  0
TABLE
  2
VIEW
  5
6
330
0
100
AcDbSymbolTable
 70
     2
  0
ENDTAB
  0
TABLE
  2
UCS
  5
7
330
0
100
AcDbSymbolTable
 70
     0
  0
ENDTAB
  0
TABLE
  2
APPID
  5
9
330
0
100
AcDbSymbolTable
 70
     6
  0
APPID
  5
12
330
9
100
AcDbSymbolTableRecord
100
AcDbRegAppTableRecord
  2
ACAD
 70
     0
  0
APPID
  5
45
330
9
100
AcDbSymbolTableRecord
100
AcDbRegAppTableRecord
  2
AcAecLayerStandard
 70
     0
  0
APPID
  5
73
330
9
100
AcDbSymbolTableRecord
100
AcDbRegAppTableRecord
  2
NEM_ODX
 70
     0
  0
APPID
  5
2EE
330
9
100
AcDbSymbolTableRecord
100
AcDbRegAppTableRecord
  2
ACAD_EXEMPT_FROM_CAD_STANDARDS
 70
     0
  0
APPID
  5
2F2
330
9
100
AcDbSymbolTableRecord
100
AcDbRegAppTableRecord
  2
ACAD_NAV_VCDISPLAY
 70
     0
  0
APPID
  5
2FE
330
9
100
AcDbSymbolTableRecord
100
AcDbRegAppTableRecord
  2
AcadAnnoMonitorAlertIconDisabled
 70
     0
  0
ENDTAB
  0
TABLE
  2
DIMSTYLE
  5
A
330
0
100
AcDbSymbolTable
 70
     4
100
AcDbDimStyleTable
 71
     0
  0
DIMSTYLE
105
27
330
A
100
AcDbSymbolTableRecord
100
AcDbDimStyleTableRecord
  2
Standard
 70
     0
340
11
  0
DIMSTYLE
105
E1
102
{ACAD_REACTORS
330
E2
102
}
330
A
100
AcDbSymbolTableRecord
100
AcDbDimStyleTableRecord
  2
_DIMSTYLE_2
 70
     0
  3
<>
 41
15.0
 42
0.001
 43
0.0
 44
0.0
 45
1.0
 73
     0
 74
     0
 75
     1
 76
     1
 77
     2
 78
    12
140
10.0
141
0.0
147
5.0
172
     1
173
     1
174
     1
176
    30
177
    30
178
    30
271
     0
272
     0
274
     0
278
     0
279
     2
283
     0
340
55
343
D1
344
D1
371
     0
372
    18
  0
DIMSTYLE
105
ED
102
{ACAD_REACTORS
330
EE
330
F9
330
104
330
11B
102
}
330
A
100
AcDbSymbolTableRecord
100
AcDbDimStyleTableRecord
  2
_DIMSTYLE_3
 70
     0
  3
<>
 41
15.0
 42
0.001
 43
0.0
 44
0.0
 45
1.0
 73
     0
 74
     0
 75
     1
 76
     1
 77
     2
 78
    12
140
10.0
141
0.0
147
5.0
172
     1
173
     1
174
     1
176
    30
177
    30
178
    30
271
     0
272
     0
274
     0
278
     0
279
     2
283
     0
340
55
343
D1
344
D1
371
     0
372
    18
  0
DIMSTYLE
105
10F
102
{ACAD_REACTORS
330
110
102
}
330
A
100
AcDbSymbolTableRecord
100
AcDbDimStyleTableRecord
  2
_DIMSTYLE_4
 70
     0
  3
<>
 41
15.0
 42
0.001
 43
0.0
 44
0.0
 45
1.0
 73
     0
 74
     0
 75
     1
 76
     1
 77
     2
 78
    12
140
10.0
141
0.0
145
1.199999999999999
147
5.0
172
     1
173
     1
174
     1
176
    30
177
    30
178
    30
271
     0
272
     0
274
     0
278
     0
279
     2
283
     0
340
55
343
D1
344
D1
371
     0
372
    18
  0
ENDTAB
  0
TABLE
  2
BLOCK_RECORD
  5
1
330
0
100
AcDbSymbolTable
 70
    17
  0
BLOCK_RECORD
  5
1F
102
{ACAD_XDICTIONARY
360
2C9
102
}
330
1
100
AcDbSymbolTableRecord
100
AcDbBlockTableRecord
  2
*Model_Space
340
22
 70
     0
280
     1
281
     0
  0
BLOCK_RECORD
  5
1B
330
1
100
AcDbSymbolTableRecord
100
AcDbBlockTableRecord
  2
*Paper_Space
340
1E
 70
     0
280
     1
281
     0
  0
BLOCK_RECORD
  5
23
330
1
100
AcDbSymbolTableRecord
100
AcDbBlockTableRecord
  2
*Paper_Space0
340
26
 70
     0
280
     1
281
     0
  0
BLOCK_RECORD
  5
56
330
1
100
AcDbSymbolTableRecord
100
AcDbBlockTableRecord
  2
NSY140
340
0
 70
     4
280
     1
281
     0
  0
BLOCK_RECORD
  5
5C
330
1
100
AcDbSymbolTableRecord
100
AcDbBlockTableRecord
  2
NSY154
340
0
102
{BLKREFS
331
2AE
331
2B0
331
2BD
331
2C0
331
A6
331
B2
331
B3
331
B4
331
B5
331
B6
331
B7
331
B8
331
BE
331
BF
331
C0
331
C1
331
C2
331
128
331
12A
331
12B
331
12C
102
}
 70
     4
280
     1
281
     0
  0
BLOCK_RECORD
  5
AA
330
1
100
AcDbSymbolTableRecord
100
AcDbBlockTableRecord
  2
COMPLEXOBJECT_0
340
0
102
{BLKREFS
331
B1
102
}
 70
     4
280
     1
281
     0
  0
BLOCK_RECORD
  5
D1
330
1
100
AcDbSymbolTableRecord
100
AcDbBlockTableRecord
  2
ALL_ML_STRICH
340
0
102
{BLKREFS
331
301
331
302
331
308
331
309
331
30F
331
310
331
318
331
319
331
321
331
322
331
328
331
329
102
}
 70
     4
280
     1
281
     0
  0
BLOCK_RECORD
  5
D7
330
1
100
AcDbSymbolTableRecord
100
AcDbBlockTableRecord
  2
*D5
340
0
 70
     4
280
     1
281
     0
  0
BLOCK_RECORD
  5
E3
330
1
100
AcDbSymbolTableRecord
100
AcDbBlockTableRecord
  2
*D6
340
0
 70
     4
280
     1
281
     0
  0
BLOCK_RECORD
  5
EF
330
1
100
AcDbSymbolTableRecord
100
AcDbBlockTableRecord
  2
*D7
340
0
 70
     4
280
     1
281
     0
  0
BLOCK_RECORD
  5
FA
330
1
100
AcDbSymbolTableRecord
100
AcDbBlockTableRecord
  2
*D8
340
0
 70
     4
280
     1
281
     0
  0
BLOCK_RECORD
  5
105
330
1
100
AcDbSymbolTableRecord
100
AcDbBlockTableRecord
  2
*D9
340
0
 70
     4
280
     1
281
     0
  0
BLOCK_RECORD
  5
111
330
1
100
AcDbSymbolTableRecord
100
AcDbBlockTableRecord
  2
*D10
340
0
 70
     4
280
     1
281
     0
  0
BLOCK_RECORD
  5
11C
330
1
100
AcDbSymbolTableRecord
100
AcDbBlockTableRecord
  2
COMPLEXOBJECT_1
340
0
102
{BLKREFS
331
123
102
}
 70
     4
280
     1
281
     0
  0
BLOCK_RECORD
  5
13A
330
1
100
AcDbSymbolTableRecord
100
AcDbBlockTableRecord
  2
COMPLEXOBJECT_2
340
0
102
{BLKREFS
331
187
102
}
 70
     4
280
     1
281
     0
  0
BLOCK_RECORD
  5
188
330
1
100
AcDbSymbolTableRecord
100
AcDbBlockTableRecord
  2
COMPLEXOBJECT_3
340
0
102
{BLKREFS
331
1D5
102
}
 70
     4
280
     1
281
     0
  0
BLOCK_RECORD
  5
1ED
330
1
100
AcDbSymbolTableRecord
100
AcDbBlockTableRecord
  2
COMPLEXOBJECT_4
340
0
102
{BLKREFS
331
1F9
102
}
 70
     4
280
     1
281
     0
  0
BLOCK_RECORD
  5
1FA
330
1
100
AcDbSymbolTableRecord
100
AcDbBlockTableRecord
  2
COMPLEXOBJECT_5
340
0
102
{BLKREFS
331
206
102
}
 70
     4
280
     1
281
     0
  0
BLOCK_RECORD
  5
215
330
1
100
AcDbSymbolTableRecord
100
AcDbBlockTableRecord
  2
COMPLEXOBJECT_6
340
0
102
{BLKREFS
331
2A4
102
}
 70
     4
280
     1
281
     0
  0
ENDTAB
  0
ENDSEC
  0
SECTION
  2
BLOCKS
  0
BLOCK
  5
20
330
1F
100
AcDbEntity
  8
0
100
AcDbBlockBegin
  2
*Model_Space
 70
     0
 10
0.0
 20
0.0
 30
0.0
  3
*Model_Space
  1

  0
ENDBLK
  5
21
330
1F
100
AcDbEntity
  8
0
100
AcDbBlockEnd
  0
BLOCK
  5
1C
330
1B
100
AcDbEntity
 67
     1
  8
0
100
AcDbBlockBegin
  2
*Paper_Space
 70
     0
 10
0.0
 20
0.0
 30
0.0
  3
*Paper_Space
  1

  0
ENDBLK
  5
1D
330
1B
100
AcDbEntity
 67
     1
  8
0
100
AcDbBlockEnd
  0
BLOCK
  5
24
330
23
100
AcDbEntity
 67
     1
  8
0
100
AcDbBlockBegin
  2
*Paper_Space0
 70
     0
 10
0.0
 20
0.0
 30
0.0
  3
*Paper_Space0
  1

  0
ENDBLK
  5
25
330
23
100
AcDbEntity
 67
     1
  8
0
100
AcDbBlockEnd
  0
BLOCK
  5
57
330
56
100
AcDbEntity
  8
0
100
AcDbBlockBegin
  2
NSY140
 70
     0
 10
0.0
 20
0.0
 30
0.0
  3
NSY140
  1

  0
LINE
  5
59
330
56
100
AcDbEntity
  8
0
  6
ByBlock
 62
     0
370
    -2
100
AcDbLine
 10
0.0
 20
-2.5
 30
0.0
 11
0.0
 21
2.5
 31
0.0
  0
LINE
  5
5A
330
56
100
AcDbEntity
  8
0
  6
ByBlock
 62
     0
370
    -2
100
AcDbLine
 10
-2.5
 20
0.0
 30
0.0
 11
2.5
 21
0.0
 31
0.0
  0
LINE
  5
5B
330
56
100
AcDbEntity
  8
0
  6
ByBlock
 62
     0
370
    -2
100
AcDbLine
 10
-1.499999999999999
 20
-1.499999999999999
 30
0.0
 11
1.499999999999999
 21
1.499999999999999
 31
0.0
  0
ENDBLK
  5
58
330
56
100
AcDbEntity
  8
0
100
AcDbBlockEnd
  0
BLOCK
  5
5D
330
5C
100
AcDbEntity
  8
0
100
AcDbBlockBegin
  2
NSY154
 70
     0
 10
0.0
 20
0.0
 30
0.0
  3
NSY154
  1

  0
LINE
  5
5F
330
5C
100
AcDbEntity
  8
0
  6
ByBlock
 62
     0
370
    -2
100
AcDbLine
 10
-0.0000000000000002
 20
-2.625
 30
0.0
 11
0.0000000000000002
 21
2.625
 31
0.0
  0
CIRCLE
  5
60
330
5C
100
AcDbEntity
  8
0
  6
ByBlock
 62
     0
370
    -2
100
AcDbCircle
 10
0.0
 20
0.0
 30
0.0
 40
2.625
  0
LINE
  5
61
330
5C
100
AcDbEntity
  8
0
  6
ByBlock
 62
     0
370
    -2
100
AcDbLine
 10
-2.621249999999999
 20
0.0000000000000002
 30
0.0
 11
2.625
 21
-0.0000000000000002
 31
0.0
  0
ARC
  5
62
330
5C
100
AcDbEntity
  8
0
  6
ByBlock
 62
     0
370
    -2
100
AcDbCircle
 10
0.0
 20
0.0
 30
0.0
 40
0.375
100
AcDbArc
 50
0.0
 51
90.0
  0
ARC
  5
63
330
5C
100
AcDbEntity
  8
0
  6
ByBlock
 62
     0
370
    -2
100
AcDbCircle
 10
0.0
 20
0.0
 30
0.0
 40
0.75
100
AcDbArc
 50
0.0
 51
90.0
  0
ARC
  5
64
330
5C
100
AcDbEntity
  8
0
  6
ByBlock
 62
     0
370
    -2
100
AcDbCircle
 10
0.0
 20
0.0
 30
0.0
 40
1.125
100
AcDbArc
 50
0.0
 51
90.0
  0
ARC
  5
65
330
5C
100
AcDbEntity
  8
0
  6
ByBlock
 62
     0
370
    -2
100
AcDbCircle
 10
0.0
 20
0.0
 30
0.0
 40
1.875
100
AcDbArc
 50
0.0
 51
90.0
  0
ARC
  5
66
330
5C
100
AcDbEntity
  8
0
  6
ByBlock
 62
     0
370
    -2
100
AcDbCircle
 10
0.0
 20
0.0
 30
0.0
 40
1.5
100
AcDbArc
 50
0.0
 51
90.0
  0
ARC
  5
67
330
5C
100
AcDbEntity
  8
0
  6
ByBlock
 62
     0
370
    -2
100
AcDbCircle
 10
0.0
 20
0.0
 30
0.0
 40
2.25
100
AcDbArc
 50
0.0
 51
90.0
  0
ARC
  5
68
330
5C
100
AcDbEntity
  8
0
  6
ByBlock
 62
     0
370
    -2
100
AcDbCircle
 10
0.0
 20
0.0
 30
0.0
 40
0.375
100
AcDbArc
 50
180.0
 51
270.0
  0
ARC
  5
69
330
5C
100
AcDbEntity
  8
0
  6
ByBlock
 62
     0
370
    -2
100
AcDbCircle
 10
0.0
 20
0.0
 30
0.0
 40
0.75
100
AcDbArc
 50
180.0
 51
270.0
  0
ARC
  5
6A
330
5C
100
AcDbEntity
  8
0
  6
ByBlock
 62
     0
370
    -2
100
AcDbCircle
 10
0.0
 20
0.0
 30
0.0
 40
1.125
100
AcDbArc
 50
180.0
 51
270.0
  0
ARC
  5
6B
330
5C
100
AcDbEntity
  8
0
  6
ByBlock
 62
     0
370
    -2
100
AcDbCircle
 10
0.0
 20
0.0
 30
0.0
 40
1.875
100
AcDbArc
 50
180.0
 51
270.0
  0
ARC
  5
6C
330
5C
100
AcDbEntity
  8
0
  6
ByBlock
 62
     0
370
    -2
100
AcDbCircle
 10
0.0
 20
0.0
 30
0.0
 40
1.5
100
AcDbArc
 50
180.0
 51
270.0
  0
ARC
  5
6D
330
5C
100
AcDbEntity
  8
0
  6
ByBlock
 62
     0
370
    -2
100
AcDbCircle
 10
0.0
 20
0.0
 30
0.0
 40
2.25
100
AcDbArc
 50
180.0
 51
270.0
  0
LINE
  5
6E
330
5C
100
AcDbEntity
  8
0
  6
ByBlock
 62
     0
370
    -2
100
AcDbLine
 10
-0.0000000000000002
 20
-3.75
 30
0.0
 11
0.0000000000000002
 21
3.75
 31
0.0
  0
LINE
  5
6F
330
5C
100
AcDbEntity
  8
0
  6
ByBlock
 62
     0
370
    -2
100
AcDbLine
 10
-3.75
 20
0.0000000000000002
 30
0.0
 11
3.75
 21
-0.0000000000000002
 31
0.0
  0
ENDBLK
  5
5E
330
5C
100
AcDbEntity
  8
0
100
AcDbBlockEnd
  0
BLOCK
  5
AB
330
AA
100
AcDbEntity
  8
0
100
AcDbBlockBegin
  2
COMPLEXOBJECT_0
 70
     0
 10
0.0
 20
0.0
 30
0.0
  3
COMPLEXOBJECT_0
  1

  0
LINE
  5
AD
330
AA
100
AcDbEntity
  8
ANKER
  6
VERDECKT2_S2
 62
    30
370
    18
100
AcDbLine
 10
639.9999997231284
 20
544.9119457658853
 30
0.0
 11
524.9999997231284
 21
544.9119457658853
 31
0.0
  0
LINE
  5
AE
330
AA
100
AcDbEntity
  8
ANKER
  6
VERDECKT2_S2
 62
    30
370
    18
100
AcDbLine
 10
639.9999997231284
 20
549.9119457658853
 30
0.0
 11
569.9999997231284
 21
549.9119457545714
 31
0.0
  0
LINE
  5
AF
330
AA
100
AcDbEntity
  8
ANKER
  6
VERDECKT2_S2
 62
    30
370
    18
100
AcDbLine
 10
639.9999997231284
 20
539.9119457658853
 30
0.0
 11
569.9999997231284
 21
539.9119457545714
 31
0.0
  0
LINE
  5
B0
330
AA
100
AcDbEntity
  8
ANKER
  6
VERDECKT2_S2
 62
    30
370
    18
100
AcDbLine
 10
639.9999997231284
 20
551.9119457658852
 30
0.0
 11
639.9999997231284
 21
537.9119457658853
 31
0.0
  0
ENDBLK
  5
AC
330
AA
100
AcDbEntity
  8
0
100
AcDbBlockEnd
  0
BLOCK
  5
D2
330
D1
100
AcDbEntity
  8
0
100
AcDbBlockBegin
  2
ALL_ML_STRICH
 70
     0
 10
0.0
 20
0.0
 30
0.0
  3
ALL_ML_STRICH
  1

  0
LINE
  5
D4
330
D1
100
AcDbEntity
  8
0
  6
ByBlock
 62
     0
370
    -2
100
AcDbLine
 10
-1.0
 20
0.0
 30
0.0
 11
0.5
 21
0.0
 31
0.0
  0
LINE
  5
D5
330
D1
100
AcDbEntity
  8
0
  6
ByBlock
 62
     0
370
    -2
100
AcDbLine
 10
0.0
 20
-0.5
 30
0.0
 11
0.0
 21
0.5
 31
0.0
  0
LINE
  5
D6
330
D1
100
AcDbEntity
  8
0
  6
ByBlock
 62
     0
370
    -2
100
AcDbLine
 10
-0.3
 20
-0.3
 30
0.0
 11
0.3
 21
0.3
 31
0.0
  0
ENDBLK
  5
D3
330
D1
100
AcDbEntity
  8
0
100
AcDbBlockEnd
  0
BLOCK
  5
D8
330
D7
100
AcDbEntity
  8
0
100
AcDbBlockBegin
  2
*D5
 70
     1
 10
0.0
 20
0.0
 30
0.0
  3
*D5
  1

  0
LINE
  5
2FF
330
D7
100
AcDbEntity
  8
Maatlijnen 1_5
  6
Continuous
 62
    30
440
 16777216
370
     0
100
AcDbLine
 10
455.0000000221084
 20
185.0915882815087
 30
0.0
 11
575.0000001210969
 21
185.0915882815087
 31
0.0
  0
MTEXT
  5
300
330
D7
100
AcDbEntity
  8
Maatlijnen 1_5
  6
Continuous
 62
    30
440
 16777216
370
    18
100
AcDbMText
 10
514.7116041671658
 20
195.2281070528398
 30
0.0
 40
10.0
 41
21.0
 46
0.0
 71
     5
 72
     1
  1
150
  7
Trebuchet MS
 73
     1
 44
1.0
  0
INSERT
  5
301
330
D7
100
AcDbEntity
  8
Maatlijnen 1_5
  6
Continuous
 62
    30
440
 16777216
370
     0
100
AcDbBlockReference
  2
ALL_ML_STRICH
 10
440.0000000221084
 20
185.0915882815087
 30
0.0
 41
15.0
 42
15.0
 43
15.0
 50
180.0
  0
INSERT
  5
302
330
D7
100
AcDbEntity
  8
Maatlijnen 1_5
  6
Continuous
 62
    30
440
 16777216
370
     0
100
AcDbBlockReference
  2
ALL_ML_STRICH
 10
590.0000001210969
 20
185.0915882815087
 30
0.0
 41
15.0
 42
15.0
 43
15.0
  0
POINT
  5
303
330
D7
100
AcDbEntity
  8
DEFPOINTS
  6
Continuous
 62
     0
440
 16777216
100
AcDbPoint
 10
440.0000000221084
 20
185.0905882614734
 30
0.0
  0
POINT
  5
304
330
D7
100
AcDbEntity
  8
DEFPOINTS
  6
Continuous
 62
     0
440
 16777216
100
AcDbPoint
 10
590.0000001210969
 20
185.0905882815675
 30
0.0
  0
POINT
  5
305
330
D7
100
AcDbEntity
  8
DEFPOINTS
  6
Continuous
 62
     0
440
 16777216
100
AcDbPoint
 10
590.0000001210969
 20
185.0915882815087
 30
0.0
  0
ENDBLK
  5
D9
330
D7
100
AcDbEntity
  8
0
100
AcDbBlockEnd
  0
BLOCK
  5
E4
330
E3
100
AcDbEntity
  8
0
100
AcDbBlockBegin
  2
*D6
 70
     1
 10
0.0
 20
0.0
 30
0.0
  3
*D6
  1

  0
LINE
  5
306
330
E3
100
AcDbEntity
  8
Maatlijnen 1_5
  6
Continuous
 62
    30
440
 16777216
370
     0
100
AcDbLine
 10
605.0000001210969
 20
185.0915882815087
 30
0.0
 11
715.000000121096
 21
185.0915882815087
 31
0.0
  0
MTEXT
  5
307
330
E3
100
AcDbEntity
  8
Maatlijnen 1_5
  6
Continuous
 62
    30
440
 16777216
370
    18
100
AcDbMText
 10
659.7116042166597
 20
195.2281070528398
 30
0.0
 40
10.0
 41
21.0
 46
0.0
 71
     5
 72
     1
  1
140
  7
Trebuchet MS
 73
     1
 44
1.0
  0
INSERT
  5
308
330
E3
100
AcDbEntity
  8
Maatlijnen 1_5
  6
Continuous
 62
    30
440
 16777216
370
     0
100
AcDbBlockReference
  2
ALL_ML_STRICH
 10
590.0000001210969
 20
185.0915882815087
 30
0.0
 41
15.0
 42
15.0
 43
15.0
 50
180.0
  0
INSERT
  5
309
330
E3
100
AcDbEntity
  8
Maatlijnen 1_5
  6
Continuous
 62
    30
440
 16777216
370
     0
100
AcDbBlockReference
  2
ALL_ML_STRICH
 10
730.000000121096
 20
185.0915882815087
 30
0.0
 41
15.0
 42
15.0
 43
15.0
  0
POINT
  5
30A
330
E3
100
AcDbEntity
  8
DEFPOINTS
  6
Continuous
 62
     0
440
 16777216
100
AcDbPoint
 10
590.0000001210969
 20
185.0905882815675
 30
0.0
  0
POINT
  5
30B
330
E3
100
AcDbEntity
  8
DEFPOINTS
  6
Continuous
 62
     0
440
 16777216
100
AcDbPoint
 10
730.000000121096
 20
185.090588281579
 30
0.0
  0
POINT
  5
30C
330
E3
100
AcDbEntity
  8
DEFPOINTS
  6
Continuous
 62
     0
440
 16777216
100
AcDbPoint
 10
730.000000121096
 20
185.0915882815087
 30
0.0
  0
ENDBLK
  5
E5
330
E3
100
AcDbEntity
  8
0
100
AcDbBlockEnd
  0
BLOCK
  5
F0
330
EF
100
AcDbEntity
  8
0
100
AcDbBlockBegin
  2
*D7
 70
     1
 10
0.0
 20
0.0
 30
0.0
  3
*D7
  1

  0
LINE
  5
30D
330
EF
100
AcDbEntity
  8
Maatlijnen 1_5
  6
Continuous
 62
    30
440
 16777216
370
     0
100
AcDbLine
 10
745.000000121096
 20
185.0915882815087
 30
0.0
 11
775.0000001210887
 21
185.0915882815087
 31
0.0
  0
MTEXT
  5
30E
330
EF
100
AcDbEntity
  8
Maatlijnen 1_5
  6
Continuous
 62
    30
440
 16777216
370
    18
100
AcDbMText
 10
759.8771332268944
 20
195.2622367456726
 30
0.0
 40
10.0
 41
14.0
 46
0.0
 71
     5
 72
     1
  1
60
  7
Trebuchet MS
 73
     1
 44
1.0
  0
INSERT
  5
30F
330
EF
100
AcDbEntity
  8
Maatlijnen 1_5
  6
Continuous
 62
    30
440
 16777216
370
     0
100
AcDbBlockReference
  2
ALL_ML_STRICH
 10
730.000000121096
 20
185.0915882815087
 30
0.0
 41
15.0
 42
15.0
 43
15.0
 50
180.0
  0
INSERT
  5
310
330
EF
100
AcDbEntity
  8
Maatlijnen 1_5
  6
Continuous
 62
    30
440
 16777216
370
     0
100
AcDbBlockReference
  2
ALL_ML_STRICH
 10
790.0000001210887
 20
185.0915882815087
 30
0.0
 41
15.0
 42
15.0
 43
15.0
  0
POINT
  5
311
330
EF
100
AcDbEntity
  8
DEFPOINTS
  6
Continuous
 62
     0
440
 16777216
100
AcDbPoint
 10
730.000000121096
 20
185.090588281579
 30
0.0
  0
POINT
  5
312
330
EF
100
AcDbEntity
  8
DEFPOINTS
  6
Continuous
 62
     0
440
 16777216
100
AcDbPoint
 10
790.0000001210887
 20
185.0905882815593
 30
0.0
  0
POINT
  5
313
330
EF
100
AcDbEntity
  8
DEFPOINTS
  6
Continuous
 62
     0
440
 16777216
100
AcDbPoint
 10
790.0000001210887
 20
185.0915882815087
 30
0.0
  0
ENDBLK
  5
F1
330
EF
100
AcDbEntity
  8
0
100
AcDbBlockEnd
  0
BLOCK
  5
FB
330
FA
100
AcDbEntity
  8
0
100
AcDbBlockBegin
  2
*D8
 70
     1
 10
0.0
 20
0.0
 30
0.0
  3
*D8
  1

  0
LINE
  5
314
330
FA
100
AcDbEntity
  8
Maatlijnen 1_5
  6
Continuous
 62
    30
440
 16777216
370
     0
100
AcDbLine
 10
775.0000001210887
 20
185.0915882815087
 30
0.0
 11
760.0000001210887
 21
185.0915882815087
 31
0.0
  0
LINE
  5
315
330
FA
100
AcDbEntity
  8
Maatlijnen 1_5
  6
Continuous
 62
    30
440
 16777216
370
     0
100
AcDbLine
 10
833.0000001838476
 20
185.0915882815087
 30
0.0
 11
848.0000001838474
 21
185.0915882815087
 31
0.0
  0
MTEXT
  5
316
330
FA
100
AcDbEntity
  8
Maatlijnen 1_5
  6
Continuous
 62
    30
440
 16777216
370
    18
100
AcDbMText
 10
803.9556315517856
 20
195.2281070528398
 30
0.0
 40
10.0
 41
14.0
 46
0.0
 71
     5
 72
     1
  1
28
  7
Trebuchet MS
 73
     1
 44
1.0
  0
LINE
  5
317
330
FA
100
AcDbEntity
  8
Maatlijnen 1_5
  6
Continuous
 62
    30
440
 16777216
370
     0
100
AcDbLine
 10
790.0000001210887
 20
185.0915882815087
 30
0.0
 11
818.0000001838475
 21
185.0915882815087
 31
0.0
  0
INSERT
  5
318
330
FA
100
AcDbEntity
  8
Maatlijnen 1_5
  6
Continuous
 62
    30
440
 16777216
370
     0
100
AcDbBlockReference
  2
ALL_ML_STRICH
 10
790.0000001210887
 20
185.0915882815087
 30
0.0
 41
15.0
 42
15.0
 43
15.0
  0
INSERT
  5
319
330
FA
100
AcDbEntity
  8
Maatlijnen 1_5
  6
Continuous
 62
    30
440
 16777216
370
     0
100
AcDbBlockReference
  2
ALL_ML_STRICH
 10
818.0000001838475
 20
185.0915882815087
 30
0.0
 41
15.0
 42
15.0
 43
15.0
 50
180.0
  0
POINT
  5
31A
330
FA
100
AcDbEntity
  8
DEFPOINTS
  6
Continuous
 62
     0
440
 16777216
100
AcDbPoint
 10
790.0000001210887
 20
185.0905882815593
 30
0.0
  0
POINT
  5
31B
330
FA
100
AcDbEntity
  8
DEFPOINTS
  6
Continuous
 62
     0
440
 16777216
100
AcDbPoint
 10
818.0000001838475
 20
185.0905882815169
 30
0.0
  0
POINT
  5
31C
330
FA
100
AcDbEntity
  8
DEFPOINTS
  6
Continuous
 62
     0
440
 16777216
100
AcDbPoint
 10
818.0000001838475
 20
185.0915882815087
 30
0.0
  0
ENDBLK
  5
FC
330
FA
100
AcDbEntity
  8
0
100
AcDbBlockEnd
  0
BLOCK
  5
106
330
105
100
AcDbEntity
  8
0
100
AcDbBlockBegin
  2
*D9
 70
     1
 10
0.0
 20
0.0
 30
0.0
  3
*D9
  1

  0
LINE
  5
31D
330
105
100
AcDbEntity
  8
Maatlijnen 1_5
  6
Continuous
 62
    30
440
 16777216
370
     0
100
AcDbLine
 10
803.0000001838475
 20
185.0915882815087
 30
0.0
 11
788.0000001838475
 21
185.0915882815087
 31
0.0
  0
LINE
  5
31E
330
105
100
AcDbEntity
  8
Maatlijnen 1_5
  6
Continuous
 62
    30
440
 16777216
370
     0
100
AcDbLine
 10
841.0000001838476
 20
185.0915882815087
 30
0.0
 11
856.0000001838474
 21
185.0915882815087
 31
0.0
  0
MTEXT
  5
31F
330
105
100
AcDbEntity
  8
Maatlijnen 1_5
  6
Continuous
 62
    30
440
 16777216
370
    18
100
AcDbMText
 10
834.0000001838475
 20
195.2281070528398
 30
0.0
 40
10.0
 41
7.0
 46
0.0
 71
     5
 72
     1
  1
8
  7
Trebuchet MS
 73
     1
 44
1.0
  0
LINE
  5
320
330
105
100
AcDbEntity
  8
Maatlijnen 1_5
  6
Continuous
 62
    30
440
 16777216
370
     0
100
AcDbLine
 10
818.0000001838475
 20
185.0915882815087
 30
0.0
 11
826.0000001838475
 21
185.0915882815087
 31
0.0
  0
INSERT
  5
321
330
105
100
AcDbEntity
  8
Maatlijnen 1_5
  6
Continuous
 62
    30
440
 16777216
370
     0
100
AcDbBlockReference
  2
ALL_ML_STRICH
 10
818.0000001838475
 20
185.0915882815087
 30
0.0
 41
15.0
 42
15.0
 43
15.0
  0
INSERT
  5
322
330
105
100
AcDbEntity
  8
Maatlijnen 1_5
  6
Continuous
 62
    30
440
 16777216
370
     0
100
AcDbBlockReference
  2
ALL_ML_STRICH
 10
826.0000001838475
 20
185.0915882815087
 30
0.0
 41
15.0
 42
15.0
 43
15.0
 50
180.0
  0
POINT
  5
323
330
105
100
AcDbEntity
  8
DEFPOINTS
  6
Continuous
 62
     0
440
 16777216
100
AcDbPoint
 10
818.0000001838475
 20
185.0905882815169
 30
0.0
  0
POINT
  5
324
330
105
100
AcDbEntity
  8
DEFPOINTS
  6
Continuous
 62
     0
440
 16777216
100
AcDbPoint
 10
826.0000001838475
 20
185.0905882815087
 30
0.0
  0
POINT
  5
325
330
105
100
AcDbEntity
  8
DEFPOINTS
  6
Continuous
 62
     0
440
 16777216
100
AcDbPoint
 10
826.0000001838475
 20
185.0915882815087
 30
0.0
  0
ENDBLK
  5
107
330
105
100
AcDbEntity
  8
0
100
AcDbBlockEnd
  0
BLOCK
  5
112
330
111
100
AcDbEntity
  8
0
100
AcDbBlockBegin
  2
*D10
 70
     1
 10
0.0
 20
0.0
 30
0.0
  3
*D10
  1

  0
LINE
  5
326
330
111
100
AcDbEntity
  8
Maatlijnen 1_5
  6
Continuous
 62
    30
440
 16777216
370
     0
100
AcDbLine
 10
455.0000000221084
 20
155.0915882614735
 30
0.0
 11
811.0000001838475
 21
155.0915882614735
 31
0.0
  0
MTEXT
  5
327
330
111
100
AcDbEntity
  8
Maatlijnen 1_5
  6
Continuous
 62
    30
440
 16777216
370
    18
100
AcDbMText
 10
632.7935154613397
 20
165.2622367256373
 30
0.0
 40
10.0
 41
21.0
 46
0.0
 71
     5
 72
     1
  1
386
  7
Trebuchet MS
 73
     1
 44
1.0
  0
INSERT
  5
328
330
111
100
AcDbEntity
  8
Maatlijnen 1_5
  6
Continuous
 62
    30
440
 16777216
370
     0
100
AcDbBlockReference
  2
ALL_ML_STRICH
 10
440.0000000221084
 20
155.0915882614735
 30
0.0
 41
15.0
 42
15.0
 43
15.0
 50
180.0
  0
INSERT
  5
329
330
111
100
AcDbEntity
  8
Maatlijnen 1_5
  6
Continuous
 62
    30
440
 16777216
370
     0
100
AcDbBlockReference
  2
ALL_ML_STRICH
 10
826.0000001838475
 20
155.0915882614735
 30
0.0
 41
15.0
 42
15.0
 43
15.0
  0
POINT
  5
32A
330
111
100
AcDbEntity
  8
DEFPOINTS
  6
Continuous
 62
     0
440
 16777216
100
AcDbPoint
 10
440.0000000221084
 20
155.0905882614735
 30
0.0
  0
POINT
  5
32B
330
111
100
AcDbEntity
  8
DEFPOINTS
  6
Continuous
 62
     0
440
 16777216
100
AcDbPoint
 10
826.0000001838475
 20
155.0905882815087
 30
0.0
  0
POINT
  5
32C
330
111
100
AcDbEntity
  8
DEFPOINTS
  6
Continuous
 62
     0
440
 16777216
100
AcDbPoint
 10
826.0000001838475
 20
155.0915882614735
 30
0.0
  0
ENDBLK
  5
113
330
111
100
AcDbEntity
  8
0
100
AcDbBlockEnd
  0
BLOCK
  5
11D
330
11C
100
AcDbEntity
  8
0
100
AcDbBlockBegin
  2
COMPLEXOBJECT_1
 70
     0
 10
0.0
 20
0.0
 30
0.0
  3
COMPLEXOBJECT_1
  1

  0
LINE
  5
11F
330
11C
100
AcDbEntity
  8
ANKER
  6
VERDECKT2_S2
 62
    30
370
    18
100
AcDbLine
 10
593.0000000220939
 20
392.4118990012903
 30
0.0
 11
513.0000000220938
 21
392.4118990012903
 31
0.0
  0
LINE
  5
120
330
11C
100
AcDbEntity
  8
ANKER
  6
VERDECKT2_S2
 62
    30
370
    18
100
AcDbLine
 10
593.0000000220939
 20
387.4118990012903
 30
0.0
 11
548.0000000220939
 21
387.4118990012903
 31
0.0
  0
LINE
  5
121
330
11C
100
AcDbEntity
  8
ANKER
  6
VERDECKT2_S2
 62
    30
370
    18
100
AcDbLine
 10
593.0000000220939
 20
397.4118990012903
 30
0.0
 11
548.0000000220939
 21
397.4118990012903
 31
0.0
  0
LINE
  5
122
330
11C
100
AcDbEntity
  8
ANKER
  6
VERDECKT2_S2
 62
    30
370
    18
100
AcDbLine
 10
593.0000000220939
 20
385.4118990012903
 30
0.0
 11
593.0000000220939
 21
399.4118990012903
 31
0.0
  0
ENDBLK
  5
11E
330
11C
100
AcDbEntity
  8
0
100
AcDbBlockEnd
  0
BLOCK
  5
13B
330
13A
100
AcDbEntity
  8
0
100
AcDbBlockBegin
  2
COMPLEXOBJECT_2
 70
     0
 10
0.0
 20
0.0
 30
0.0
  3
COMPLEXOBJECT_2
  1

  0
LINE
  5
13D
330
13A
100
AcDbEntity
  8
ENKELSCHALIGE DAKELEMENTEN
  6
Continuous
 62
     5
370
    13
100
AcDbLine
 10
800.950000002413
 20
877.7915921234853
 30
0.0
 11
799.750000002416
 21
878.4851921234858
 31
0.0
  0
LINE
  5
13E
330
13A
100
AcDbEntity
  8
ENKELSCHALIGE DAKELEMENTEN
  6
Continuous
 62
     5
370
    13
100
AcDbLine
 10
805.7500000024161
 20
872.9831921234854
 30
0.0
 11
804.5500000024116
 21
873.6755921234854
 31
0.0
  0
LINE
  5
13F
330
13A
100
AcDbEntity
  8
ENKELSCHALIGE DAKELEMENTEN
  6
Continuous
 62
     5
370
    13
100
AcDbLine
 10
805.7500000024161
 20
872.9831921234854
 30
0.0
 11
804.5500000024116
 21
872.2895921234849
 31
0.0
  0
LINE
  5
140
330
13A
100
AcDbEntity
  8
ENKELSCHALIGE DAKELEMENTEN
  6
Continuous
 62
     5
370
    13
100
AcDbLine
 10
799.750000002416
 20
890.1619921234852
 30
0.0
 11
799.750000002416
 21
881.8031921234851
 31
0.0
  0
LINE
  5
141
330
13A
100
AcDbEntity
  8
ENKELSCHALIGE DAKELEMENTEN
  6
Continuous
 62
     5
370
    13
100
AcDbLine
 10
805.7500000024161
 20
890.1619921234852
 30
0.0
 11
805.7500000024161
 21
881.8031921234851
 31
0.0
  0
LINE
  5
142
330
13A
100
AcDbEntity
  8
ENKELSCHALIGE DAKELEMENTEN
  6
Continuous
 62
     5
370
    13
100
AcDbLine
 10
805.7500000024161
 20
869.6651921234861
 30
0.0
 11
804.5500000024116
 21
870.3575921234859
 31
0.0
  0
ARC
  5
143
330
13A
100
AcDbEntity
  8
ENKELSCHALIGE DAKELEMENTEN
  6
Continuous
 62
     5
370
    13
100
AcDbCircle
 10
824.8588000024179
 20
868.9715921234856
 30
0.0
 40
23.90880000000107
100
AcDbArc
 50
182.7809999999979
 51
188.9002000000006
  0
LINE
  5
144
330
13A
100
AcDbEntity
  8
ENKELSCHALIGE DAKELEMENTEN
  6
Continuous
 62
     5
370
    13
100
AcDbLine
 10
799.750000002416
 20
871.8479921234866
 30
0.0
 11
805.7500000024161
 21
869.6651921234861
 31
0.0
  0
LINE
  5
145
330
13A
100
AcDbEntity
  8
ENKELSCHALIGE DAKELEMENTEN
  6
Continuous
 62
     5
370
    13
100
AcDbLine
 10
803.333200002417
 20
860.7803921234863
 30
0.0
 11
803.1424000024131
 21
860.8907921234859
 31
0.0
  0
LINE
  5
146
330
13A
100
AcDbEntity
  8
ENKELSCHALIGE DAKELEMENTEN
  6
Continuous
 62
     5
370
    13
100
AcDbLine
 10
800.950000002413
 20
881.1095921234846
 30
0.0
 11
799.750000002416
 21
881.8031921234851
 31
0.0
  0
LINE
  5
147
330
13A
100
AcDbEntity
  8
ENKELSCHALIGE DAKELEMENTEN
  6
Continuous
 62
     5
370
    13
100
AcDbLine
 10
802.1500000024175
 20
892.6411921234867
 30
0.0
 11
803.3500000024146
 21
892.6411921234867
 31
0.0
  0
LINE
  5
148
330
13A
100
AcDbEntity
  8
ENKELSCHALIGE DAKELEMENTEN
  6
Continuous
 62
     5
370
    13
100
AcDbLine
 10
800.930800002418
 20
869.2247921234848
 30
0.0
 11
799.7308000024136
 21
868.5323921234848
 31
0.0
  0
LINE
  5
149
330
13A
100
AcDbEntity
  8
ENKELSCHALIGE DAKELEMENTEN
  6
Continuous
 62
     5
370
    13
100
AcDbLine
 10
801.2380000024135
 20
865.2731921234863
 30
0.0
 11
804.0988000024158
 21
863.9387921234865
 31
0.0
  0
LINE
  5
14A
330
13A
100
AcDbEntity
  8
ENKELSCHALIGE DAKELEMENTEN
  6
Continuous
 62
     5
370
    13
100
AcDbLine
 10
799.750000002416
 20
875.1671921234866
 30
0.0
 11
805.7500000024161
 21
872.9831921234854
 31
0.0
  0
LINE
  5
14B
330
13A
100
AcDbEntity
  8
ENKELSCHALIGE DAKELEMENTEN
  6
Continuous
 62
     5
370
    13
100
AcDbLine
 10
805.5280000024145
 20
866.4263921234852
 30
0.0
 11
804.3280000024173
 21
867.1199921234856
 31
0.0
  0
LINE
  5
14C
330
13A
100
AcDbEntity
  8
ENKELSCHALIGE DAKELEMENTEN
  6
Continuous
 62
     5
370
    13
100
AcDbLine
 10
805.7500000024161
 20
876.3011921234847
 30
0.0
 11
804.5500000024116
 21
875.607592123486
 31
0.0
  0
LINE
  5
14D
330
13A
100
AcDbEntity
  8
ENKELSCHALIGE DAKELEMENTEN
  6
Continuous
 62
     5
370
    13
100
AcDbLine
 10
800.950000002413
 20
868.7171921234858
 30
0.0
 11
800.950000002413
 21
871.1555921234866
 31
0.0
  0
LINE
  5
14E
330
13A
100
AcDbEntity
  8
ENKELSCHALIGE DAKELEMENTEN
  6
Continuous
 62
     5
370
    13
100
AcDbLine
 10
800.950000002413
 20
878.6711921234855
 30
0.0
 11
800.950000002413
 21
881.1095921234846
 31
0.0
  0
ARC
  5
14F
330
13A
100
AcDbEntity
  8
ENKELSCHALIGE DAKELEMENTEN
  6
Continuous
 62
     5
370
    13
100
AcDbCircle
 10
780.6412000024143
 20
868.9715921234856
 30
0.0
 40
23.90880000000107
100
AcDbArc
 50
355.4293000000007
 51
0.0
  0
ARC
  5
150
330
13A
100
AcDbEntity
  8
ENKELSCHALIGE DAKELEMENTEN
  6
Continuous
 62
     5
370
    13
100
AcDbCircle
 10
802.750000002416
 20
888.4795921234854
 30
0.0
 40
6.419999999998252
100
AcDbArc
 50
20.8305000000015
 51
84.63710100000772
  0
LINE
  5
151
330
13A
100
AcDbEntity
  8
ENKELSCHALIGE DAKELEMENTEN
  6
Continuous
 62
     5
370
    13
100
AcDbLine
 10
800.950000002413
 20
874.4735921234861
 30
0.0
 11
799.750000002416
 21
875.1671921234866
 31
0.0
  0
LINE
  5
152
330
13A
100
AcDbEntity
  8
ENKELSCHALIGE DAKELEMENTEN
  6
Continuous
 62
     5
370
    13
100
AcDbLine
 10
802.1536000024138
 20
861.4835921234861
 30
0.0
 11
801.8632000024158
 21
861.3155921234847
 31
0.0
  0
LINE
  5
153
330
13A
100
AcDbEntity
  8
ENKELSCHALIGE DAKELEMENTEN
  6
Continuous
 62
     5
370
    13
100
AcDbLine
 10
800.950000002413
 20
875.3543921234868
 30
0.0
 11
804.5500000024116
 21
873.6755921234854
 31
0.0
  0
LINE
  5
154
330
13A
100
AcDbEntity
  8
ENKELSCHALIGE DAKELEMENTEN
  6
Continuous
 62
     5
370
    13
100
AcDbLine
 10
808.750000002416
 20
890.7619921234854
 30
0.0
 11
796.750000002416
 21
890.7619921234854
 31
0.0
  0
LINE
  5
155
330
13A
100
AcDbEntity
  8
ENKELSCHALIGE DAKELEMENTEN
  6
Continuous
 62
     5
370
    13
100
AcDbLine
 10
801.3580000024163
 20
864.5747921234852
 30
0.0
 11
800.2612000024168
 21
865.2071921234856
 31
0.0
  0
LINE
  5
156
330
13A
100
AcDbEntity
  8
ENKELSCHALIGE DAKELEMENTEN
  6
Continuous
 62
     5
370
    13
100
AcDbLine
 10
805.7500000024161
 20
879.6191921234859
 30
0.0
 11
805.7500000024161
 21
881.8031921234851
 31
0.0
  0
ARC
  5
157
330
13A
100
AcDbEntity
  8
ENKELSCHALIGE DAKELEMENTEN
  6
Continuous
 62
     5
370
    13
100
AcDbCircle
 10
780.6412000024143
 20
868.9715921234856
 30
0.0
 40
23.90880000000107
100
AcDbArc
 50
340.2442000000011
 51
346.5074000000025
  0
LINE
  5
158
330
13A
100
AcDbEntity
  8
ENKELSCHALIGE DAKELEMENTEN
  6
Continuous
 62
     5
370
    13
100
AcDbLine
 10
802.1500000024175
 20
892.6411921234867
 30
0.0
 11
802.1500000024175
 21
894.8707921234854
 31
0.0
  0
LINE
  5
159
330
13A
100
AcDbEntity
  8
ENKELSCHALIGE DAKELEMENTEN
  6
Continuous
 62
     5
370
    13
100
AcDbLine
 10
804.5500000024116
 20
870.3575921234859
 30
0.0
 11
804.5500000024116
 21
872.8007921234857
 31
0.0
  0
LINE
  5
15A
330
13A
100
AcDbEntity
  8
ENKELSCHALIGE DAKELEMENTEN
  6
Continuous
 62
     5
370
    13
100
AcDbLine
 10
805.7500000024161
 20
869.6651921234861
 30
0.0
 11
804.5500000024116
 21
868.9715921234856
 31
0.0
  0
LINE
  5
15B
330
13A
100
AcDbEntity
  8
ENKELSCHALIGE DAKELEMENTEN
  6
Continuous
 62
     5
370
    13
100
AcDbLine
 10
800.950000002413
 20
871.1555921234866
 30
0.0
 11
799.750000002416
 21
871.8479921234866
 31
0.0
  0
LINE
  5
15C
330
13A
100
AcDbEntity
  8
ENKELSCHALIGE DAKELEMENTEN
  6
Continuous
 62
     5
370
    13
100
AcDbLine
 10
803.333200002417
 20
860.7803921234863
 30
0.0
 11
803.0416000024128
 21
860.6123921234866
 31
0.0
  0
LINE
  5
15D
330
13A
100
AcDbEntity
  8
ENKELSCHALIGE DAKELEMENTEN
  6
Continuous
 62
     5
370
    13
100
AcDbLine
 10
800.950000002413
 20
872.0351921234868
 30
0.0
 11
800.950000002413
 21
874.4735921234861
 31
0.0
  0
ARC
  5
15E
330
13A
100
AcDbEntity
  8
ENKELSCHALIGE DAKELEMENTEN
  6
Continuous
 62
     5
370
    13
100
AcDbCircle
 10
802.750000002416
 20
888.4795921234854
 30
0.0
 40
6.419999999998252
100
AcDbArc
 50
95.36290000001555
 51
159.1695000000062
  0
LINE
  5
15F
330
13A
100
AcDbEntity
  8
ENKELSCHALIGE DAKELEMENTEN
  6
Continuous
 62
     5
370
    13
100
AcDbLine
 10
804.5500000024116
 20
876.9935921234864
 30
0.0
 11
804.5500000024116
 21
879.4367921234861
 31
0.0
  0
LINE
  5
160
330
13A
100
AcDbEntity
  8
ENKELSCHALIGE DAKELEMENTEN
  6
Continuous
 62
     5
370
    13
100
AcDbLine
 10
801.8632000024158
 20
861.3155921234847
 30
0.0
 11
803.333200002417
 21
860.7803921234863
 31
0.0
  0
LINE
  5
161
330
13A
100
AcDbEntity
  8
ENKELSCHALIGE DAKELEMENTEN
  6
Continuous
 62
     5
370
    13
100
AcDbLine
 10
800.950000002413
 20
872.5415921234853
 30
0.0
 11
799.750000002416
 21
871.8479921234866
 31
0.0
  0
LINE
  5
162
330
13A
100
AcDbEntity
  8
ENKELSCHALIGE DAKELEMENTEN
  6
Continuous
 62
     5
370
    13
100
AcDbLine
 10
804.5500000024116
 20
868.9715921234856
 30
0.0
 11
804.5500000024116
 21
869.4827921234846
 31
0.0
  0
LINE
  5
163
330
13A
100
AcDbEntity
  8
ENKELSCHALIGE DAKELEMENTEN
  6
Continuous
 62
     5
370
    13
100
AcDbLine
 10
800.950000002413
 20
875.3531921234863
 30
0.0
 11
800.950000002413
 21
877.7915921234853
 31
0.0
  0
ARC
  5
164
330
13A
100
AcDbEntity
  8
ENKELSCHALIGE DAKELEMENTEN
  6
Continuous
 62
     5
370
    13
100
AcDbCircle
 10
780.6412000024143
 20
868.9715921234856
 30
0.0
 40
23.90880000000107
100
AcDbArc
 50
347.9540000000011
 51
353.4134000000005
  0
LINE
  5
165
330
13A
100
AcDbEntity
  8
ENKELSCHALIGE DAKELEMENTEN
  6
Continuous
 62
     5
370
    13
100
AcDbLine
 10
805.5280000024145
 20
866.4263921234852
 30
0.0
 11
804.330400002415
 21
865.7351921234859
 31
0.0
  0
LINE
  5
166
330
13A
100
AcDbEntity
  8
ENKELSCHALIGE DAKELEMENTEN
  6
Continuous
 62
     5
370
    13
100
AcDbLine
 10
805.7500000024161
 20
879.6191921234859
 30
0.0
 11
804.5500000024116
 21
878.9255921234852
 31
0.0
  0
LINE
  5
167
330
13A
100
AcDbEntity
  8
ENKELSCHALIGE DAKELEMENTEN
  6
Continuous
 62
     5
370
    13
100
AcDbLine
 10
803.3500000024146
 20
892.6411921234867
 30
0.0
 11
803.3500000024146
 21
894.8707921234854
 31
0.0
  0
LINE
  5
168
330
13A
100
AcDbEntity
  8
ENKELSCHALIGE DAKELEMENTEN
  6
Continuous
 62
     5
370
    13
100
AcDbLine
 10
808.750000002416
 20
890.7619921234854
 30
0.0
 11
808.750000002416
 21
890.1619921234852
 31
0.0
  0
LINE
  5
169
330
13A
100
AcDbEntity
  8
ENKELSCHALIGE DAKELEMENTEN
  6
Continuous
 62
     5
370
    13
100
AcDbLine
 10
805.7500000024161
 20
876.3011921234847
 30
0.0
 11
804.5500000024116
 21
876.9935921234864
 31
0.0
  0
LINE
  5
16A
330
13A
100
AcDbEntity
  8
ENKELSCHALIGE DAKELEMENTEN
  6
Continuous
 62
     5
370
    13
100
AcDbLine
 10
800.9032000024166
 20
881.1371921234858
 30
0.0
 11
804.5500000024116
 21
879.4367921234861
 31
0.0
  0
LINE
  5
16B
330
13A
100
AcDbEntity
  8
ENKELSCHALIGE DAKELEMENTEN
  6
Continuous
 62
     5
370
    13
100
AcDbLine
 10
800.2612000024168
 20
865.2071921234856
 30
0.0
 11
804.6988000024143
 21
863.5919921234854
 31
0.0
  0
LINE
  5
16C
330
13A
100
AcDbEntity
  8
ENKELSCHALIGE DAKELEMENTEN
  6
Continuous
 62
     5
370
    13
100
AcDbLine
 10
799.750000002416
 20
881.8031921234851
 30
0.0
 11
805.7500000024161
 21
879.6191921234859
 31
0.0
  0
LINE
  5
16D
330
13A
100
AcDbEntity
  8
ENKELSCHALIGE DAKELEMENTEN
  6
Continuous
 62
     5
370
    13
100
AcDbLine
 10
800.930800002418
 20
867.8387921234861
 30
0.0
 11
799.7308000024136
 21
868.5323921234848
 31
0.0
  0
LINE
  5
16E
330
13A
100
AcDbEntity
  8
ENKELSCHALIGE DAKELEMENTEN
  6
Continuous
 62
     5
370
    13
100
AcDbLine
 10
800.950000002413
 20
872.0363921234858
 30
0.0
 11
804.5500000024116
 21
870.3575921234859
 31
0.0
  0
LINE
  5
16F
330
13A
100
AcDbEntity
  8
ENKELSCHALIGE DAKELEMENTEN
  6
Continuous
 62
     5
370
    13
100
AcDbLine
 10
801.1708000024158
 20
865.7327921234864
 30
0.0
 11
800.2612000024168
 21
865.2071921234856
 31
0.0
  0
LINE
  5
170
330
13A
100
AcDbEntity
  8
ENKELSCHALIGE DAKELEMENTEN
  6
Continuous
 62
     5
370
    13
100
AcDbLine
 10
802.2052000024128
 20
861.3275921234853
 30
0.0
 11
803.1424000024131
 21
860.8907921234859
 31
0.0
  0
LINE
  5
171
330
13A
100
AcDbEntity
  8
ENKELSCHALIGE DAKELEMENTEN
  6
Continuous
 62
     5
370
    13
100
AcDbLine
 10
799.7308000024136
 20
868.5323921234848
 30
0.0
 11
805.5280000024145
 21
866.4263921234852
 31
0.0
  0
LINE
  5
172
330
13A
100
AcDbEntity
  8
ENKELSCHALIGE DAKELEMENTEN
  6
Continuous
 62
     5
370
    13
100
AcDbLine
 10
799.750000002416
 20
878.4851921234858
 30
0.0
 11
805.7500000024161
 21
876.3011921234847
 31
0.0
  0
LINE
  5
173
330
13A
100
AcDbEntity
  8
ENKELSCHALIGE DAKELEMENTEN
  6
Continuous
 62
     5
370
    13
100
AcDbLine
 10
804.5500000024116
 20
873.6755921234854
 30
0.0
 11
804.5500000024116
 21
876.1187921234849
 31
0.0
  0
LINE
  5
174
330
13A
100
AcDbEntity
  8
ENKELSCHALIGE DAKELEMENTEN
  6
Continuous
 62
     5
370
    13
100
AcDbLine
 10
800.950000002413
 20
875.8595921234864
 30
0.0
 11
799.750000002416
 21
875.1671921234866
 31
0.0
  0
LINE
  5
175
330
13A
100
AcDbEntity
  8
ENKELSCHALIGE DAKELEMENTEN
  6
Continuous
 62
     5
370
    13
100
AcDbLine
 10
800.9032000024166
 20
871.183192123486
 30
0.0
 11
804.5500000024116
 21
869.4827921234846
 31
0.0
  0
LINE
  5
176
330
13A
100
AcDbEntity
  8
ENKELSCHALIGE DAKELEMENTEN
  6
Continuous
 62
     5
370
    13
100
AcDbLine
 10
808.750000002416
 20
890.1619921234852
 30
0.0
 11
796.750000002416
 21
890.1619921234852
 31
0.0
  0
LINE
  5
177
330
13A
100
AcDbEntity
  8
ENKELSCHALIGE DAKELEMENTEN
  6
Continuous
 62
     5
370
    13
100
AcDbLine
 10
804.6988000024143
 20
863.5919921234854
 30
0.0
 11
803.8132000024129
 21
863.0807921234863
 31
0.0
  0
LINE
  5
178
330
13A
100
AcDbEntity
  8
ENKELSCHALIGE DAKELEMENTEN
  6
Continuous
 62
     5
370
    13
100
AcDbLine
 10
800.950000002413
 20
868.6943921234851
 30
0.0
 11
804.3280000024173
 21
867.1199921234856
 31
0.0
  0
LINE
  5
179
330
13A
100
AcDbEntity
  8
ENKELSCHALIGE DAKELEMENTEN
  6
Continuous
 62
     5
370
    13
100
AcDbLine
 10
800.9032000024166
 20
874.5011921234855
 30
0.0
 11
804.5500000024116
 21
872.8007921234857
 31
0.0
  0
ARC
  5
17A
330
13A
100
AcDbEntity
  8
ENKELSCHALIGE DAKELEMENTEN
  6
Continuous
 62
     5
370
    13
100
AcDbCircle
 10
824.8588000024179
 20
868.9715921234856
 30
0.0
 40
23.90880000000107
100
AcDbArc
 50
199.3082000000044
 51
202.3749000000031
  0
ARC
  5
17B
330
13A
100
AcDbEntity
  8
ENKELSCHALIGE DAKELEMENTEN
  6
Continuous
 62
     5
370
    13
100
AcDbCircle
 10
824.8588000024179
 20
868.9715921234856
 30
0.0
 40
23.90880000000107
100
AcDbArc
 50
190.5989000000034
 51
198.6460000000042
  0
LINE
  5
17C
330
13A
100
AcDbEntity
  8
ENKELSCHALIGE DAKELEMENTEN
  6
Continuous
 62
     5
370
    13
100
AcDbLine
 10
800.9032000024166
 20
877.8191921234848
 30
0.0
 11
804.5500000024116
 21
876.1187921234849
 31
0.0
  0
LINE
  5
17D
330
13A
100
AcDbEntity
  8
ENKELSCHALIGE DAKELEMENTEN
  6
Continuous
 62
     5
370
    13
100
AcDbLine
 10
801.3580000024163
 20
864.5747921234852
 30
0.0
 11
803.8900000024154
 21
863.3939921234851
 31
0.0
  0
LINE
  5
17E
330
13A
100
AcDbEntity
  8
ENKELSCHALIGE DAKELEMENTEN
  6
Continuous
 62
     5
370
    13
100
AcDbLine
 10
804.6988000024143
 20
863.5919921234854
 30
0.0
 11
804.0988000024158
 21
863.9387921234865
 31
0.0
  0
ARC
  5
17F
330
13A
100
AcDbEntity
  8
ENKELSCHALIGE DAKELEMENTEN
  6
Continuous
 62
     5
370
    13
100
AcDbCircle
 10
824.8588000024179
 20
868.9715921234856
 30
0.0
 40
23.90880000000107
100
AcDbArc
 50
180.0
 51
180.6655000000013
  0
LINE
  5
180
330
13A
100
AcDbEntity
  8
ENKELSCHALIGE DAKELEMENTEN
  6
Continuous
 62
     5
370
    13
100
AcDbLine
 10
800.950000002413
 20
879.1775921234856
 30
0.0
 11
799.750000002416
 21
878.4851921234858
 31
0.0
  0
LINE
  5
181
330
13A
100
AcDbEntity
  8
ENKELSCHALIGE DAKELEMENTEN
  6
Continuous
 62
     5
370
    13
100
AcDbLine
 10
796.750000002416
 20
890.7619921234854
 30
0.0
 11
796.750000002416
 21
890.1619921234852
 31
0.0
  0
LINE
  5
182
330
13A
100
AcDbEntity
  8
ENKELSCHALIGE DAKELEMENTEN
  6
Continuous
 62
     5
370
    13
100
AcDbLine
 10
802.2952000024165
 20
861.0659921234855
 30
0.0
 11
801.8632000024158
 21
861.3155921234847
 31
0.0
  0
LINE
  5
183
330
13A
100
AcDbEntity
  8
ENKELSCHALIGE DAKELEMENTEN
  6
Continuous
 62
     5
370
    13
100
AcDbLine
 10
802.2952000024165
 20
861.0659921234855
 30
0.0
 11
803.0740000024165
 21
860.702392123485
 31
0.0
  0
ARC
  5
184
330
13A
100
AcDbEntity
  8
ENKELSCHALIGE DAKELEMENTEN
  6
Continuous
 62
     5
370
    13
100
AcDbCircle
 10
780.6412000024143
 20
868.9715921234856
 30
0.0
 40
23.90880000000107
100
AcDbArc
 50
337.6250999999968
 51
339.7657999999975
  0
LINE
  5
185
330
13A
100
AcDbEntity
  8
ENKELSCHALIGE DAKELEMENTEN
  6
Continuous
 62
     5
370
    13
100
AcDbLine
 10
800.930800002418
 20
867.8387921234861
 30
0.0
 11
804.3904000024125
 21
866.2151921234853
 31
0.0
  0
LINE
  5
186
330
13A
100
AcDbEntity
  8
ENKELSCHALIGE DAKELEMENTEN
  6
Continuous
 62
     5
370
    13
100
AcDbLine
 10
800.950000002413
 20
878.6723921234861
 30
0.0
 11
804.5500000024116
 21
876.9935921234864
 31
0.0
  0
ENDBLK
  5
13C
330
13A
100
AcDbEntity
  8
0
100
AcDbBlockEnd
  0
BLOCK
  5
189
330
188
100
AcDbEntity
  8
0
100
AcDbBlockBegin
  2
COMPLEXOBJECT_3
 70
     0
 10
0.0
 20
0.0
 30
0.0
  3
COMPLEXOBJECT_3
  1

  0
LINE
  5
18B
330
188
100
AcDbEntity
  8
ENKELSCHALIGE DAKELEMENTEN
  6
Continuous
 62
     5
370
    13
100
AcDbLine
 10
859.4500000024131
 20
877.7915921234853
 30
0.0
 11
858.2500000024161
 21
878.4851921234858
 31
0.0
  0
LINE
  5
18C
330
188
100
AcDbEntity
  8
ENKELSCHALIGE DAKELEMENTEN
  6
Continuous
 62
     5
370
    13
100
AcDbLine
 10
864.250000002416
 20
872.9831921234854
 30
0.0
 11
863.0500000024117
 21
873.6755921234854
 31
0.0
  0
LINE
  5
18D
330
188
100
AcDbEntity
  8
ENKELSCHALIGE DAKELEMENTEN
  6
Continuous
 62
     5
370
    13
100
AcDbLine
 10
864.250000002416
 20
872.9831921234854
 30
0.0
 11
863.0500000024117
 21
872.2895921234849
 31
0.0
  0
LINE
  5
18E
330
188
100
AcDbEntity
  8
ENKELSCHALIGE DAKELEMENTEN
  6
Continuous
 62
     5
370
    13
100
AcDbLine
 10
858.2500000024161
 20
890.1619921234852
 30
0.0
 11
858.2500000024161
 21
881.8031921234851
 31
0.0
  0
LINE
  5
18F
330
188
100
AcDbEntity
  8
ENKELSCHALIGE DAKELEMENTEN
  6
Continuous
 62
     5
370
    13
100
AcDbLine
 10
864.250000002416
 20
890.1619921234852
 30
0.0
 11
864.250000002416
 21
881.8031921234851
 31
0.0
  0
LINE
  5
190
330
188
100
AcDbEntity
  8
ENKELSCHALIGE DAKELEMENTEN
  6
Continuous
 62
     5
370
    13
100
AcDbLine
 10
864.250000002416
 20
869.6651921234861
 30
0.0
 11
863.0500000024117
 21
870.3575921234859
 31
0.0
  0
ARC
  5
191
330
188
100
AcDbEntity
  8
ENKELSCHALIGE DAKELEMENTEN
  6
Continuous
 62
     5
370
    13
100
AcDbCircle
 10
883.3588000024178
 20
868.9715921234856
 30
0.0
 40
23.90880000000107
100
AcDbArc
 50
182.7809999999979
 51
188.9002000000006
  0
LINE
  5
192
330
188
100
AcDbEntity
  8
ENKELSCHALIGE DAKELEMENTEN
  6
Continuous
 62
     5
370
    13
100
AcDbLine
 10
858.2500000024161
 20
871.8479921234866
 30
0.0
 11
864.250000002416
 21
869.6651921234861
 31
0.0
  0
LINE
  5
193
330
188
100
AcDbEntity
  8
ENKELSCHALIGE DAKELEMENTEN
  6
Continuous
 62
     5
370
    13
100
AcDbLine
 10
861.8332000024169
 20
860.7803921234863
 30
0.0
 11
861.642400002413
 21
860.8907921234859
 31
0.0
  0
LINE
  5
194
330
188
100
AcDbEntity
  8
ENKELSCHALIGE DAKELEMENTEN
  6
Continuous
 62
     5
370
    13
100
AcDbLine
 10
859.4500000024131
 20
881.1095921234846
 30
0.0
 11
858.2500000024161
 21
881.8031921234851
 31
0.0
  0
LINE
  5
195
330
188
100
AcDbEntity
  8
ENKELSCHALIGE DAKELEMENTEN
  6
Continuous
 62
     5
370
    13
100
AcDbLine
 10
860.6500000024174
 20
892.6411921234867
 30
0.0
 11
861.8500000024146
 21
892.6411921234867
 31
0.0
  0
LINE
  5
196
330
188
100
AcDbEntity
  8
ENKELSCHALIGE DAKELEMENTEN
  6
Continuous
 62
     5
370
    13
100
AcDbLine
 10
859.4308000024179
 20
869.2247921234848
 30
0.0
 11
858.2308000024136
 21
868.5323921234848
 31
0.0
  0
LINE
  5
197
330
188
100
AcDbEntity
  8
ENKELSCHALIGE DAKELEMENTEN
  6
Continuous
 62
     5
370
    13
100
AcDbLine
 10
859.7380000024136
 20
865.2731921234863
 30
0.0
 11
862.5988000024157
 21
863.9387921234865
 31
0.0
  0
LINE
  5
198
330
188
100
AcDbEntity
  8
ENKELSCHALIGE DAKELEMENTEN
  6
Continuous
 62
     5
370
    13
100
AcDbLine
 10
858.2500000024161
 20
875.1671921234866
 30
0.0
 11
864.250000002416
 21
872.9831921234854
 31
0.0
  0
LINE
  5
199
330
188
100
AcDbEntity
  8
ENKELSCHALIGE DAKELEMENTEN
  6
Continuous
 62
     5
370
    13
100
AcDbLine
 10
864.0280000024144
 20
866.4263921234852
 30
0.0
 11
862.8280000024174
 21
867.1199921234856
 31
0.0
  0
LINE
  5
19A
330
188
100
AcDbEntity
  8
ENKELSCHALIGE DAKELEMENTEN
  6
Continuous
 62
     5
370
    13
100
AcDbLine
 10
864.250000002416
 20
876.3011921234847
 30
0.0
 11
863.0500000024117
 21
875.607592123486
 31
0.0
  0
LINE
  5
19B
330
188
100
AcDbEntity
  8
ENKELSCHALIGE DAKELEMENTEN
  6
Continuous
 62
     5
370
    13
100
AcDbLine
 10
859.4500000024131
 20
868.7171921234858
 30
0.0
 11
859.4500000024131
 21
871.1555921234866
 31
0.0
  0
LINE
  5
19C
330
188
100
AcDbEntity
  8
ENKELSCHALIGE DAKELEMENTEN
  6
Continuous
 62
     5
370
    13
100
AcDbLine
 10
859.4500000024131
 20
878.6711921234855
 30
0.0
 11
859.4500000024131
 21
881.1095921234846
 31
0.0
  0
ARC
  5
19D
330
188
100
AcDbEntity
  8
ENKELSCHALIGE DAKELEMENTEN
  6
Continuous
 62
     5
370
    13
100
AcDbCircle
 10
839.1412000024143
 20
868.9715921234856
 30
0.0
 40
23.90880000000107
100
AcDbArc
 50
355.4293000000007
 51
0.0
  0
ARC
  5
19E
330
188
100
AcDbEntity
  8
ENKELSCHALIGE DAKELEMENTEN
  6
Continuous
 62
     5
370
    13
100
AcDbCircle
 10
861.250000002416
 20
888.4795921234854
 30
0.0
 40
6.419999999998252
100
AcDbArc
 50
20.8305000000015
 51
84.63710100000772
  0
LINE
  5
19F
330
188
100
AcDbEntity
  8
ENKELSCHALIGE DAKELEMENTEN
  6
Continuous
 62
     5
370
    13
100
AcDbLine
 10
859.4500000024131
 20
874.4735921234861
 30
0.0
 11
858.2500000024161
 21
875.1671921234866
 31
0.0
  0
LINE
  5
1A0
330
188
100
AcDbEntity
  8
ENKELSCHALIGE DAKELEMENTEN
  6
Continuous
 62
     5
370
    13
100
AcDbLine
 10
860.6536000024139
 20
861.4835921234861
 30
0.0
 11
860.3632000024159
 21
861.3155921234847
 31
0.0
  0
LINE
  5
1A1
330
188
100
AcDbEntity
  8
ENKELSCHALIGE DAKELEMENTEN
  6
Continuous
 62
     5
370
    13
100
AcDbLine
 10
859.4500000024131
 20
875.3543921234868
 30
0.0
 11
863.0500000024117
 21
873.6755921234854
 31
0.0
  0
LINE
  5
1A2
330
188
100
AcDbEntity
  8
ENKELSCHALIGE DAKELEMENTEN
  6
Continuous
 62
     5
370
    13
100
AcDbLine
 10
867.2500000024161
 20
890.7619921234854
 30
0.0
 11
855.250000002416
 21
890.7619921234854
 31
0.0
  0
LINE
  5
1A3
330
188
100
AcDbEntity
  8
ENKELSCHALIGE DAKELEMENTEN
  6
Continuous
 62
     5
370
    13
100
AcDbLine
 10
859.8580000024162
 20
864.5747921234852
 30
0.0
 11
858.7612000024169
 21
865.2071921234856
 31
0.0
  0
LINE
  5
1A4
330
188
100
AcDbEntity
  8
ENKELSCHALIGE DAKELEMENTEN
  6
Continuous
 62
     5
370
    13
100
AcDbLine
 10
864.250000002416
 20
879.6191921234859
 30
0.0
 11
864.250000002416
 21
881.8031921234851
 31
0.0
  0
ARC
  5
1A5
330
188
100
AcDbEntity
  8
ENKELSCHALIGE DAKELEMENTEN
  6
Continuous
 62
     5
370
    13
100
AcDbCircle
 10
839.1412000024143
 20
868.9715921234856
 30
0.0
 40
23.90880000000107
100
AcDbArc
 50
340.2442000000011
 51
346.5074000000025
  0
LINE
  5
1A6
330
188
100
AcDbEntity
  8
ENKELSCHALIGE DAKELEMENTEN
  6
Continuous
 62
     5
370
    13
100
AcDbLine
 10
860.6500000024174
 20
892.6411921234867
 30
0.0
 11
860.6500000024174
 21
894.8707921234854
 31
0.0
  0
LINE
  5
1A7
330
188
100
AcDbEntity
  8
ENKELSCHALIGE DAKELEMENTEN
  6
Continuous
 62
     5
370
    13
100
AcDbLine
 10
863.0500000024117
 20
870.3575921234859
 30
0.0
 11
863.0500000024117
 21
872.8007921234857
 31
0.0
  0
LINE
  5
1A8
330
188
100
AcDbEntity
  8
ENKELSCHALIGE DAKELEMENTEN
  6
Continuous
 62
     5
370
    13
100
AcDbLine
 10
864.250000002416
 20
869.6651921234861
 30
0.0
 11
863.0500000024117
 21
868.9715921234856
 31
0.0
  0
LINE
  5
1A9
330
188
100
AcDbEntity
  8
ENKELSCHALIGE DAKELEMENTEN
  6
Continuous
 62
     5
370
    13
100
AcDbLine
 10
859.4500000024131
 20
871.1555921234866
 30
0.0
 11
858.2500000024161
 21
871.8479921234866
 31
0.0
  0
LINE
  5
1AA
330
188
100
AcDbEntity
  8
ENKELSCHALIGE DAKELEMENTEN
  6
Continuous
 62
     5
370
    13
100
AcDbLine
 10
861.8332000024169
 20
860.7803921234863
 30
0.0
 11
861.5416000024129
 21
860.6123921234866
 31
0.0
  0
LINE
  5
1AB
330
188
100
AcDbEntity
  8
ENKELSCHALIGE DAKELEMENTEN
  6
Continuous
 62
     5
370
    13
100
AcDbLine
 10
859.4500000024131
 20
872.0351921234868
 30
0.0
 11
859.4500000024131
 21
874.4735921234861
 31
0.0
  0
ARC
  5
1AC
330
188
100
AcDbEntity
  8
ENKELSCHALIGE DAKELEMENTEN
  6
Continuous
 62
     5
370
    13
100
AcDbCircle
 10
861.250000002416
 20
888.4795921234854
 30
0.0
 40
6.419999999998252
100
AcDbArc
 50
95.36290000001555
 51
159.1695000000062
  0
LINE
  5
1AD
330
188
100
AcDbEntity
  8
ENKELSCHALIGE DAKELEMENTEN
  6
Continuous
 62
     5
370
    13
100
AcDbLine
 10
863.0500000024117
 20
876.9935921234864
 30
0.0
 11
863.0500000024117
 21
879.4367921234861
 31
0.0
  0
LINE
  5
1AE
330
188
100
AcDbEntity
  8
ENKELSCHALIGE DAKELEMENTEN
  6
Continuous
 62
     5
370
    13
100
AcDbLine
 10
860.3632000024159
 20
861.3155921234847
 30
0.0
 11
861.8332000024169
 21
860.7803921234863
 31
0.0
  0
LINE
  5
1AF
330
188
100
AcDbEntity
  8
ENKELSCHALIGE DAKELEMENTEN
  6
Continuous
 62
     5
370
    13
100
AcDbLine
 10
859.4500000024131
 20
872.5415921234853
 30
0.0
 11
858.2500000024161
 21
871.8479921234866
 31
0.0
  0
LINE
  5
1B0
330
188
100
AcDbEntity
  8
ENKELSCHALIGE DAKELEMENTEN
  6
Continuous
 62
     5
370
    13
100
AcDbLine
 10
863.0500000024117
 20
868.9715921234856
 30
0.0
 11
863.0500000024117
 21
869.4827921234846
 31
0.0
  0
LINE
  5
1B1
330
188
100
AcDbEntity
  8
ENKELSCHALIGE DAKELEMENTEN
  6
Continuous
 62
     5
370
    13
100
AcDbLine
 10
859.4500000024131
 20
875.3531921234863
 30
0.0
 11
859.4500000024131
 21
877.7915921234853
 31
0.0
  0
ARC
  5
1B2
330
188
100
AcDbEntity
  8
ENKELSCHALIGE DAKELEMENTEN
  6
Continuous
 62
     5
370
    13
100
AcDbCircle
 10
839.1412000024143
 20
868.9715921234856
 30
0.0
 40
23.90880000000107
100
AcDbArc
 50
347.9540000000011
 51
353.4134000000005
  0
LINE
  5
1B3
330
188
100
AcDbEntity
  8
ENKELSCHALIGE DAKELEMENTEN
  6
Continuous
 62
     5
370
    13
100
AcDbLine
 10
864.0280000024144
 20
866.4263921234852
 30
0.0
 11
862.8304000024149
 21
865.7351921234859
 31
0.0
  0
LINE
  5
1B4
330
188
100
AcDbEntity
  8
ENKELSCHALIGE DAKELEMENTEN
  6
Continuous
 62
     5
370
    13
100
AcDbLine
 10
864.250000002416
 20
879.6191921234859
 30
0.0
 11
863.0500000024117
 21
878.9255921234852
 31
0.0
  0
LINE
  5
1B5
330
188
100
AcDbEntity
  8
ENKELSCHALIGE DAKELEMENTEN
  6
Continuous
 62
     5
370
    13
100
AcDbLine
 10
861.8500000024146
 20
892.6411921234867
 30
0.0
 11
861.8500000024146
 21
894.8707921234854
 31
0.0
  0
LINE
  5
1B6
330
188
100
AcDbEntity
  8
ENKELSCHALIGE DAKELEMENTEN
  6
Continuous
 62
     5
370
    13
100
AcDbLine
 10
867.2500000024161
 20
890.7619921234854
 30
0.0
 11
867.2500000024161
 21
890.1619921234852
 31
0.0
  0
LINE
  5
1B7
330
188
100
AcDbEntity
  8
ENKELSCHALIGE DAKELEMENTEN
  6
Continuous
 62
     5
370
    13
100
AcDbLine
 10
864.250000002416
 20
876.3011921234847
 30
0.0
 11
863.0500000024117
 21
876.9935921234864
 31
0.0
  0
LINE
  5
1B8
330
188
100
AcDbEntity
  8
ENKELSCHALIGE DAKELEMENTEN
  6
Continuous
 62
     5
370
    13
100
AcDbLine
 10
859.4032000024167
 20
881.1371921234858
 30
0.0
 11
863.0500000024117
 21
879.4367921234861
 31
0.0
  0
LINE
  5
1B9
330
188
100
AcDbEntity
  8
ENKELSCHALIGE DAKELEMENTEN
  6
Continuous
 62
     5
370
    13
100
AcDbLine
 10
858.7612000024169
 20
865.2071921234856
 30
0.0
 11
863.1988000024144
 21
863.5919921234854
 31
0.0
  0
LINE
  5
1BA
330
188
100
AcDbEntity
  8
ENKELSCHALIGE DAKELEMENTEN
  6
Continuous
 62
     5
370
    13
100
AcDbLine
 10
858.2500000024161
 20
881.8031921234851
 30
0.0
 11
864.250000002416
 21
879.6191921234859
 31
0.0
  0
LINE
  5
1BB
330
188
100
AcDbEntity
  8
ENKELSCHALIGE DAKELEMENTEN
  6
Continuous
 62
     5
370
    13
100
AcDbLine
 10
859.4308000024179
 20
867.8387921234861
 30
0.0
 11
858.2308000024136
 21
868.5323921234848
 31
0.0
  0
LINE
  5
1BC
330
188
100
AcDbEntity
  8
ENKELSCHALIGE DAKELEMENTEN
  6
Continuous
 62
     5
370
    13
100
AcDbLine
 10
859.4500000024131
 20
872.0363921234858
 30
0.0
 11
863.0500000024117
 21
870.3575921234859
 31
0.0
  0
LINE
  5
1BD
330
188
100
AcDbEntity
  8
ENKELSCHALIGE DAKELEMENTEN
  6
Continuous
 62
     5
370
    13
100
AcDbLine
 10
859.6708000024159
 20
865.7327921234864
 30
0.0
 11
858.7612000024169
 21
865.2071921234856
 31
0.0
  0
LINE
  5
1BE
330
188
100
AcDbEntity
  8
ENKELSCHALIGE DAKELEMENTEN
  6
Continuous
 62
     5
370
    13
100
AcDbLine
 10
860.7052000024127
 20
861.3275921234853
 30
0.0
 11
861.642400002413
 21
860.8907921234859
 31
0.0
  0
LINE
  5
1BF
330
188
100
AcDbEntity
  8
ENKELSCHALIGE DAKELEMENTEN
  6
Continuous
 62
     5
370
    13
100
AcDbLine
 10
858.2308000024136
 20
868.5323921234848
 30
0.0
 11
864.0280000024144
 21
866.4263921234852
 31
0.0
  0
LINE
  5
1C0
330
188
100
AcDbEntity
  8
ENKELSCHALIGE DAKELEMENTEN
  6
Continuous
 62
     5
370
    13
100
AcDbLine
 10
858.2500000024161
 20
878.4851921234858
 30
0.0
 11
864.250000002416
 21
876.3011921234847
 31
0.0
  0
LINE
  5
1C1
330
188
100
AcDbEntity
  8
ENKELSCHALIGE DAKELEMENTEN
  6
Continuous
 62
     5
370
    13
100
AcDbLine
 10
863.0500000024117
 20
873.6755921234854
 30
0.0
 11
863.0500000024117
 21
876.1187921234849
 31
0.0
  0
LINE
  5
1C2
330
188
100
AcDbEntity
  8
ENKELSCHALIGE DAKELEMENTEN
  6
Continuous
 62
     5
370
    13
100
AcDbLine
 10
859.4500000024131
 20
875.8595921234864
 30
0.0
 11
858.2500000024161
 21
875.1671921234866
 31
0.0
  0
LINE
  5
1C3
330
188
100
AcDbEntity
  8
ENKELSCHALIGE DAKELEMENTEN
  6
Continuous
 62
     5
370
    13
100
AcDbLine
 10
859.4032000024167
 20
871.183192123486
 30
0.0
 11
863.0500000024117
 21
869.4827921234846
 31
0.0
  0
LINE
  5
1C4
330
188
100
AcDbEntity
  8
ENKELSCHALIGE DAKELEMENTEN
  6
Continuous
 62
     5
370
    13
100
AcDbLine
 10
867.2500000024161
 20
890.1619921234852
 30
0.0
 11
855.250000002416
 21
890.1619921234852
 31
0.0
  0
LINE
  5
1C5
330
188
100
AcDbEntity
  8
ENKELSCHALIGE DAKELEMENTEN
  6
Continuous
 62
     5
370
    13
100
AcDbLine
 10
863.1988000024144
 20
863.5919921234854
 30
0.0
 11
862.313200002413
 21
863.0807921234863
 31
0.0
  0
LINE
  5
1C6
330
188
100
AcDbEntity
  8
ENKELSCHALIGE DAKELEMENTEN
  6
Continuous
 62
     5
370
    13
100
AcDbLine
 10
859.4500000024131
 20
868.6943921234851
 30
0.0
 11
862.8280000024174
 21
867.1199921234856
 31
0.0
  0
LINE
  5
1C7
330
188
100
AcDbEntity
  8
ENKELSCHALIGE DAKELEMENTEN
  6
Continuous
 62
     5
370
    13
100
AcDbLine
 10
859.4032000024167
 20
874.5011921234855
 30
0.0
 11
863.0500000024117
 21
872.8007921234857
 31
0.0
  0
ARC
  5
1C8
330
188
100
AcDbEntity
  8
ENKELSCHALIGE DAKELEMENTEN
  6
Continuous
 62
     5
370
    13
100
AcDbCircle
 10
883.3588000024178
 20
868.9715921234856
 30
0.0
 40
23.90880000000107
100
AcDbArc
 50
199.3082000000044
 51
202.3749000000031
  0
ARC
  5
1C9
330
188
100
AcDbEntity
  8
ENKELSCHALIGE DAKELEMENTEN
  6
Continuous
 62
     5
370
    13
100
AcDbCircle
 10
883.3588000024178
 20
868.9715921234856
 30
0.0
 40
23.90880000000107
100
AcDbArc
 50
190.5989000000034
 51
198.6460000000042
  0
LINE
  5
1CA
330
188
100
AcDbEntity
  8
ENKELSCHALIGE DAKELEMENTEN
  6
Continuous
 62
     5
370
    13
100
AcDbLine
 10
859.4032000024167
 20
877.8191921234848
 30
0.0
 11
863.0500000024117
 21
876.1187921234849
 31
0.0
  0
LINE
  5
1CB
330
188
100
AcDbEntity
  8
ENKELSCHALIGE DAKELEMENTEN
  6
Continuous
 62
     5
370
    13
100
AcDbLine
 10
859.8580000024162
 20
864.5747921234852
 30
0.0
 11
862.3900000024155
 21
863.3939921234851
 31
0.0
  0
LINE
  5
1CC
330
188
100
AcDbEntity
  8
ENKELSCHALIGE DAKELEMENTEN
  6
Continuous
 62
     5
370
    13
100
AcDbLine
 10
863.1988000024144
 20
863.5919921234854
 30
0.0
 11
862.5988000024157
 21
863.9387921234865
 31
0.0
  0
ARC
  5
1CD
330
188
100
AcDbEntity
  8
ENKELSCHALIGE DAKELEMENTEN
  6
Continuous
 62
     5
370
    13
100
AcDbCircle
 10
883.3588000024178
 20
868.9715921234856
 30
0.0
 40
23.90880000000107
100
AcDbArc
 50
180.0
 51
180.6655000000013
  0
LINE
  5
1CE
330
188
100
AcDbEntity
  8
ENKELSCHALIGE DAKELEMENTEN
  6
Continuous
 62
     5
370
    13
100
AcDbLine
 10
859.4500000024131
 20
879.1775921234856
 30
0.0
 11
858.2500000024161
 21
878.4851921234858
 31
0.0
  0
LINE
  5
1CF
330
188
100
AcDbEntity
  8
ENKELSCHALIGE DAKELEMENTEN
  6
Continuous
 62
     5
370
    13
100
AcDbLine
 10
855.250000002416
 20
890.7619921234854
 30
0.0
 11
855.250000002416
 21
890.1619921234852
 31
0.0
  0
LINE
  5
1D0
330
188
100
AcDbEntity
  8
ENKELSCHALIGE DAKELEMENTEN
  6
Continuous
 62
     5
370
    13
100
AcDbLine
 10
860.7952000024166
 20
861.0659921234855
 30
0.0
 11
860.3632000024159
 21
861.3155921234847
 31
0.0
  0
LINE
  5
1D1
330
188
100
AcDbEntity
  8
ENKELSCHALIGE DAKELEMENTEN
  6
Continuous
 62
     5
370
    13
100
AcDbLine
 10
860.7952000024166
 20
861.0659921234855
 30
0.0
 11
861.5740000024166
 21
860.702392123485
 31
0.0
  0
ARC
  5
1D2
330
188
100
AcDbEntity
  8
ENKELSCHALIGE DAKELEMENTEN
  6
Continuous
 62
     5
370
    13
100
AcDbCircle
 10
839.1412000024143
 20
868.9715921234856
 30
0.0
 40
23.90880000000107
100
AcDbArc
 50
337.6250999999968
 51
339.7657999999975
  0
LINE
  5
1D3
330
188
100
AcDbEntity
  8
ENKELSCHALIGE DAKELEMENTEN
  6
Continuous
 62
     5
370
    13
100
AcDbLine
 10
859.4308000024179
 20
867.8387921234861
 30
0.0
 11
862.8904000024126
 21
866.2151921234853
 31
0.0
  0
LINE
  5
1D4
330
188
100
AcDbEntity
  8
ENKELSCHALIGE DAKELEMENTEN
  6
Continuous
 62
     5
370
    13
100
AcDbLine
 10
859.4500000024131
 20
878.6723921234861
 30
0.0
 11
863.0500000024117
 21
876.9935921234864
 31
0.0
  0
ENDBLK
  5
18A
330
188
100
AcDbEntity
  8
0
100
AcDbBlockEnd
  0
BLOCK
  5
1EE
330
1ED
100
AcDbEntity
  8
0
100
AcDbBlockBegin
  2
COMPLEXOBJECT_4
 70
     0
 10
0.0
 20
0.0
 30
0.0
  3
COMPLEXOBJECT_4
  1

  0
LINE
  5
1F0
330
1ED
100
AcDbEntity
  8
ENKELSCHALIGE DAKELEMENTEN
  6
Continuous
 62
     2
370
    13
100
AcDbLine
 10
787.2500000024087
 20
926.8631464124464
 30
0.0
 11
782.250000002416
 21
926.8631464124464
 31
0.0
  0
ARC
  5
1F1
330
1ED
100
AcDbEntity
  8
ENKELSCHALIGE DAKELEMENTEN
  6
Continuous
 62
     2
370
    13
100
AcDbCircle
 10
787.2500000024087
 20
927.7625692679666
 30
0.0
 40
0.8994228555194716
100
AcDbArc
 50
270.0
 51
90.0
  0
ARC
  5
1F2
330
1ED
100
AcDbEntity
  8
ENKELSCHALIGE DAKELEMENTEN
  6
Continuous
 62
     2
370
    13
100
AcDbCircle
 10
782.250000002416
 20
927.7625692679666
 30
0.0
 40
0.8994228555194716
100
AcDbArc
 50
90.0
 51
270.0
  0
LWPOLYLINE
  5
1F3
330
1ED
100
AcDbEntity
  8
ENKELSCHALIGE DAKELEMENTEN
  6
Continuous
 62
     1
370
    13
100
AcDbPolyline
 90
        5
 70
     1
 43
0.0
 10
787.2500000024087
 20
932.4119921234869
 10
782.250000002416
 20
932.4119921234851
 10
782.250000002416
 20
928.6619921234869
 10
787.2500000024087
 20
928.6619921234869
 10
787.2500000024087
 20
932.4119921234869
  0
LINE
  5
1F4
330
1ED
100
AcDbEntity
  8
ENKELSCHALIGE DAKELEMENTEN
  6
Continuous
 62
     2
370
    13
100
AcDbLine
 10
788.9253808394573
 20
933.1611892643977
 30
0.0
 11
780.5746191653748
 21
933.1611892643941
 31
0.0
  0
ARC
  5
1F5
330
1ED
100
AcDbEntity
  8
ENKELSCHALIGE DAKELEMENTEN
  6
Continuous
 62
     2
370
    13
100
AcDbCircle
 10
787.6117887849764
 20
932.1470981925521
 30
0.0
 40
1.659489315298757
100
AcDbArc
 50
9.18505882462275
 51
37.66808607915533
  0
ARC
  5
1F6
330
1ED
100
AcDbEntity
  8
ENKELSCHALIGE DAKELEMENTEN
  6
Continuous
 62
     2
370
    13
100
AcDbCircle
 10
781.8882112195356
 20
932.147098192685
 30
0.0
 40
1.65948931496192
100
AcDbArc
 50
142.3319139178216
 51
170.8149411781128
  0
LINE
  5
1F7
330
1ED
100
AcDbEntity
  8
ENKELSCHALIGE DAKELEMENTEN
  6
Continuous
 62
     2
370
    13
100
AcDbLine
 10
780.2500000024161
 20
932.4119921234869
 30
0.0
 11
789.2500000024161
 21
932.4119921234869
 31
0.0
  0
LINE
  5
1F8
330
1ED
100
AcDbEntity
  8
ENKELSCHALIGE DAKELEMENTEN
  6
Continuous
 62
     5
370
    13
100
AcDbLine
 10
784.7500000024161
 20
925.3202753662554
 30
0.0
 11
784.7500000024161
 21
934.5824286761072
 31
0.0
  0
ENDBLK
  5
1EF
330
1ED
100
AcDbEntity
  8
0
100
AcDbBlockEnd
  0
BLOCK
  5
1FB
330
1FA
100
AcDbEntity
  8
0
100
AcDbBlockBegin
  2
COMPLEXOBJECT_5
 70
     0
 10
0.0
 20
0.0
 30
0.0
  3
COMPLEXOBJECT_5
  1

  0
LINE
  5
1FD
330
1FA
100
AcDbEntity
  8
ENKELSCHALIGE DAKELEMENTEN
  6
Continuous
 62
     2
370
    13
100
AcDbLine
 10
881.7500000024152
 20
926.8631464124464
 30
0.0
 11
876.7500000024224
 21
926.8631464124464
 31
0.0
  0
ARC
  5
1FE
330
1FA
100
AcDbEntity
  8
ENKELSCHALIGE DAKELEMENTEN
  6
Continuous
 62
     2
370
    13
100
AcDbCircle
 10
881.7500000024152
 20
927.7625692679666
 30
0.0
 40
0.8994228555194716
100
AcDbArc
 50
270.0
 51
90.0
  0
ARC
  5
1FF
330
1FA
100
AcDbEntity
  8
ENKELSCHALIGE DAKELEMENTEN
  6
Continuous
 62
     2
370
    13
100
AcDbCircle
 10
876.7500000024224
 20
927.7625692679666
 30
0.0
 40
0.8994228555194716
100
AcDbArc
 50
90.0
 51
270.0
  0
LWPOLYLINE
  5
200
330
1FA
100
AcDbEntity
  8
ENKELSCHALIGE DAKELEMENTEN
  6
Continuous
 62
     1
370
    13
100
AcDbPolyline
 90
        5
 70
     1
 43
0.0
 10
881.7500000024152
 20
932.4119921234869
 10
876.7500000024224
 20
932.4119921234851
 10
876.7500000024224
 20
928.6619921234869
 10
881.7500000024152
 20
928.6619921234869
 10
881.7500000024152
 20
932.4119921234869
  0
LINE
  5
201
330
1FA
100
AcDbEntity
  8
ENKELSCHALIGE DAKELEMENTEN
  6
Continuous
 62
     2
370
    13
100
AcDbLine
 10
883.4253808394636
 20
933.1611892643977
 30
0.0
 11
875.0746191653812
 21
933.1611892643941
 31
0.0
  0
ARC
  5
202
330
1FA
100
AcDbEntity
  8
ENKELSCHALIGE DAKELEMENTEN
  6
Continuous
 62
     2
370
    13
100
AcDbCircle
 10
882.1117887849828
 20
932.1470981925521
 30
0.0
 40
1.659489315298757
100
AcDbArc
 50
9.18505882462275
 51
37.66808607915533
  0
ARC
  5
203
330
1FA
100
AcDbEntity
  8
ENKELSCHALIGE DAKELEMENTEN
  6
Continuous
 62
     2
370
    13
100
AcDbCircle
 10
876.3882112195419
 20
932.147098192685
 30
0.0
 40
1.65948931496192
100
AcDbArc
 50
142.3319139178216
 51
170.8149411781128
  0
LINE
  5
204
330
1FA
100
AcDbEntity
  8
ENKELSCHALIGE DAKELEMENTEN
  6
Continuous
 62
     2
370
    13
100
AcDbLine
 10
874.7500000024224
 20
932.4119921234869
 30
0.0
 11
883.7500000024224
 21
932.4119921234869
 31
0.0
  0
LINE
  5
205
330
1FA
100
AcDbEntity
  8
ENKELSCHALIGE DAKELEMENTEN
  6
Continuous
 62
     5
370
    13
100
AcDbLine
 10
879.2500000024224
 20
925.3202753662554
 30
0.0
 11
879.2500000024224
 21
934.5824286761072
 31
0.0
  0
ENDBLK
  5
1FC
330
1FA
100
AcDbEntity
  8
0
100
AcDbBlockEnd
  0
BLOCK
  5
216
330
215
100
AcDbEntity
  8
0
100
AcDbBlockBegin
  2
COMPLEXOBJECT_6
 70
     0
 10
0.0
 20
0.0
 30
0.0
  3
COMPLEXOBJECT_6
  1

  0
LWPOLYLINE
  5
218
330
215
100
AcDbEntity
  8
ENKELSCHALIGE DAKELEMENTEN
  6
Continuous
 62
     5
370
    13
100
AcDbPolyline
 90
        5
 70
     1
 43
0.0
 10
611.694999464657
 20
850.3372314278839
 10
611.6950011615922
 20
867.4119921234906
 10
621.1914277779365
 20
867.4119921234906
 10
621.191426080994
 20
850.3372291895521
 10
611.694999464657
 20
850.3372314278839
  0
LWPOLYLINE
  5
219
330
215
100
AcDbEntity
  8
ENKELSCHALIGE DAKELEMENTEN
  6
Continuous
 62
     5
370
    13
100
AcDbPolyline
 90
        5
 70
     1
 43
0.0
 10
619.9432174868784
 20
848.4119921234887
 10
619.9432174868129
 20
689.2921919720129
 10
612.9432174868057
 20
689.2921919720029
 10
612.9432174868784
 20
848.4119921234915
 10
619.9432174868784
 20
848.4119921234887
  0
LWPOLYLINE
  5
21A
330
215
100
AcDbEntity
  8
ENKELSCHALIGE DAKELEMENTEN
  6
Continuous
 62
     5
370
    13
100
AcDbPolyline
 90
        7
 70
     1
 43
0.0
 10
613.4432174868202
 20
647.1588646226082
 10
612.9432174868129
 20
646.7955933585963
 10
613.443217486813
 20
646.1074023983619
 10
619.4432174868202
 20
643.8329645247385
 10
619.9432174868129
 20
644.1962357887368
 10
619.4432174868129
 20
644.8844267489712
 10
613.4432174868202
 20
647.1588646226082
  0
LWPOLYLINE
  5
21B
330
215
100
AcDbEntity
  8
ENKELSCHALIGE DAKELEMENTEN
  6
Continuous
 62
     5
370
    13
100
AcDbPolyline
 90
        7
 70
     1
 43
0.0
 10
613.443217486813
 20
649.6588646226101
 10
612.9432174868057
 20
649.2955933585981
 10
613.443217486813
 20
648.6074023983637
 10
619.4432174868129
 20
646.3329645247394
 10
619.9432174868129
 20
646.6962357887378
 10
619.4432174868056
 20
647.384426748973
 10
613.443217486813
 20
649.6588646226101
  0
LWPOLYLINE
  5
21C
330
215
100
AcDbEntity
  8
ENKELSCHALIGE DAKELEMENTEN
  6
Continuous
 62
     5
370
    13
100
AcDbPolyline
 90
        5
 70
     1
 43
0.0
 10
613.443217486813
 20
648.6074023983637
 10
613.4432174868202
 20
647.1588646226082
 10
619.4432174868129
 20
644.8844267489712
 10
619.4432174868129
 20
646.3329645247394
 10
613.443217486813
 20
648.6074023983637
  0
LWPOLYLINE
  5
21D
330
215
100
AcDbEntity
  8
ENKELSCHALIGE DAKELEMENTEN
  6
Continuous
 62
     5
370
    13
100
AcDbPolyline
 90
        5
 70
     1
 43
0.0
 10
613.443217486813
 20
633.6074023983674
 10
613.4432174868057
 20
632.1588646226027
 10
619.4432174868129
 20
629.8844267489721
 10
619.4432174868202
 20
631.3329645247404
 10
613.443217486813
 20
633.6074023983674
  0
LWPOLYLINE
  5
21E
330
215
100
AcDbEntity
  8
ENKELSCHALIGE DAKELEMENTEN
  6
Continuous
 62
     5
370
    13
100
AcDbPolyline
 90
        7
 70
     1
 43
0.0
 10
613.4432174868057
 20
632.1588646226027
 10
612.9432174868129
 20
631.7955933585981
 10
613.443217486813
 20
631.1074023983692
 10
619.4432174868129
 20
628.832964524745
 10
619.9432174868129
 20
629.1962357887442
 10
619.4432174868129
 20
629.8844267489721
 10
613.4432174868057
 20
632.1588646226027
  0
LINE
  5
21F
330
215
100
AcDbEntity
  8
ENKELSCHALIGE DAKELEMENTEN
  6
Continuous
 62
     5
370
    13
100
AcDbLine
 10
613.443217486813
 20
631.1074023983701
 30
0.0
 11
619.4432174868202
 21
629.8844267489721
 31
0.0
  0
LWPOLYLINE
  5
220
330
215
100
AcDbEntity
  8
ENKELSCHALIGE DAKELEMENTEN
  6
Continuous
 62
     5
370
    13
100
AcDbPolyline
 90
        5
 70
     1
 43
0.0
 10
613.443217486813
 20
631.1074023983692
 10
613.443217486813
 20
629.6588646226009
 10
619.4432174868129
 20
627.384426748973
 10
619.4432174868129
 20
628.832964524745
 10
613.443217486813
 20
631.1074023983692
  0
LWPOLYLINE
  5
221
330
215
100
AcDbEntity
  8
ENKELSCHALIGE DAKELEMENTEN
  6
Continuous
 62
     5
370
    13
100
AcDbPolyline
 90
        7
 70
     1
 43
0.0
 10
613.4432174868057
 20
627.1588646226018
 10
612.9432174868129
 20
626.7955933586035
 10
613.4432174868202
 20
626.1074023983655
 10
619.4432174868202
 20
623.8329645247431
 10
619.9432174868202
 20
624.1962357887414
 10
619.4432174868129
 20
624.8844267489748
 10
613.4432174868057
 20
627.1588646226018
  0
LINE
  5
222
330
215
100
AcDbEntity
  8
ENKELSCHALIGE DAKELEMENTEN
  6
Continuous
 62
     5
370
    13
100
AcDbLine
 10
613.4432174868202
 20
626.1074023983665
 30
0.0
 11
619.4432174868129
 21
624.8844267489767
 31
0.0
  0
LWPOLYLINE
  5
223
330
215
100
AcDbEntity
  8
ENKELSCHALIGE DAKELEMENTEN
  6
Continuous
 62
     5
370
    13
100
AcDbPolyline
 90
        5
 70
     1
 43
0.0
 10
613.4432174868202
 20
626.1074023983655
 10
613.443217486813
 20
624.6588646226009
 10
619.4432174868129
 20
622.3844267489758
 10
619.4432174868202
 20
623.8329645247431
 10
613.4432174868202
 20
626.1074023983655
  0
LWPOLYLINE
  5
224
330
215
100
AcDbEntity
  8
ENKELSCHALIGE DAKELEMENTEN
  6
Continuous
 62
     5
370
    13
100
AcDbPolyline
 90
        7
 70
     1
 43
0.0
 10
613.443217486813
 20
624.6588646226009
 10
612.9432174868129
 20
624.2955933586017
 10
613.4432174868202
 20
623.6074023983656
 10
619.4432174868129
 20
621.3329645247276
 10
619.9432174868202
 20
621.6962357887396
 10
619.4432174868129
 20
622.3844267489758
 10
613.443217486813
 20
624.6588646226009
  0
LINE
  5
225
330
215
100
AcDbEntity
  8
ENKELSCHALIGE DAKELEMENTEN
  6
Continuous
 62
     5
370
    13
100
AcDbLine
 10
613.4432174868202
 20
623.6074023983647
 30
0.0
 11
619.4432174868129
 21
622.3844267489775
 31
0.0
  0
LWPOLYLINE
  5
226
330
215
100
AcDbEntity
  8
ENKELSCHALIGE DAKELEMENTEN
  6
Continuous
 62
     5
370
    13
100
AcDbPolyline
 90
        7
 70
     1
 43
0.0
 10
613.443217486813
 20
629.6588646226009
 10
612.9432174868129
 20
629.2955933586027
 10
613.443217486813
 20
628.6074023983683
 10
619.4432174868275
 20
626.3329645247377
 10
619.9432174868129
 20
626.6962357887423
 10
619.4432174868129
 20
627.384426748973
 10
613.443217486813
 20
629.6588646226009
  0
LINE
  5
227
330
215
100
AcDbEntity
  8
ENKELSCHALIGE DAKELEMENTEN
  6
Continuous
 62
     5
370
    13
100
AcDbLine
 10
613.443217486813
 20
628.6074023983683
 30
0.0
 11
619.4432174868202
 21
627.384426748973
 31
0.0
  0
LWPOLYLINE
  5
228
330
215
100
AcDbEntity
  8
ENKELSCHALIGE DAKELEMENTEN
  6
Continuous
 62
     5
370
    13
100
AcDbPolyline
 90
        5
 70
     1
 43
0.0
 10
613.443217486813
 20
628.6074023983683
 10
613.4432174868057
 20
627.1588646226018
 10
619.4432174868129
 20
624.8844267489748
 10
619.4432174868275
 20
626.3329645247377
 10
613.443217486813
 20
628.6074023983683
  0
LWPOLYLINE
  5
229
330
215
100
AcDbEntity
  8
ENKELSCHALIGE DAKELEMENTEN
  6
Continuous
 62
     5
370
    13
100
AcDbPolyline
 90
        5
 70
     1
 43
0.0
 10
613.443217486813
 20
643.6074023983674
 10
613.4432174868202
 20
642.1588646226082
 10
619.4432174868056
 20
639.8844267489785
 10
619.4432174868202
 20
641.3329645247367
 10
613.443217486813
 20
643.6074023983674
  0
LWPOLYLINE
  5
22A
330
215
100
AcDbEntity
  8
ENKELSCHALIGE DAKELEMENTEN
  6
Continuous
 62
     5
370
    13
100
AcDbPolyline
 90
        7
 70
     1
 43
0.0
 10
613.4432174868202
 20
642.1588646226082
 10
612.9432174868057
 20
641.7955933586027
 10
613.443217486813
 20
641.1074023983656
 10
619.4432174868129
 20
638.8329645247422
 10
619.9432174868129
 20
639.1962357887405
 10
619.4432174868056
 20
639.8844267489785
 10
613.4432174868202
 20
642.1588646226082
  0
LWPOLYLINE
  5
22B
330
215
100
AcDbEntity
  8
ENKELSCHALIGE DAKELEMENTEN
  6
Continuous
 62
     5
370
    13
100
AcDbPolyline
 90
        7
 70
     1
 43
0.0
 10
613.4432174868202
 20
644.6588646226073
 10
612.9432174868129
 20
644.2955933585981
 10
613.443217486813
 20
643.6074023983674
 10
619.4432174868202
 20
641.3329645247367
 10
619.9432174868129
 20
641.6962357887432
 10
619.4432174868129
 20
642.384426748973
 10
613.4432174868202
 20
644.6588646226073
  0
LINE
  5
22C
330
215
100
AcDbEntity
  8
ENKELSCHALIGE DAKELEMENTEN
  6
Continuous
 62
     5
370
    13
100
AcDbLine
 10
613.443217486813
 20
641.1074023983664
 30
0.0
 11
619.4432174868056
 21
639.8844267489776
 31
0.0
  0
LWPOLYLINE
  5
22D
330
215
100
AcDbEntity
  8
ENKELSCHALIGE DAKELEMENTEN
  6
Continuous
 62
     5
370
    13
100
AcDbPolyline
 90
        7
 70
     1
 43
0.0
 10
613.443217486813
 20
637.1588646225982
 10
612.9432174868129
 20
636.7955933586008
 10
613.443217486813
 20
636.1074023983656
 10
619.4432174868202
 20
633.8329645247394
 10
619.9432174868129
 20
634.1962357887405
 10
619.4432174868129
 20
634.8844267489749
 10
613.443217486813
 20
637.1588646225982
  0
LINE
  5
22E
330
215
100
AcDbEntity
  8
ENKELSCHALIGE DAKELEMENTEN
  6
Continuous
 62
     5
370
    13
100
AcDbLine
 10
613.4432174868202
 20
636.1074023983674
 30
0.0
 11
619.4432174868129
 21
634.8844267489758
 31
0.0
  0
LWPOLYLINE
  5
22F
330
215
100
AcDbEntity
  8
ENKELSCHALIGE DAKELEMENTEN
  6
Continuous
 62
     5
370
    13
100
AcDbPolyline
 90
        5
 70
     1
 43
0.0
 10
613.443217486813
 20
636.1074023983656
 10
613.443217486813
 20
634.6588646225973
 10
619.4432174868129
 20
632.3844267489739
 10
619.4432174868202
 20
633.8329645247394
 10
613.443217486813
 20
636.1074023983656
  0
LWPOLYLINE
  5
230
330
215
100
AcDbEntity
  8
ENKELSCHALIGE DAKELEMENTEN
  6
Continuous
 62
     5
370
    13
100
AcDbPolyline
 90
        7
 70
     1
 43
0.0
 10
613.443217486813
 20
634.6588646225973
 10
612.9432174868129
 20
634.2955933585981
 10
613.443217486813
 20
633.6074023983674
 10
619.4432174868202
 20
631.3329645247404
 10
619.9432174868129
 20
631.6962357887423
 10
619.4432174868129
 20
632.3844267489739
 10
613.443217486813
 20
634.6588646225973
  0
LINE
  5
231
330
215
100
AcDbEntity
  8
ENKELSCHALIGE DAKELEMENTEN
  6
Continuous
 62
     5
370
    13
100
AcDbLine
 10
613.443217486813
 20
633.6074023983692
 30
0.0
 11
619.4432174868129
 21
632.3844267489739
 31
0.0
  0
LWPOLYLINE
  5
232
330
215
100
AcDbEntity
  8
ENKELSCHALIGE DAKELEMENTEN
  6
Continuous
 62
     5
370
    13
100
AcDbPolyline
 90
        5
 70
     1
 43
0.0
 10
613.443217486813
 20
641.1074023983656
 10
613.4432174868057
 20
639.6588646225991
 10
619.4432174868129
 20
637.3844267489703
 10
619.4432174868129
 20
638.8329645247422
 10
613.443217486813
 20
641.1074023983656
  0
LWPOLYLINE
  5
233
330
215
100
AcDbEntity
  8
ENKELSCHALIGE DAKELEMENTEN
  6
Continuous
 62
     5
370
    13
100
AcDbPolyline
 90
        7
 70
     1
 43
0.0
 10
613.4432174868057
 20
639.6588646225991
 10
612.9432174868057
 20
639.2955933586017
 10
613.443217486813
 20
638.6074023983655
 10
619.4432174868129
 20
636.3329645247404
 10
619.9432174868129
 20
636.6962357887405
 10
619.4432174868129
 20
637.3844267489703
 10
613.4432174868057
 20
639.6588646225991
  0
LINE
  5
234
330
215
100
AcDbEntity
  8
ENKELSCHALIGE DAKELEMENTEN
  6
Continuous
 62
     5
370
    13
100
AcDbLine
 10
613.443217486813
 20
638.6074023983655
 30
0.0
 11
619.4432174868202
 21
637.3844267489712
 31
0.0
  0
LWPOLYLINE
  5
235
330
215
100
AcDbEntity
  8
ENKELSCHALIGE DAKELEMENTEN
  6
Continuous
 62
     5
370
    13
100
AcDbPolyline
 90
        5
 70
     1
 43
0.0
 10
613.443217486813
 20
638.6074023983655
 10
613.443217486813
 20
637.1588646225982
 10
619.4432174868129
 20
634.8844267489749
 10
619.4432174868129
 20
636.3329645247404
 10
613.443217486813
 20
638.6074023983655
  0
LINE
  5
236
330
215
100
AcDbEntity
  8
ENKELSCHALIGE DAKELEMENTEN
  6
Continuous
 62
     5
370
    13
100
AcDbLine
 10
613.443217486813
 20
646.1074023983619
 30
0.0
 11
619.4432174868129
 21
644.8844267489721
 31
0.0
  0
LINE
  5
237
330
215
100
AcDbEntity
  8
ENKELSCHALIGE DAKELEMENTEN
  6
Continuous
 62
     5
370
    13
100
AcDbLine
 10
613.443217486813
 20
643.6074023983683
 30
0.0
 11
619.4432174868129
 21
642.384426748973
 31
0.0
  0
LWPOLYLINE
  5
238
330
215
100
AcDbEntity
  8
ENKELSCHALIGE DAKELEMENTEN
  6
Continuous
 62
     5
370
    13
100
AcDbPolyline
 90
        5
 70
     1
 43
0.0
 10
613.443217486813
 20
646.1074023983619
 10
613.4432174868202
 20
644.6588646226073
 10
619.4432174868129
 20
642.384426748973
 10
619.4432174868202
 20
643.8329645247385
 10
613.443217486813
 20
646.1074023983619
  0
LWPOLYLINE
  5
239
330
215
100
AcDbEntity
  8
ENKELSCHALIGE DAKELEMENTEN
  6
Continuous
 62
     5
370
    13
100
AcDbPolyline
 90
        7
 70
     1
 43
0.0
 10
613.443217486813
 20
679.6588646226028
 10
612.9432174868129
 20
679.2955933586036
 10
613.443217486813
 20
678.6074023983728
 10
619.4432174868129
 20
676.3329645247322
 10
619.9432174867983
 20
676.6962357887377
 10
619.4432174868129
 20
677.3844267489785
 10
613.443217486813
 20
679.6588646226028
  0
LWPOLYLINE
  5
23A
330
215
100
AcDbEntity
  8
ENKELSCHALIGE DAKELEMENTEN
  6
Continuous
 62
     5
370
    13
100
AcDbPolyline
 90
        7
 70
     1
 43
0.0
 10
613.443217486813
 20
682.1588646226037
 10
612.9432174868129
 20
681.7955933586045
 10
613.4432174868202
 20
681.1074023983683
 10
619.4432174868056
 20
678.832964524734
 10
619.9432174868056
 20
679.1962357887323
 10
619.4432174868129
 20
679.8844267489803
 10
613.443217486813
 20
682.1588646226037
  0
LWPOLYLINE
  5
23B
330
215
100
AcDbEntity
  8
ENKELSCHALIGE DAKELEMENTEN
  6
Continuous
 62
     5
370
    13
100
AcDbPolyline
 90
        5
 70
     1
 43
0.0
 10
613.4432174868202
 20
681.1074023983683
 10
613.443217486813
 20
679.6588646226028
 10
619.4432174868129
 20
677.3844267489785
 10
619.4432174868056
 20
678.832964524734
 10
613.4432174868202
 20
681.1074023983683
  0
LWPOLYLINE
  5
23C
330
215
100
AcDbEntity
  8
ENKELSCHALIGE DAKELEMENTEN
  6
Continuous
 62
     5
370
    13
100
AcDbPolyline
 90
        5
 70
     1
 43
0.0
 10
613.4432174868057
 20
666.1074023983619
 10
613.4432174868202
 20
664.6588646226018
 10
619.4432174868129
 20
662.3844267489658
 10
619.4432174868056
 20
663.8329645247377
 10
613.4432174868057
 20
666.1074023983619
  0
LWPOLYLINE
  5
23D
330
215
100
AcDbEntity
  8
ENKELSCHALIGE DAKELEMENTEN
  6
Continuous
 62
     5
370
    13
100
AcDbPolyline
 90
        7
 70
     1
 43
0.0
 10
613.4432174868202
 20
664.6588646226018
 10
612.9432174868202
 20
664.2955933586035
 10
613.4432174868057
 20
663.6074023983637
 10
619.4432174868129
 20
661.3329645247367
 10
619.9432174868056
 20
661.6962357887378
 10
619.4432174868129
 20
662.3844267489658
 10
613.4432174868202
 20
664.6588646226018
  0
LINE
  5
23E
330
215
100
AcDbEntity
  8
ENKELSCHALIGE DAKELEMENTEN
  6
Continuous
 62
     5
370
    13
100
AcDbLine
 10
613.4432174868057
 20
663.6074023983637
 30
0.0
 11
619.4432174868129
 21
662.3844267489658
 31
0.0
  0
LWPOLYLINE
  5
23F
330
215
100
AcDbEntity
  8
ENKELSCHALIGE DAKELEMENTEN
  6
Continuous
 62
     5
370
    13
100
AcDbPolyline
 90
        5
 70
     1
 43
0.0
 10
613.4432174868057
 20
663.6074023983637
 10
613.443217486813
 20
662.1588646226073
 10
619.4432174868056
 20
659.8844267489712
 10
619.4432174868129
 20
661.3329645247367
 10
613.4432174868057
 20
663.6074023983637
  0
LWPOLYLINE
  5
240
330
215
100
AcDbEntity
  8
ENKELSCHALIGE DAKELEMENTEN
  6
Continuous
 62
     5
370
    13
100
AcDbPolyline
 90
        7
 70
     1
 43
0.0
 10
613.443217486813
 20
657.1588646226073
 10
612.9432174868057
 20
656.7955933585953
 10
613.4432174868057
 20
656.1074023983656
 10
619.4432174868202
 20
653.8329645247358
 10
619.9432174868129
 20
654.1962357887341
 10
619.4432174868056
 20
654.8844267489712
 10
613.443217486813
 20
657.1588646226073
  0
LWPOLYLINE
  5
241
330
215
100
AcDbEntity
  8
ENKELSCHALIGE DAKELEMENTEN
  6
Continuous
 62
     5
370
    13
100
AcDbPolyline
 90
        5
 70
     1
 43
0.0
 10
613.4432174868057
 20
656.1074023983656
 10
613.4432174868057
 20
654.6588646226127
 10
619.4432174868129
 20
652.3844267489693
 10
619.4432174868202
 20
653.8329645247358
 10
613.4432174868057
 20
656.1074023983656
  0
LWPOLYLINE
  5
242
330
215
100
AcDbEntity
  8
ENKELSCHALIGE DAKELEMENTEN
  6
Continuous
 62
     5
370
    13
100
AcDbPolyline
 90
        7
 70
     1
 43
0.0
 10
613.4432174868057
 20
654.6588646226127
 10
612.9432174868057
 20
654.2955933586017
 10
613.443217486813
 20
653.6074023983637
 10
619.4432174868129
 20
651.3329645247404
 10
619.9432174868056
 20
651.6962357887386
 10
619.4432174868129
 20
652.3844267489693
 10
613.4432174868057
 20
654.6588646226127
  0
LINE
  5
243
330
215
100
AcDbEntity
  8
ENKELSCHALIGE DAKELEMENTEN
  6
Continuous
 62
     5
370
    13
100
AcDbLine
 10
613.443217486813
 20
653.6074023983647
 30
0.0
 11
619.4432174868129
 21
652.3844267489693
 31
0.0
  0
LWPOLYLINE
  5
244
330
215
100
AcDbEntity
  8
ENKELSCHALIGE DAKELEMENTEN
  6
Continuous
 62
     5
370
    13
100
AcDbPolyline
 90
        5
 70
     1
 43
0.0
 10
613.443217486813
 20
653.6074023983637
 10
613.443217486813
 20
652.1588646226109
 10
619.4432174868129
 20
649.8844267489675
 10
619.4432174868129
 20
651.3329645247404
 10
613.443217486813
 20
653.6074023983637
  0
LWPOLYLINE
  5
245
330
215
100
AcDbEntity
  8
ENKELSCHALIGE DAKELEMENTEN
  6
Continuous
 62
     5
370
    13
100
AcDbPolyline
 90
        7
 70
     1
 43
0.0
 10
613.443217486813
 20
652.1588646226109
 10
612.9432174868057
 20
651.7955933585999
 10
613.443217486813
 20
651.1074023983619
 10
619.4432174868129
 20
648.8329645247386
 10
619.9432174868129
 20
649.1962357887405
 10
619.4432174868129
 20
649.8844267489675
 10
613.443217486813
 20
652.1588646226109
  0
LINE
  5
246
330
215
100
AcDbEntity
  8
ENKELSCHALIGE DAKELEMENTEN
  6
Continuous
 62
     5
370
    13
100
AcDbLine
 10
613.443217486813
 20
651.1074023983629
 30
0.0
 11
619.4432174868129
 21
649.8844267489675
 31
0.0
  0
LWPOLYLINE
  5
247
330
215
100
AcDbEntity
  8
ENKELSCHALIGE DAKELEMENTEN
  6
Continuous
 62
     5
370
    13
100
AcDbPolyline
 90
        7
 70
     1
 43
0.0
 10
613.443217486813
 20
659.6588646226055
 10
612.9432174868057
 20
659.2955933585945
 10
613.443217486813
 20
658.607402398361
 10
619.4432174868129
 20
656.3329645247359
 10
619.9432174868129
 20
656.6962357887351
 10
619.4432174868056
 20
657.3844267489731
 10
613.443217486813
 20
659.6588646226055
  0
LINE
  5
248
330
215
100
AcDbEntity
  8
ENKELSCHALIGE DAKELEMENTEN
  6
Continuous
 62
     5
370
    13
100
AcDbLine
 10
613.443217486813
 20
658.6074023983601
 30
0.0
 11
619.4432174868056
 21
657.3844267489731
 31
0.0
  0
LWPOLYLINE
  5
249
330
215
100
AcDbEntity
  8
ENKELSCHALIGE DAKELEMENTEN
  6
Continuous
 62
     5
370
    13
100
AcDbPolyline
 90
        5
 70
     1
 43
0.0
 10
613.443217486813
 20
658.607402398361
 10
613.443217486813
 20
657.1588646226073
 10
619.4432174868056
 20
654.8844267489712
 10
619.4432174868129
 20
656.3329645247359
 10
613.443217486813
 20
658.607402398361
  0
LINE
  5
24A
330
215
100
AcDbEntity
  8
ENKELSCHALIGE DAKELEMENTEN
  6
Continuous
 62
     5
370
    13
100
AcDbLine
 10
613.4432174868057
 20
656.1074023983665
 30
0.0
 11
619.4432174868056
 21
654.8844267489712
 31
0.0
  0
LWPOLYLINE
  5
24B
330
215
100
AcDbEntity
  8
ENKELSCHALIGE DAKELEMENTEN
  6
Continuous
 62
     5
370
    13
100
AcDbPolyline
 90
        7
 70
     1
 43
0.0
 10
613.443217486813
 20
662.1588646226073
 10
612.9432174868129
 20
661.795593358609
 10
613.443217486813
 20
661.1074023983619
 10
619.4432174868129
 20
658.8329645247377
 10
619.9432174868129
 20
659.1962357887369
 10
619.4432174868056
 20
659.8844267489712
 10
613.443217486813
 20
662.1588646226073
  0
LINE
  5
24C
330
215
100
AcDbEntity
  8
ENKELSCHALIGE DAKELEMENTEN
  6
Continuous
 62
     5
370
    13
100
AcDbLine
 10
613.443217486813
 20
661.1074023983619
 30
0.0
 11
619.4432174868056
 21
659.8844267489721
 31
0.0
  0
LWPOLYLINE
  5
24D
330
215
100
AcDbEntity
  8
ENKELSCHALIGE DAKELEMENTEN
  6
Continuous
 62
     5
370
    13
100
AcDbPolyline
 90
        5
 70
     1
 43
0.0
 10
613.443217486813
 20
661.1074023983619
 10
613.443217486813
 20
659.6588646226055
 10
619.4432174868056
 20
657.3844267489731
 10
619.4432174868129
 20
658.8329645247377
 10
613.443217486813
 20
661.1074023983619
  0
LWPOLYLINE
  5
24E
330
215
100
AcDbEntity
  8
ENKELSCHALIGE DAKELEMENTEN
  6
Continuous
 62
     5
370
    13
100
AcDbPolyline
 90
        5
 70
     1
 43
0.0
 10
613.443217486813
 20
651.1074023983619
 10
613.443217486813
 20
649.6588646226101
 10
619.4432174868056
 20
647.384426748973
 10
619.4432174868129
 20
648.8329645247386
 10
613.443217486813
 20
651.1074023983619
  0
LINE
  5
24F
330
215
100
AcDbEntity
  8
ENKELSCHALIGE DAKELEMENTEN
  6
Continuous
 62
     5
370
    13
100
AcDbLine
 10
613.443217486813
 20
648.6074023983637
 30
0.0
 11
619.4432174868056
 21
647.3844267489739
 31
0.0
  0
LWPOLYLINE
  5
250
330
215
100
AcDbEntity
  8
ENKELSCHALIGE DAKELEMENTEN
  6
Continuous
 62
     5
370
    13
100
AcDbPolyline
 90
        5
 70
     1
 43
0.0
 10
613.4432174868057
 20
676.1074023983619
 10
613.4432174868057
 20
674.6588646226064
 10
619.4432174868202
 20
672.3844267489758
 10
619.4432174868129
 20
673.8329645247313
 10
613.4432174868057
 20
676.1074023983619
  0
LWPOLYLINE
  5
251
330
215
100
AcDbEntity
  8
ENKELSCHALIGE DAKELEMENTEN
  6
Continuous
 62
     5
370
    13
100
AcDbPolyline
 90
        7
 70
     1
 43
0.0
 10
613.4432174868057
 20
674.6588646226064
 10
612.9432174868129
 20
674.2955933586081
 10
613.4432174868057
 20
673.6074023983601
 10
619.4432174868056
 20
671.3329645247358
 10
619.9432174868056
 20
671.696235788735
 10
619.4432174868202
 20
672.3844267489758
 10
613.4432174868057
 20
674.6588646226064
  0
LWPOLYLINE
  5
252
330
215
100
AcDbEntity
  8
ENKELSCHALIGE DAKELEMENTEN
  6
Continuous
 62
     5
370
    13
100
AcDbPolyline
 90
        7
 70
     1
 43
0.0
 10
613.443217486813
 20
677.1588646226009
 10
612.9432174868129
 20
676.7955933586017
 10
613.4432174868057
 20
676.1074023983619
 10
619.4432174868129
 20
673.8329645247313
 10
619.9432174868056
 20
674.1962357887368
 10
619.4432174868129
 20
674.8844267489767
 10
613.443217486813
 20
677.1588646226009
  0
LINE
  5
253
330
215
100
AcDbEntity
  8
ENKELSCHALIGE DAKELEMENTEN
  6
Continuous
 62
     5
370
    13
100
AcDbLine
 10
613.4432174868057
 20
673.6074023983601
 30
0.0
 11
619.4432174868202
 21
672.3844267489758
 31
0.0
  0
LWPOLYLINE
  5
254
330
215
100
AcDbEntity
  8
ENKELSCHALIGE DAKELEMENTEN
  6
Continuous
 62
     5
370
    13
100
AcDbPolyline
 90
        7
 70
     1
 43
0.0
 10
613.443217486813
 20
669.6588646226055
 10
612.9432174868129
 20
669.2955933586063
 10
613.4432174868057
 20
668.6074023983637
 10
619.4432174868129
 20
666.3329645247331
 10
619.9432174868129
 20
666.696235788735
 10
619.4432174868129
 20
667.3844267489812
 10
613.443217486813
 20
669.6588646226055
  0
LINE
  5
255
330
215
100
AcDbEntity
  8
ENKELSCHALIGE DAKELEMENTEN
  6
Continuous
 62
     5
370
    13
100
AcDbLine
 10
613.4432174868057
 20
668.6074023983646
 30
0.0
 11
619.4432174868129
 21
667.3844267489821
 31
0.0
  0
LWPOLYLINE
  5
256
330
215
100
AcDbEntity
  8
ENKELSCHALIGE DAKELEMENTEN
  6
Continuous
 62
     5
370
    13
100
AcDbPolyline
 90
        5
 70
     1
 43
0.0
 10
613.4432174868057
 20
668.6074023983637
 10
613.443217486813
 20
667.1588646226045
 10
619.4432174868056
 20
664.8844267489676
 10
619.4432174868129
 20
666.3329645247331
 10
613.4432174868057
 20
668.6074023983637
  0
LWPOLYLINE
  5
257
330
215
100
AcDbEntity
  8
ENKELSCHALIGE DAKELEMENTEN
  6
Continuous
 62
     5
370
    13
100
AcDbPolyline
 90
        7
 70
     1
 43
0.0
 10
613.443217486813
 20
667.1588646226045
 10
612.9432174868202
 20
666.7955933586053
 10
613.4432174868057
 20
666.1074023983619
 10
619.4432174868056
 20
663.8329645247377
 10
619.9432174868056
 20
664.1962357887405
 10
619.4432174868056
 20
664.8844267489676
 10
613.443217486813
 20
667.1588646226045
  0
LINE
  5
258
330
215
100
AcDbEntity
  8
ENKELSCHALIGE DAKELEMENTEN
  6
Continuous
 62
     5
370
    13
100
AcDbLine
 10
613.4432174868057
 20
666.1074023983628
 30
0.0
 11
619.4432174868056
 21
664.8844267489676
 31
0.0
  0
LWPOLYLINE
  5
259
330
215
100
AcDbEntity
  8
ENKELSCHALIGE DAKELEMENTEN
  6
Continuous
 62
     5
370
    13
100
AcDbPolyline
 90
        5
 70
     1
 43
0.0
 10
613.4432174868057
 20
673.6074023983601
 10
613.443217486813
 20
672.1588646226045
 10
619.4432174868129
 20
669.8844267489803
 10
619.4432174868056
 20
671.3329645247358
 10
613.4432174868057
 20
673.6074023983601
  0
LWPOLYLINE
  5
25A
330
215
100
AcDbEntity
  8
ENKELSCHALIGE DAKELEMENTEN
  6
Continuous
 62
     5
370
    13
100
AcDbPolyline
 90
        7
 70
     1
 43
0.0
 10
613.443217486813
 20
672.1588646226045
 10
612.9432174868129
 20
671.7955933586054
 10
613.443217486813
 20
671.1074023983583
 10
619.4432174868129
 20
668.832964524735
 10
619.9432174868129
 20
669.1962357887332
 10
619.4432174868129
 20
669.8844267489803
 10
613.443217486813
 20
672.1588646226045
  0
LINE
  5
25B
330
215
100
AcDbEntity
  8
ENKELSCHALIGE DAKELEMENTEN
  6
Continuous
 62
     5
370
    13
100
AcDbLine
 10
613.443217486813
 20
671.1074023983591
 30
0.0
 11
619.4432174868202
 21
669.8844267489767
 31
0.0
  0
LWPOLYLINE
  5
25C
330
215
100
AcDbEntity
  8
ENKELSCHALIGE DAKELEMENTEN
  6
Continuous
 62
     5
370
    13
100
AcDbPolyline
 90
        5
 70
     1
 43
0.0
 10
613.443217486813
 20
671.1074023983583
 10
613.443217486813
 20
669.6588646226055
 10
619.4432174868129
 20
667.3844267489812
 10
619.4432174868129
 20
668.832964524735
 10
613.443217486813
 20
671.1074023983583
  0
LINE
  5
25D
330
215
100
AcDbEntity
  8
ENKELSCHALIGE DAKELEMENTEN
  6
Continuous
 62
     5
370
    13
100
AcDbLine
 10
613.443217486813
 20
678.6074023983746
 30
0.0
 11
619.4432174868129
 21
677.3844267489794
 31
0.0
  0
LINE
  5
25E
330
215
100
AcDbEntity
  8
ENKELSCHALIGE DAKELEMENTEN
  6
Continuous
 62
     5
370
    13
100
AcDbLine
 10
613.4432174868057
 20
676.1074023983619
 30
0.0
 11
619.4432174868129
 21
674.8844267489776
 31
0.0
  0
LWPOLYLINE
  5
25F
330
215
100
AcDbEntity
  8
ENKELSCHALIGE DAKELEMENTEN
  6
Continuous
 62
     5
370
    13
100
AcDbPolyline
 90
        5
 70
     1
 43
0.0
 10
613.443217486813
 20
678.6074023983728
 10
613.443217486813
 20
677.1588646226009
 10
619.4432174868129
 20
674.8844267489767
 10
619.4432174868129
 20
676.3329645247322
 10
613.443217486813
 20
678.6074023983728
  0
LINE
  5
260
330
215
100
AcDbEntity
  8
ENKELSCHALIGE DAKELEMENTEN
  6
Continuous
 62
     5
370
    13
100
AcDbLine
 10
613.443217486813
 20
683.6074023983701
 30
0.0
 11
619.4432174868202
 21
682.3844267489748
 31
0.0
  0
LWPOLYLINE
  5
261
330
215
100
AcDbEntity
  8
ENKELSCHALIGE DAKELEMENTEN
  6
Continuous
 62
     5
370
    13
100
AcDbPolyline
 90
        7
 70
     1
 43
0.0
 10
613.4432174868057
 20
684.6588646226055
 10
612.9432174868057
 20
684.2955933586063
 10
613.443217486813
 20
683.6074023983701
 10
619.4432174868056
 20
681.3329645247322
 10
619.9432174868056
 20
681.6962357887351
 10
619.4432174868056
 20
682.3844267489812
 10
613.4432174868057
 20
684.6588646226055
  0
LINE
  5
262
330
215
100
AcDbEntity
  8
ENKELSCHALIGE DAKELEMENTEN
  6
Continuous
 62
     5
370
    13
100
AcDbLine
 10
613.443217486813
 20
686.107402398371
 30
0.0
 11
619.4432174868129
 21
684.8844267489766
 31
0.0
  0
LWPOLYLINE
  5
263
330
215
100
AcDbEntity
  8
ENKELSCHALIGE DAKELEMENTEN
  6
Continuous
 62
     5
370
    13
100
AcDbPolyline
 90
        5
 70
     1
 43
0.0
 10
613.443217486813
 20
686.107402398371
 10
613.4432174868057
 20
684.6588646226055
 10
619.4432174868056
 20
682.3844267489812
 10
619.4432174868056
 20
683.8329645247349
 10
613.443217486813
 20
686.107402398371
  0
LWPOLYLINE
  5
264
330
215
100
AcDbEntity
  8
ENKELSCHALIGE DAKELEMENTEN
  6
Continuous
 62
     5
370
    13
100
AcDbPolyline
 90
        7
 70
     1
 43
0.0
 10
613.4432174868057
 20
687.1588646226064
 10
612.9432174868057
 20
686.7955933586054
 10
613.443217486813
 20
686.107402398371
 10
619.4432174868056
 20
683.8329645247349
 10
619.9432174868129
 20
684.1962357887459
 10
619.4432174868129
 20
684.8844267489766
 10
613.4432174868057
 20
687.1588646226064
  0
LINE
  5
265
330
215
100
AcDbEntity
  8
ENKELSCHALIGE DAKELEMENTEN
  6
Continuous
 62
     5
370
    13
100
AcDbLine
 10
613.4432174868057
 20
687.5559401741266
 30
0.0
 11
619.4432174868056
 21
686.3329645247358
 31
0.0
  0
LWPOLYLINE
  5
266
330
215
100
AcDbEntity
  8
ENKELSCHALIGE DAKELEMENTEN
  6
Continuous
 62
     5
370
    13
100
AcDbPolyline
 90
        5
 70
     1
 43
0.0
 10
613.4432174868057
 20
687.5559401741266
 10
613.443217486813
 20
686.107402398371
 10
619.4432174868056
 20
683.8329645247349
 10
619.4432174868129
 20
685.2815023005005
 10
613.4432174868057
 20
687.5559401741266
  0
LWPOLYLINE
  5
267
330
215
100
AcDbEntity
  8
ENKELSCHALIGE DAKELEMENTEN
  6
Continuous
 62
     5
370
    13
100
AcDbPolyline
 90
        7
 70
     1
 43
0.0
 10
613.4432174868202
 20
688.6074023983655
 10
612.9432174868057
 20
688.2441311343609
 10
613.4432174868057
 20
687.5559401741266
 10
619.4432174868129
 20
685.2815023005005
 10
619.9432174868056
 20
685.6447735645015
 10
619.4432174867984
 20
686.3329645247358
 10
613.4432174868202
 20
688.6074023983655
  0
LWPOLYLINE
  5
268
330
215
100
AcDbEntity
  8
ENKELSCHALIGE DAKELEMENTEN
  6
Continuous
 62
     5
370
    13
100
AcDbPolyline
 90
        5
 70
     1
 43
0.0
 10
619.4432174868056
 20
689.2921919720147
 10
613.4432174868057
 20
689.2921919720065
 10
613.4432174868202
 20
688.6074023983655
 10
619.4432174867984
 20
686.3329645247358
 10
619.4432174868056
 20
689.2921919720147
  0
LINE
  5
269
330
215
100
AcDbEntity
  8
ENKELSCHALIGE DAKELEMENTEN
  6
Continuous
 62
     5
370
    13
100
AcDbLine
 10
613.4432174868202
 20
681.1074023983683
 30
0.0
 11
619.4432174868129
 21
679.8844267489803
 31
0.0
  0
LWPOLYLINE
  5
26A
330
215
100
AcDbEntity
  8
ENKELSCHALIGE DAKELEMENTEN
  6
Continuous
 62
     5
370
    13
100
AcDbPolyline
 90
        5
 70
     1
 43
0.0
 10
613.443217486813
 20
683.6074023983701
 10
613.443217486813
 20
682.1588646226037
 10
619.4432174868129
 20
679.8844267489803
 10
619.4432174868056
 20
681.3329645247322
 10
613.443217486813
 20
683.6074023983701
  0
LWPOLYLINE
  5
26B
330
215
100
AcDbEntity
  8
ENKELSCHALIGE DAKELEMENTEN
  6
Continuous
 62
     5
370
    13
100
AcDbPolyline
 90
       11
 70
     0
 43
0.0
 10
651.4432174868711
 20
850.4119921234886
 10
651.4432174868784
 20
851.4119921234915
 10
634.4432174868784
 20
852.4119921234868
 10
625.4432174868784
 20
848.4119921234904
 10
607.4432174868784
 20
848.4119921234904
 10
598.4432174868784
 20
852.4119921234952
 10
581.4432174868784
 20
851.4119921234941
 10
581.4432174868711
 20
850.4119921234906
 10
598.4432174868711
 20
851.4119921234888
 10
607.4432174868711
 20
847.4119921234869
 10
612.4432174868712
 20
847.4119921234887
  0
LWPOLYLINE
  5
26C
330
215
100
AcDbEntity
  8
ENKELSCHALIGE DAKELEMENTEN
  6
Continuous
 62
     5
370
    13
100
AcDbPolyline
 90
        5
 70
     1
 43
0.0
 10
634.4432174868784
 20
852.4119921234868
 10
622.7940704479556
 20
852.4119921234905
 10
622.7940704479628
 20
848.4119921234915
 10
625.4432174868784
 20
848.4119921234904
 10
634.4432174868784
 20
852.4119921234868
  0
LWPOLYLINE
  5
26D
330
215
100
AcDbEntity
  8
ENKELSCHALIGE DAKELEMENTEN
  6
Continuous
 62
     5
370
    13
100
AcDbPolyline
 90
        4
 70
     0
 43
0.0
 10
620.4432174868712
 20
847.4119921234887
 10
625.4432174868711
 20
847.4119921234869
 10
634.4432174868638
 20
851.4119921234906
 10
651.4432174868711
 20
850.4119921234886
  0
LWPOLYLINE
  5
26E
330
215
100
AcDbEntity
  8
ENKELSCHALIGE DAKELEMENTEN
  6
Continuous
 62
     5
370
    13
100
AcDbPolyline
 90
        5
 70
     1
 43
0.0
 10
598.4432174868784
 20
852.4119921234952
 10
610.0923645257867
 20
852.4119921234868
 10
610.092364525794
 20
848.4119921234878
 10
607.4432174868784
 20
848.4119921234904
 10
598.4432174868784
 20
852.4119921234952
  0
LWPOLYLINE
  5
26F
330
215
100
AcDbEntity
  8
ENKELSCHALIGE DAKELEMENTEN
  6
Continuous
 62
     5
370
    13
100
AcDbPolyline
 90
        3
 70
     0
 43
0.0
 10
621.6412042059241
 20
853.3233540720321
 10
616.4432174868712
 20
853.411992123485
 10
611.2452307678254
 20
853.3233540720285
  0
ARC
  5
270
330
215
100
AcDbEntity
  8
ENKELSCHALIGE DAKELEMENTEN
  6
Continuous
 62
     5
370
    13
100
AcDbCircle
 10
616.4432174868712
 20
847.8703254568117
 30
0.0
 40
5.541666666680062
100
AcDbArc
 50
55.03965959457629
 51
124.9603404054331
  0
LWPOLYLINE
  5
271
330
215
100
AcDbEntity
  8
ENKELSCHALIGE DAKELEMENTEN
  6
Continuous
 62
     5
370
    13
100
AcDbPolyline
 90
        4
 70
     0
 43
0.0
 10
619.6186439674207
 20
852.411992123496
 10
619.6186439674134
 20
848.4119921234904
 10
613.2677910063362
 20
848.411992123496
 10
613.2677910063216
 20
852.4119921234923
  0
LINE
  5
272
330
215
100
AcDbEntity
  8
ENKELSCHALIGE DAKELEMENTEN
  6
Continuous
 62
     5
370
    13
100
AcDbLine
 10
622.7940704479628
 20
848.4119921234924
 30
0.0
 11
619.6186439674134
 21
848.4119921234904
 31
0.0
  0
LINE
  5
273
330
215
100
AcDbEntity
  8
ENKELSCHALIGE DAKELEMENTEN
  6
Continuous
 62
     5
370
    13
100
AcDbLine
 10
622.7940704479628
 20
852.3351071838241
 30
0.0
 11
622.7940704479628
 21
848.4119921234924
 31
0.0
  0
ARC
  5
274
330
215
100
AcDbEntity
  8
ENKELSCHALIGE DAKELEMENTEN
  6
Continuous
 62
     5
370
    13
100
AcDbCircle
 10
621.7940704479556
 20
852.3351071838188
 30
0.0
 40
1.000000000000048
100
AcDbArc
 50
0.0
 51
98.79306619652318
  0
ARC
  5
275
330
215
100
AcDbEntity
  8
ENKELSCHALIGE DAKELEMENTEN
  6
Continuous
 62
     5
370
    13
100
AcDbCircle
 10
622.5958333704697
 20
848.5047852722228
 30
0.0
 40
4.912221709191684
100
AcDbArc
 50
101.2060280997937
 51
127.306452346231
  0
LINE
  5
276
330
215
100
AcDbEntity
  8
ENKELSCHALIGE DAKELEMENTEN
  6
Continuous
 62
     5
370
    13
100
AcDbLine
 10
619.6186439674134
 20
848.4119921234904
 30
0.0
 11
619.6186439674207
 21
852.4119921234952
 31
0.0
  0
LINE
  5
277
330
215
100
AcDbEntity
  8
ENKELSCHALIGE DAKELEMENTEN
  6
Continuous
 62
     5
370
    13
100
AcDbLine
 10
613.2677910063362
 20
848.411992123496
 30
0.0
 11
610.092364525794
 21
848.4119921234887
 31
0.0
  0
ARC
  5
278
330
215
100
AcDbEntity
  8
ENKELSCHALIGE DAKELEMENTEN
  6
Continuous
 62
     5
370
    13
100
AcDbCircle
 10
611.092364525794
 20
852.3351071838224
 30
0.0
 40
1.000000000000048
100
AcDbArc
 50
81.20693380346295
 51
180.0
  0
LINE
  5
279
330
215
100
AcDbEntity
  8
ENKELSCHALIGE DAKELEMENTEN
  6
Continuous
 62
     5
370
    13
100
AcDbLine
 10
610.092364525794
 20
848.4119921234887
 30
0.0
 11
610.0923645257867
 21
852.335107183827
 31
0.0
  0
ARC
  5
27A
330
215
100
AcDbEntity
  8
ENKELSCHALIGE DAKELEMENTEN
  6
Continuous
 62
     5
370
    13
100
AcDbCircle
 10
610.2906016032798
 20
848.504785272231
 30
0.0
 40
4.91222170918903
100
AcDbArc
 50
52.69354765372765
 51
78.79397190017559
  0
LINE
  5
27B
330
215
100
AcDbEntity
  8
ENKELSCHALIGE DAKELEMENTEN
  6
Continuous
 62
     5
370
    13
100
AcDbLine
 10
613.2677910063362
 20
852.4119921234888
 30
0.0
 11
613.2677910063362
 21
848.411992123496
 31
0.0
  0
LWPOLYLINE
  5
27C
330
215
100
AcDbEntity
  8
ENKELSCHALIGE DAKELEMENTEN
  6
Continuous
 62
     5
370
    13
100
AcDbPolyline
 90
        5
 70
     1
 43
0.0
 10
613.443217486813
 20
621.1074023983692
 10
613.443217486813
 20
619.6588646226046
 10
619.4432174868202
 20
617.3844267489739
 10
619.4432174868056
 20
618.832964524734
 10
613.443217486813
 20
621.1074023983692
  0
LWPOLYLINE
  5
27D
330
215
100
AcDbEntity
  8
ENKELSCHALIGE DAKELEMENTEN
  6
Continuous
 62
     5
370
    13
100
AcDbPolyline
 90
        5
 70
     1
 43
0.0
 10
613.4432174868202
 20
623.6074023983656
 10
613.443217486813
 20
622.1588646225991
 10
619.4432174868129
 20
619.8844267489748
 10
619.4432174868129
 20
621.3329645247285
 10
613.4432174868202
 20
623.6074023983656
  0
LWPOLYLINE
  5
27E
330
215
100
AcDbEntity
  8
ENKELSCHALIGE DAKELEMENTEN
  6
Continuous
 62
     5
370
    13
100
AcDbPolyline
 90
        7
 70
     1
 43
0.0
 10
613.443217486813
 20
622.1588646225991
 10
612.9432174868129
 20
621.7955933585999
 10
613.443217486813
 20
621.1074023983692
 10
619.4432174868056
 20
618.832964524734
 10
619.9432174868129
 20
619.196235788746
 10
619.4432174868129
 20
619.8844267489748
 10
613.443217486813
 20
622.1588646225991
  0
LINE
  5
27F
330
215
100
AcDbEntity
  8
ENKELSCHALIGE DAKELEMENTEN
  6
Continuous
 62
     5
370
    13
100
AcDbLine
 10
613.443217486813
 20
621.1074023983711
 30
0.0
 11
619.4432174868202
 21
619.8844267489757
 31
0.0
  0
LINE
  5
280
330
215
100
AcDbEntity
  8
ENKELSCHALIGE DAKELEMENTEN
  6
Continuous
 62
     5
370
    13
100
AcDbLine
 10
613.4432174868057
 20
611.1074023983601
 30
0.0
 11
619.4432174868056
 21
609.8844267489657
 31
0.0
  0
LWPOLYLINE
  5
281
330
215
100
AcDbEntity
  8
ENKELSCHALIGE DAKELEMENTEN
  6
Continuous
 62
     5
370
    13
100
AcDbPolyline
 90
        5
 70
     1
 43
0.0
 10
613.4432174868057
 20
611.107402398361
 10
613.4432174868202
 20
609.658864622601
 10
619.4432174868129
 20
607.3844267489639
 10
619.4432174868129
 20
608.8329645247295
 10
613.4432174868057
 20
611.107402398361
  0
LWPOLYLINE
  5
282
330
215
100
AcDbEntity
  8
ENKELSCHALIGE DAKELEMENTEN
  6
Continuous
 62
     5
370
    13
100
AcDbPolyline
 90
        5
 70
     1
 43
0.0
 10
613.443217486813
 20
613.6074023983546
 10
613.443217486813
 20
612.1588646226028
 10
619.4432174868056
 20
609.8844267489648
 10
619.4432174868129
 20
611.3329645247313
 10
613.443217486813
 20
613.6074023983546
  0
LWPOLYLINE
  5
283
330
215
100
AcDbEntity
  8
ENKELSCHALIGE DAKELEMENTEN
  6
Continuous
 62
     5
370
    13
100
AcDbPolyline
 90
        7
 70
     1
 43
0.0
 10
613.443217486813
 20
612.1588646226028
 10
612.9432174868057
 20
611.7955933585908
 10
613.4432174868057
 20
611.107402398361
 10
619.4432174868129
 20
608.8329645247295
 10
619.9432174868129
 20
609.1962357887277
 10
619.4432174868056
 20
609.8844267489648
 10
613.443217486813
 20
612.1588646226028
  0
LWPOLYLINE
  5
284
330
215
100
AcDbEntity
  8
ENKELSCHALIGE DAKELEMENTEN
  6
Continuous
 62
     5
370
    13
100
AcDbPolyline
 90
        7
 70
     1
 43
0.0
 10
613.4432174868202
 20
597.1588646226027
 10
612.9432174868057
 20
596.7955933585945
 10
613.443217486813
 20
596.1074023983601
 10
619.1897353523968
 20
593.9153258628521
 10
619.9432174868129
 20
594.1962357887351
 10
619.4432174868129
 20
594.8844267489658
 10
613.4432174868202
 20
597.1588646226027
  0
LWPOLYLINE
  5
285
330
215
100
AcDbEntity
  8
ENKELSCHALIGE DAKELEMENTEN
  6
Continuous
 62
     5
370
    13
100
AcDbPolyline
 90
        5
 70
     1
 43
0.0
 10
613.443217486813
 20
596.1074023983601
 10
613.9740616946587
 20
594.4863828838406
 10
618.4855260440386
 20
592.6955995616335
 10
619.1897353523968
 20
593.9153258628521
 10
613.443217486813
 20
596.1074023983601
  0
LWPOLYLINE
  5
286
330
215
100
AcDbEntity
  8
ENKELSCHALIGE DAKELEMENTEN
  6
Continuous
 62
     5
370
    13
100
AcDbPolyline
 90
        7
 70
     1
 43
0.0
 10
614.503487996219
 20
591.6519020026425
 10
614.0034879962335
 20
591.288630738637
 10
614.5034879962336
 20
590.6004397784072
 10
617.2589761408312
 20
589.7051274074792
 10
618.270146438263
 20
589.9023093737214
 10
617.7701464382703
 20
590.5905003339521
 10
614.503487996219
 20
591.6519020026425
  0
LINE
  5
287
330
215
100
AcDbEntity
  8
ENKELSCHALIGE DAKELEMENTEN
  6
Continuous
 62
     5
370
    13
100
AcDbLine
 10
614.5034879962336
 20
590.6004397784072
 30
0.0
 11
617.7701464382703
 21
590.5905003339521
 31
0.0
  0
LWPOLYLINE
  5
288
330
215
100
AcDbEntity
  8
ENKELSCHALIGE DAKELEMENTEN
  6
Continuous
 62
     5
370
    13
100
AcDbPolyline
 90
        4
 70
     1
 43
0.0
 10
617.2589761408312
 20
589.7051274074792
 10
615.2507262711592
 20
590.3576473450921
 10
616.4432174868129
 20
588.2921919720083
 10
617.2589761408312
 20
589.7051274074792
  0
LINE
  5
289
330
215
100
AcDbEntity
  8
ENKELSCHALIGE DAKELEMENTEN
  6
Continuous
 62
     5
370
    13
100
AcDbLine
 10
613.974061694666
 20
593.4349206596052
 30
0.0
 11
618.4855260440386
 21
592.6955995616326
 31
0.0
  0
LWPOLYLINE
  5
28A
330
215
100
AcDbEntity
  8
ENKELSCHALIGE DAKELEMENTEN
  6
Continuous
 62
     5
370
    13
100
AcDbPolyline
 90
        7
 70
     1
 43
0.0
 10
613.9740616946587
 20
594.4863828838406
 10
613.4740616946587
 20
594.1231116198405
 10
613.974061694666
 20
593.4349206596043
 10
617.974355746614
 20
591.8102266351698
 10
618.9855260440459
 20
592.0074086013991
 10
618.4855260440386
 20
592.6955995616335
 10
613.9740616946587
 20
594.4863828838406
  0
LWPOLYLINE
  5
28B
330
215
100
AcDbEntity
  8
ENKELSCHALIGE DAKELEMENTEN
  6
Continuous
 62
     5
370
    13
100
AcDbPolyline
 90
        5
 70
     1
 43
0.0
 10
613.974061694666
 20
593.4349206596043
 10
614.503487996219
 20
591.6519020026425
 10
617.7701464382703
 20
590.5905003339521
 10
617.974355746614
 20
591.8102266351698
 10
613.974061694666
 20
593.4349206596043
  0
LWPOLYLINE
  5
28C
330
215
100
AcDbEntity
  8
ENKELSCHALIGE DAKELEMENTEN
  6
Continuous
 62
     5
370
    13
100
AcDbPolyline
 90
        7
 70
     1
 43
0.0
 10
613.4432174868202
 20
607.1588646225991
 10
612.9432174868129
 20
606.7955933585872
 10
613.443217486813
 20
606.1074023983564
 10
619.4432174868129
 20
603.832964524734
 10
619.9432174868129
 20
604.1962357887323
 10
619.4432174868129
 20
604.884426748963
 10
613.4432174868202
 20
607.1588646225991
  0
LINE
  5
28D
330
215
100
AcDbEntity
  8
ENKELSCHALIGE DAKELEMENTEN
  6
Continuous
 62
     5
370
    13
100
AcDbLine
 10
613.443217486813
 20
606.1074023983583
 30
0.0
 11
619.4432174868129
 21
604.884426748963
 31
0.0
  0
LWPOLYLINE
  5
28E
330
215
100
AcDbEntity
  8
ENKELSCHALIGE DAKELEMENTEN
  6
Continuous
 62
     5
370
    13
100
AcDbPolyline
 90
        5
 70
     1
 43
0.0
 10
613.443217486813
 20
606.1074023983564
 10
613.443217486813
 20
604.6588646226045
 10
619.4432174868056
 20
602.3844267489676
 10
619.4432174868129
 20
603.832964524734
 10
613.443217486813
 20
606.1074023983564
  0
LWPOLYLINE
  5
28F
330
215
100
AcDbEntity
  8
ENKELSCHALIGE DAKELEMENTEN
  6
Continuous
 62
     5
370
    13
100
AcDbPolyline
 90
        5
 70
     1
 43
0.0
 10
613.4432174868057
 20
608.6074023983583
 10
613.4432174868202
 20
607.1588646225991
 10
619.4432174868129
 20
604.884426748963
 10
619.4432174868202
 20
606.3329645247286
 10
613.4432174868057
 20
608.6074023983583
  0
LINE
  5
290
330
215
100
AcDbEntity
  8
ENKELSCHALIGE DAKELEMENTEN
  6
Continuous
 62
     5
370
    13
100
AcDbLine
 10
613.443217486813
 20
603.6074023983592
 30
0.0
 11
619.4432174868056
 21
602.3844267489676
 31
0.0
  0
LINE
  5
291
330
215
100
AcDbEntity
  8
ENKELSCHALIGE DAKELEMENTEN
  6
Continuous
 62
     5
370
    13
100
AcDbLine
 10
613.4432174868057
 20
601.1074023983637
 30
0.0
 11
619.4432174868129
 21
599.8844267489666
 31
0.0
  0
LWPOLYLINE
  5
292
330
215
100
AcDbEntity
  8
ENKELSCHALIGE DAKELEMENTEN
  6
Continuous
 62
     5
370
    13
100
AcDbPolyline
 90
        5
 70
     1
 43
0.0
 10
613.4432174868057
 20
601.1074023983637
 10
613.4432174868202
 20
599.6588646226009
 10
619.4432174868129
 20
597.3844267489648
 10
619.4432174868129
 20
598.8329645247322
 10
613.4432174868057
 20
601.1074023983637
  0
LWPOLYLINE
  5
293
330
215
100
AcDbEntity
  8
ENKELSCHALIGE DAKELEMENTEN
  6
Continuous
 62
     5
370
    13
100
AcDbPolyline
 90
        7
 70
     1
 43
0.0
 10
613.4432174868202
 20
599.6588646226009
 10
612.9432174868129
 20
599.2955933585927
 10
613.4432174868057
 20
598.6074023983628
 10
619.4432174868129
 20
596.3329645247386
 10
619.9432174868202
 20
596.6962357887305
 10
619.4432174868129
 20
597.3844267489648
 10
613.4432174868202
 20
599.6588646226009
  0
LINE
  5
294
330
215
100
AcDbEntity
  8
ENKELSCHALIGE DAKELEMENTEN
  6
Continuous
 62
     5
370
    13
100
AcDbLine
 10
613.443217486813
 20
598.6074023983628
 30
0.0
 11
619.4432174868129
 21
597.3844267489657
 31
0.0
  0
LWPOLYLINE
  5
295
330
215
100
AcDbEntity
  8
ENKELSCHALIGE DAKELEMENTEN
  6
Continuous
 62
     5
370
    13
100
AcDbPolyline
 90
        5
 70
     1
 43
0.0
 10
613.4432174868057
 20
598.6074023983628
 10
613.4432174868202
 20
597.1588646226027
 10
619.4432174868129
 20
594.8844267489658
 10
619.4432174868129
 20
596.3329645247386
 10
613.4432174868057
 20
598.6074023983628
  0
LINE
  5
296
330
215
100
AcDbEntity
  8
ENKELSCHALIGE DAKELEMENTEN
  6
Continuous
 62
     5
370
    13
100
AcDbLine
 10
613.443217486813
 20
596.1074023983619
 30
0.0
 11
619.4432174868129
 21
594.8844267489667
 31
0.0
  0
LWPOLYLINE
  5
297
330
215
100
AcDbEntity
  8
ENKELSCHALIGE DAKELEMENTEN
  6
Continuous
 62
     5
370
    13
100
AcDbPolyline
 90
        7
 70
     1
 43
0.0
 10
613.443217486813
 20
604.6588646226045
 10
612.9432174868057
 20
604.2955933585926
 10
613.443217486813
 20
603.6074023983583
 10
619.4432174868129
 20
601.3329645247349
 10
619.9432174868129
 20
601.6962357887332
 10
619.4432174868056
 20
602.3844267489676
 10
613.443217486813
 20
604.6588646226045
  0
LWPOLYLINE
  5
298
330
215
100
AcDbEntity
  8
ENKELSCHALIGE DAKELEMENTEN
  6
Continuous
 62
     5
370
    13
100
AcDbPolyline
 90
        5
 70
     1
 43
0.0
 10
613.443217486813
 20
603.6074023983583
 10
613.4432174868202
 20
602.1588646226027
 10
619.4432174868129
 20
599.8844267489666
 10
619.4432174868129
 20
601.3329645247349
 10
613.443217486813
 20
603.6074023983583
  0
LWPOLYLINE
  5
299
330
215
100
AcDbEntity
  8
ENKELSCHALIGE DAKELEMENTEN
  6
Continuous
 62
     5
370
    13
100
AcDbPolyline
 90
        7
 70
     1
 43
0.0
 10
613.4432174868202
 20
602.1588646226027
 10
612.9432174868129
 20
601.7955933585908
 10
613.4432174868057
 20
601.1074023983637
 10
619.4432174868129
 20
598.8329645247322
 10
619.9432174868129
 20
599.1962357887323
 10
619.4432174868129
 20
599.8844267489666
 10
613.4432174868202
 20
602.1588646226027
  0
LWPOLYLINE
  5
29A
330
215
100
AcDbEntity
  8
ENKELSCHALIGE DAKELEMENTEN
  6
Continuous
 62
     5
370
    13
100
AcDbPolyline
 90
        7
 70
     1
 43
0.0
 10
613.4432174868202
 20
609.658864622601
 10
612.9432174868129
 20
609.295593358589
 10
613.4432174868057
 20
608.6074023983583
 10
619.4432174868202
 20
606.3329645247286
 10
619.9432174868056
 20
606.6962357887332
 10
619.4432174868129
 20
607.3844267489639
 10
613.4432174868202
 20
609.658864622601
  0
LINE
  5
29B
330
215
100
AcDbEntity
  8
ENKELSCHALIGE DAKELEMENTEN
  6
Continuous
 62
     5
370
    13
100
AcDbLine
 10
613.4432174868057
 20
608.6074023983583
 30
0.0
 11
619.4432174868129
 21
607.3844267489648
 31
0.0
  0
LWPOLYLINE
  5
29C
330
215
100
AcDbEntity
  8
ENKELSCHALIGE DAKELEMENTEN
  6
Continuous
 62
     5
370
    13
100
AcDbPolyline
 90
        7
 70
     1
 43
0.0
 10
613.4432174868202
 20
619.6588646225973
 10
612.9432174868202
 20
619.295593358599
 10
613.4432174868057
 20
618.6074023983583
 10
619.4432174868056
 20
616.332964524734
 10
619.9432174868056
 20
616.6962357887332
 10
619.4432174868202
 20
617.384426748973
 10
613.4432174868202
 20
619.6588646225973
  0
LINE
  5
29D
330
215
100
AcDbEntity
  8
ENKELSCHALIGE DAKELEMENTEN
  6
Continuous
 62
     5
370
    13
100
AcDbLine
 10
613.4432174868057
 20
618.6074023983592
 30
0.0
 11
619.4432174868202
 21
617.3844267489739
 31
0.0
  0
LWPOLYLINE
  5
29E
330
215
100
AcDbEntity
  8
ENKELSCHALIGE DAKELEMENTEN
  6
Continuous
 62
     5
370
    13
100
AcDbPolyline
 90
        5
 70
     1
 43
0.0
 10
613.4432174868057
 20
618.6074023983583
 10
613.443217486813
 20
617.1588646226028
 10
619.4432174868056
 20
614.8844267489657
 10
619.4432174868056
 20
616.332964524734
 10
613.4432174868057
 20
618.6074023983583
  0
LWPOLYLINE
  5
29F
330
215
100
AcDbEntity
  8
ENKELSCHALIGE DAKELEMENTEN
  6
Continuous
 62
     5
370
    13
100
AcDbPolyline
 90
        7
 70
     1
 43
0.0
 10
613.443217486813
 20
617.1588646226028
 10
612.9432174868202
 20
616.7955933585963
 10
613.443217486813
 20
616.1074023983565
 10
619.4432174868129
 20
613.8329645247322
 10
619.9432174868129
 20
614.1962357887314
 10
619.4432174868056
 20
614.8844267489657
 10
613.443217486813
 20
617.1588646226028
  0
LINE
  5
2A0
330
215
100
AcDbEntity
  8
ENKELSCHALIGE DAKELEMENTEN
  6
Continuous
 62
     5
370
    13
100
AcDbLine
 10
613.443217486813
 20
616.1074023983574
 30
0.0
 11
619.4432174868056
 21
614.8844267489657
 31
0.0
  0
LWPOLYLINE
  5
2A1
330
215
100
AcDbEntity
  8
ENKELSCHALIGE DAKELEMENTEN
  6
Continuous
 62
     5
370
    13
100
AcDbPolyline
 90
        5
 70
     1
 43
0.0
 10
613.443217486813
 20
616.1074023983565
 10
613.443217486813
 20
614.6588646226009
 10
619.4432174868056
 20
612.3844267489675
 10
619.4432174868129
 20
613.8329645247322
 10
613.443217486813
 20
616.1074023983565
  0
LINE
  5
2A2
330
215
100
AcDbEntity
  8
ENKELSCHALIGE DAKELEMENTEN
  6
Continuous
 62
     5
370
    13
100
AcDbLine
 10
613.443217486813
 20
613.6074023983556
 30
0.0
 11
619.4432174868056
 21
612.3844267489675
 31
0.0
  0
LWPOLYLINE
  5
2A3
330
215
100
AcDbEntity
  8
ENKELSCHALIGE DAKELEMENTEN
  6
Continuous
 62
     5
370
    13
100
AcDbPolyline
 90
        7
 70
     1
 43
0.0
 10
613.443217486813
 20
614.6588646226009
 10
612.9432174868129
 20
614.2955933586026
 10
613.443217486813
 20
613.6074023983546
 10
619.4432174868129
 20
611.3329645247313
 10
619.9432174868129
 20
611.6962357887295
 10
619.4432174868056
 20
612.3844267489675
 10
613.443217486813
 20
614.6588646226009
  0
ENDBLK
  5
217
330
215
100
AcDbEntity
  8
0
100
AcDbBlockEnd
  0
ENDSEC
  0
SECTION
  2
ENTITIES
  0
LWPOLYLINE
  5
70
330
1F
100
AcDbEntity
  8
AANHAALLIJN
  6
Continuous
 62
     7
370
    25
100
AcDbPolyline
 90
        5
 70
     1
 43
0.0
 10
1049.999999999996
 20
0.0
 10
0.0
 20
0.0
 10
0.0
 20
1485.000000000002
 10
1049.999999999996
 20
1485.000000000002
 10
1049.999999999996
 20
0.0
  0
LWPOLYLINE
  5
71
330
1F
100
AcDbEntity
  8
DEFPOINTS
  6
PUNKT2_S9
 62
     7
370
    13
100
AcDbPolyline
 90
        5
 70
     1
 43
0.0
 10
989.9999999999963
 20
60.00000000000182
 10
59.99999999999636
 20
60.00000000000182
 10
59.99999999999636
 20
1260.000000000002
 10
989.9999999999963
 20
1260.000000000002
 10
989.9999999999963
 20
60.00000000000182
  0
LWPOLYLINE
  5
72
330
1F
100
AcDbEntity
  8
DILALATIEVOEG EN AFDICHTING
  6
Continuous
 62
     5
370
    13
100
AcDbPolyline
 90
        5
 70
     1
 43
0.0
 10
590.0000000220975
 20
647.4119921234668
 10
440.0000000220975
 20
647.4119921234668
 10
440.0000000220975
 20
627.4119921234505
 10
590.0000000220975
 20
627.4119921234523
 10
590.0000000220975
 20
647.4119921234668
  0
HATCH
  5
74
330
1F
100
AcDbEntity
  8
DILALATIEVOEG EN AFDICHTING
  6
Continuous
 62
   254
370
    13
100
AcDbHatch
 10
0.0
 20
0.0
 30
0.0
210
0.0
220
0.0
230
1.0
  2
SOLID
 70
     1
 71
     0
 91
        1
 92
        0
 93
        4
 72
     1
 10
590.0000000220975
 20
627.4119921234523
 11
590.0000000220975
 21
647.4119921234668
 72
     1
 10
590.0000000220975
 20
647.4119921234668
 11
440.0000000220975
 21
647.4119921234668
 72
     1
 10
440.0000000220975
 20
647.4119921234668
 11
440.0000000220975
 21
627.4119921234505
 72
     1
 10
440.0000000220975
 20
627.4119921234505
 11
590.0000000220975
 21
627.4119921234523
 97
        0
 75
     0
 76
     1
 98
        0
450
        0
451
        0
460
0.0
461
0.0
452
        1
462
0.0
453
        0
470

1001
ACAD
1010
0.0
1020
0.0
1030
0.0
1001
NEM_ODX
1002
{
1000
BZM_DEPEND
1070
     1
1000
BZM_SCALE
1040
5.0
1000
HATCHING_15
1002
}
  0
HATCH
  5
75
330
1F
100
AcDbEntity
  8
DILALATIEVOEG EN AFDICHTING
  6
Continuous
 62
     7
370
    13
100
AcDbHatch
 10
0.0
 20
0.0
 30
0.0
210
0.0
220
0.0
230
1.0
  2
HATCHING_15
 70
     0
 71
     0
 91
        1
 92
        0
 93
        4
 72
     1
 10
590.0000000220975
 20
627.4119921234523
 11
590.0000000220975
 21
647.4119921234668
 72
     1
 10
590.0000000220975
 20
647.4119921234668
 11
440.0000000220975
 21
647.4119921234668
 72
     1
 10
440.0000000220975
 20
647.4119921234668
 11
440.0000000220975
 21
627.4119921234505
 72
     1
 10
440.0000000220975
 20
627.4119921234505
 11
590.0000000220975
 21
627.4119921234523
 97
        0
 75
     0
 76
     2
 52
0.0
 41
5.0
 77
     0
 78
     2
 53
45.0
 43
0.0
 44
0.0
 45
-10.60660171779821
 46
10.60660171779821
 79
     0
 53
45.0
 43
-5.303300858899105
 44
5.303300858899106
 45
-10.60660171779821
 46
10.60660171779821
 79
     4
 49
40.0
 49
-5.0
 49
5.0
 49
-5.0
 98
        0
1001
ACAD
1010
0.0
1020
0.0
1030
0.0
1001
NEM_ODX
1002
{
1000
BZM_DEPEND
1070
     1
1000
BZM_SCALE
1040
5.0
1000
HATCHING_15
1002
}
  0
LINE
  5
76
330
1F
100
AcDbEntity
  8
DILALATIEVOEG EN AFDICHTING
  6
Continuous
 62
     5
370
    13
100
AcDbLine
 10
420.0000000112636
 20
651.4119921234859
 30
0.0
 11
922.000000002416
 21
651.4119921234851
 31
0.0
  0
LINE
  5
77
330
1F
100
AcDbEntity
  8
DILALATIEVOEG EN AFDICHTING
  6
Continuous
 62
     5
370
    13
100
AcDbLine
 10
420.0000000112636
 20
653.411992123486
 30
0.0
 11
922.000000002416
 21
653.4119921234851
 31
0.0
  0
LWPOLYLINE
  5
78
330
1F
100
AcDbEntity
  8
DILALATIEVOEG EN AFDICHTING
  6
Continuous
 62
    30
370
    18
100
AcDbPolyline
 90
        5
 70
     0
 43
0.0
 10
420.0000000112636
 20
655.4119921234859
 10
922.000000002416
 20
655.4119921234851
 10
922.0000000025397
 20
650.3372890397477
 10
922.0000000026198
 20
647.4119921234705
 10
420.0000000112636
 20
647.4119921234859
  0
LINE
  5
79
330
1F
100
AcDbEntity
  8
DILALATIEVOEG EN AFDICHTING
  6
Continuous
 62
     5
370
    13
100
AcDbLine
 10
420.0000000112636
 20
649.411992123486
 30
0.0
 11
922.0000000025688
 21
649.4119921233105
 31
0.0
  0
LINE
  5
7A
330
1F
100
AcDbEntity
  8
DILALATIEVOEG EN AFDICHTING
  6
Continuous
 62
     5
370
    13
100
AcDbLine
 10
420.0000000024088
 20
843.411992123485
 30
0.0
 11
922.000000002416
 21
843.411992123485
 31
0.0
  0
LINE
  5
7B
330
1F
100
AcDbEntity
  8
DILALATIEVOEG EN AFDICHTING
  6
Continuous
 62
     5
370
    13
100
AcDbLine
 10
420.0000000024088
 20
841.4119921234851
 30
0.0
 11
922.000000002416
 21
841.4119921234851
 31
0.0
  0
LINE
  5
7C
330
1F
100
AcDbEntity
  8
DILALATIEVOEG EN AFDICHTING
  6
Continuous
 62
     5
370
    13
100
AcDbLine
 10
420.0000000024088
 20
845.411992123485
 30
0.0
 11
922.000000002416
 21
845.411992123485
 31
0.0
  0
LWPOLYLINE
  5
7D
330
1F
100
AcDbEntity
  8
DILALATIEVOEG EN AFDICHTING
  6
Continuous
 62
    30
370
    18
100
AcDbPolyline
 90
        4
 70
     0
 43
0.0
 10
420.0000000024088
 20
847.4119921234851
 10
922.000000002416
 20
847.4119921234851
 10
922.000000002416
 20
839.4119921234851
 10
420.0000000024088
 20
839.4119921234851
  0
LINE
  5
7E
330
1F
100
AcDbEntity
  8
DILALATIEVOEG EN AFDICHTING
  6
Continuous
 62
     5
370
    13
100
AcDbLine
 10
60.00000000000047
 20
563.4119921234842
 30
0.0
 11
420.0000000108343
 21
563.4119921234851
 31
0.0
  0
LINE
  5
7F
330
1F
100
AcDbEntity
  8
DILALATIEVOEG EN AFDICHTING
  6
Continuous
 62
     5
370
    13
100
AcDbLine
 10
60.00000000000047
 20
565.4119921234841
 30
0.0
 11
420.0000000108343
 21
565.411992123485
 31
0.0
  0
LINE
  5
80
330
1F
100
AcDbEntity
  8
DILALATIEVOEG EN AFDICHTING
  6
Continuous
 62
     5
370
    13
100
AcDbLine
 10
60.00000000000047
 20
561.4119921234841
 30
0.0
 11
420.0000000109871
 21
561.4119921233104
 31
0.0
  0
LINE
  5
81
330
1F
100
AcDbEntity
  8
DILALATIEVOEG EN AFDICHTING
  6
VERDECKT2_S2
 62
     7
370
    25
100
AcDbLine
 10
60.00000000000411
 20
850.4119921234869
 30
0.0
 11
922.0000000023942
 21
850.4119921234796
 31
0.0
  0
HATCH
  5
82
330
1F
100
AcDbEntity
  8
ENKELSCHALIGE DAKELEMENTEN
  6
Continuous
 62
     7
370
    25
100
AcDbHatch
 10
0.0
 20
0.0
 30
0.0
210
0.0
220
0.0
230
1.0
  2
HATCHING_5
 70
     0
 71
     0
 91
        1
 92
        0
 93
        4
 72
     1
 10
639.9999996719275
 20
647.4119923029148
 11
590.0000000220902
 21
647.411992123466
 72
     1
 10
590.0000000220902
 20
647.411992123466
 11
590.0000001210941
 21
472.4118990213992
 72
     1
 10
590.0000001210941
 20
472.4118990213992
 11
639.9999997709387
 21
472.4118989878179
 72
     1
 10
639.9999997709387
 20
472.4118989878179
 11
639.9999996719275
 21
647.4119923029148
 97
        0
 75
     0
 76
     2
 52
0.0
 41
5.0
 77
     0
 78
     2
 53
45.0
 43
0.0
 44
0.0
 45
-10.60660171779821
 46
10.60660171779821
 79
     0
 53
45.0
 43
-5.303300858899105
 44
5.303300858899106
 45
-10.60660171779821
 46
10.60660171779821
 79
     0
 98
        0
1001
ACAD
1010
0.0
1020
0.0
1030
0.0
1001
NEM_ODX
1002
{
1000
BZM_DEPEND
1070
     1
1000
BZM_SCALE
1040
5.0
1000
HATCHING_5
1002
}
  0
LWPOLYLINE
  5
83
330
1F
100
AcDbEntity
  8
SAMENGESTELDE GEVELBEKLEDING
  6
Continuous
 62
     5
370
    13
100
AcDbPolyline
 90
        4
 70
     0
 43
0.0
 10
818.0000000848453
 20
320.4670895933273
 10
818.0000000848345
 20
617.4119921222245
 10
790.0000000848344
 20
617.4119921222277
 10
790.0000001022094
 20
320.4670895974032
  0
INSERT
  5
A6
330
1F
100
AcDbEntity
  8
AANHAALLIJN
  6
Continuous
 62
    30
370
    18
100
AcDbBlockReference
  2
NSY154
 10
405.0000000054174
 20
857.4119921234997
 30
0.0
 41
1.962533333333333
 42
1.962533333333333
 43
1.962533333333333
  0
LWPOLYLINE
  5
A7
330
1F
100
AcDbEntity
  8
DILALATIEVOEG EN AFDICHTING
  6
Continuous
 62
     5
370
    13
100
AcDbPolyline
 90
        7
 70
     1
 43
0.0
 10
730.9999996719421
 20
644.4119924858414
 10
642.9999996719421
 20
644.4119924858414
 10
642.9999996719421
 20
556.4119924858414
 10
643.7999996719376
 20
556.4119924858414
 10
643.7999996719376
 20
643.6119924858421
 10
730.9999996719421
 20
643.6119924858421
 10
730.9999996719421
 20
644.4119924858414
  0
HATCH
  5
A8
330
1F
100
AcDbEntity
  8
DILALATIEVOEG EN AFDICHTING
  6
Continuous
 62
   250
370
    25
100
AcDbHatch
 10
0.0
 20
0.0
 30
0.0
210
0.0
220
0.0
230
1.0
  2
SOLID
 70
     1
 71
     0
 91
        1
 92
        3
 72
     0
 73
     1
 93
        6
 10
730.9999996719421
 20
643.6119924858421
 10
730.9999996719421
 20
644.4119924858414
 10
642.9999996719421
 20
644.4119924858414
 10
642.9999996719421
 20
556.4119924858414
 10
643.7999996719376
 20
556.4119924858414
 10
643.7999996719376
 20
643.6119924858421
 97
        0
 75
     0
 76
     1
 98
        0
450
        0
451
        0
460
0.0
461
0.0
452
        1
462
0.0
453
        0
470

  0
LWPOLYLINE
  5
A9
330
1F
100
AcDbEntity
  8
SANDWICH DAKELEMENTEN
  6
Continuous
 62
     7
370
    25
100
AcDbPolyline
 90
        6
 70
     0
 43
0.0
 10
639.9999996719275
 20
647.4119923029148
 10
590.0000000220902
 20
647.411992123466
 10
590.0000000715959
 20
559.9119455724321
 10
590.0000001210941
 20
472.4118990213992
 10
639.9999997709387
 20
472.4118989878179
 10
639.9999996719348
 20
647.4119924858405
  0
INSERT
  5
B1
330
1F
100
AcDbEntity
  8
ANKER
  6
VERDECKT2_S2
 62
    30
370
    18
100
AcDbBlockReference
  2
COMPLEXOBJECT_0
 10
0.0
 20
0.0
 30
0.0
  0
INSERT
  5
B2
330
1F
100
AcDbEntity
  8
AANHAALLIJN
  6
Continuous
 62
    30
370
    18
100
AcDbBlockReference
  2
NSY154
 10
440.0000000108343
 20
637.4119921654935
 30
0.0
 41
1.962533333333333
 42
1.962533333333333
 43
1.962533333333333
  0
INSERT
  5
B3
330
1F
100
AcDbEntity
  8
AANHAALLIJN
  6
Continuous
 62
    30
370
    18
100
AcDbBlockReference
  2
NSY154
 10
440.0000000108307
 20
637.411992165508
 30
0.0
 41
1.962533333333333
 42
1.962533333333333
 43
1.962533333333333
  0
INSERT
  5
B4
330
1F
100
AcDbEntity
  8
AANHAALLIJN
  6
Continuous
 62
    30
370
    18
100
AcDbBlockReference
  2
NSY154
 10
793.0000000221921
 20
268.4119921234669
 30
0.0
 41
1.962533333333333
 42
1.962533333333333
 43
1.962533333333333
  0
INSERT
  5
B5
330
1F
100
AcDbEntity
  8
AANHAALLIJN
  6
Continuous
 62
    30
370
    18
100
AcDbBlockReference
  2
NSY154
 10
515.0000000221048
 20
268.4119921234633
 30
0.0
 41
1.962533333333333
 42
1.962533333333333
 43
1.962533333333333
  0
INSERT
  5
B6
330
1F
100
AcDbEntity
  8
AANHAALLIJN
  6
Continuous
 62
    30
370
    18
100
AcDbBlockReference
  2
NSY154
 10
805.5000000221557
 20
268.4119921234669
 30
0.0
 41
1.962533333333333
 42
1.962533333333333
 43
1.962533333333333
  0
INSERT
  5
B7
330
1F
100
AcDbEntity
  8
AANHAALLIJN
  6
Continuous
 62
    30
370
    18
100
AcDbBlockReference
  2
NSY154
 10
826.0000000848563
 20
268.4119921234669
 30
0.0
 41
1.962533333333333
 42
1.962533333333333
 43
1.962533333333333
  0
INSERT
  5
B8
330
1F
100
AcDbEntity
  8
AANHAALLIJN
  6
Continuous
 62
    30
370
    18
100
AcDbBlockReference
  2
NSY154
 10
815.0000000774129
 20
268.4119921226813
 30
0.0
 41
1.962533333333333
 42
1.962533333333333
 43
1.962533333333333
  0
LWPOLYLINE
  5
B9
330
1F
100
AcDbEntity
  8
PREFAB BETON
  6
Continuous
 62
     3
370
    70
100
AcDbPolyline
 90
        4
 70
     0
 43
0.0
 10
440.0000000221084
 20
215.0915882614735
 10
440.0000000221048
 20
627.4119921235251
 10
590.0000000221048
 20
627.4119921235251
 10
590.0000000221084
 20
215.0915882614735
  0
HATCH
  5
BA
330
1F
100
AcDbEntity
  8
WANDEN
  6
Continuous
 62
   253
370
    25
100
AcDbHatch
 10
0.0
 20
0.0
 30
0.0
210
0.0
220
0.0
230
1.0
  2
SOLID
 70
     1
 71
     0
 91
        1
 92
        3
 72
     0
 73
     1
 93
        4
 10
590.0000000221048
 20
627.4119921235232
 10
440.0000000221048
 20
627.4119921235232
 10
440.0000000221084
 20
215.0915882614735
 10
590.0000000221084
 20
215.0915882614735
 97
        0
 75
     0
 76
     1
 98
        0
450
        0
451
        0
460
0.0
461
0.0
452
        1
462
0.0
453
        0
470

  0
HATCH
  5
BB
330
1F
100
AcDbEntity
  8
SAMENGESTELDE GEVELBEKLEDING
  6
Continuous
 62
     5
370
    13
100
AcDbHatch
 10
0.0
 20
0.0
 30
0.0
210
0.0
220
0.0
230
1.0
  2
HATCHING_1
 70
     0
 71
     0
 91
        1
 92
        0
 93
        4
 72
     1
 10
818.0000000848599
 20
215.0915882621472
 11
826.0000000848709
 21
215.0915882621472
 72
     1
 10
826.0000000848709
 20
215.0915882621472
 11
826.0000000848563
 21
637.4119921222191
 72
     1
 10
826.0000000848563
 20
637.4119921222191
 11
818.0000000848417
 21
637.4119921222254
 72
     1
 10
818.0000000848417
 20
637.4119921222254
 11
818.0000000848599
 21
215.0915882621472
 97
        0
 75
     0
 76
     2
 52
90.00000000000001
 41
5.0
 77
     0
 78
     2
 53
180.0
 43
0.0
 44
0.0
 45
-0.0000000000000018
 46
-15.0
 79
     0
 53
180.0
 43
0.0000000000000003
 44
-7.5
 45
-0.0000000000000018
 46
-15.0
 79
     0
 98
        0
1001
ACAD
1010
0.0
1020
0.0
1030
0.0
1001
NEM_ODX
1002
{
1000
BZM_DEPEND
1070
     1
1000
BZM_SCALE
1040
5.0
1000
HATCHING_1
1002
}
  0
LWPOLYLINE
  5
BC
330
1F
100
AcDbEntity
  8
SAMENGESTELDE GEVELBEKLEDING
  6
Continuous
 62
     7
370
    25
100
AcDbPolyline
 90
        4
 70
     0
 43
0.0
 10
826.0000000848599
 20
215.0915882613996
 10
826.000000084849
 20
637.4119921222163
 10
818.000000084849
 20
637.4119921222163
 10
818.0000000848599
 20
215.0915882614078
  0
LINE
  5
BD
330
1F
100
AcDbEntity
  8
DILALATIEVOEG EN AFDICHTING
  6
VERDECKT2_S2
 62
     5
370
    13
100
AcDbLine
 10
815.0000000435071
 20
635.1421587710167
 30
0.0
 11
815.0000000848526
 21
215.0915882616961
 31
0.0
  0
INSERT
  5
BE
330
1F
100
AcDbEntity
  8
AANHAALLIJN
  6
Continuous
 62
    30
370
    18
100
AcDbBlockReference
  2
NSY154
 10
239.2914626355637
 20
952.3119921235245
 30
0.0
 41
1.962533333333333
 42
1.962533333333333
 43
1.962533333333333
  0
INSERT
  5
BF
330
1F
100
AcDbEntity
  8
AANHAALLIJN
  6
Continuous
 62
    30
370
    18
100
AcDbBlockReference
  2
NSY154
 10
239.2914626355637
 20
878.4119921234996
 30
0.0
 41
1.962533333333333
 42
1.962533333333333
 43
1.962533333333333
  0
INSERT
  5
C0
330
1F
100
AcDbEntity
  8
AANHAALLIJN
  6
Continuous
 62
    30
370
    18
100
AcDbBlockReference
  2
NSY154
 10
239.2914626355637
 20
817.4119921234996
 30
0.0
 41
1.962533333333333
 42
1.962533333333333
 43
1.962533333333333
  0
INSERT
  5
C1
330
1F
100
AcDbEntity
  8
AANHAALLIJN
  6
Continuous
 62
    30
370
    18
100
AcDbBlockReference
  2
NSY154
 10
239.2914626355637
 20
817.4119921235201
 30
0.0
 41
1.962533333333333
 42
1.962533333333333
 43
1.962533333333333
  0
INSERT
  5
C2
330
1F
100
AcDbEntity
  8
AANHAALLIJN
  6
Continuous
 62
    30
370
    18
100
AcDbBlockReference
  2
NSY154
 10
239.2914626355637
 20
850.4119921235124
 30
0.0
 41
1.962533333333333
 42
1.962533333333333
 43
1.962533333333333
  0
LWPOLYLINE
  5
C3
330
1F
100
AcDbEntity
  8
METALEN DAKBEDEKKING
  6
Continuous
 62
     7
370
    13
100
AcDbPolyline
 90
        5
 70
     1
 43
0.0
 10
794.750000002416
 20
889.4119921234851
 10
810.750000002416
 20
889.4119921234851
 10
810.750000002416
 20
888.4119921234852
 10
794.750000002416
 20
888.4119921234852
 10
794.750000002416
 20
889.4119921234851
  0
LWPOLYLINE
  5
C4
330
1F
100
AcDbEntity
  8
METALEN DAKBEDEKKING
  6
Continuous
 62
     7
370
    13
100
AcDbPolyline
 90
        5
 70
     1
 43
0.0
 10
853.250000002416
 20
889.4119921234851
 10
869.2500000024161
 20
889.4119921234851
 10
869.2500000024161
 20
888.4119921234852
 10
853.250000002416
 20
888.4119921234852
 10
853.250000002416
 20
889.4119921234851
  0
LWPOLYLINE
  5
C5
330
1F
100
AcDbEntity
  8
AANHAALLIJN
  6
Continuous
 62
    30
370
    18
100
AcDbPolyline
 90
        3
 70
     0
 43
0.0
 10
405.0000000054174
 20
857.4119921234997
 10
405.0000000054174
 20
1012.311992123481
 10
454.5833333387506
 20
1012.311992123481
  0
HATCH
  5
C6
330
1F
100
AcDbEntity
  8
SAMENGESTELDE GEVELBEKLEDING
  6
Continuous
 62
     5
370
    13
100
AcDbHatch
 10
0.0
 20
0.0
 30
0.0
210
0.0
220
0.0
230
1.0
  2
HATCHING_1
 70
     0
 71
     0
 91
        1
 92
        0
 93
        4
 72
     1
 10
818.0000001838475
 20
215.0915882822563
 11
826.0000001838584
 21
215.0915882822563
 72
     1
 10
826.0000001838584
 20
215.0915882822563
 11
826.0000001838438
 21
637.4119921423282
 72
     1
 10
826.0000001838438
 20
637.4119921423282
 11
818.0000001838292
 21
637.4119921423345
 72
     1
 10
818.0000001838292
 20
637.4119921423345
 11
818.0000001838475
 21
215.0915882822563
 97
        0
 75
     0
 76
     2
 52
90.00000000000001
 41
5.0
 77
     0
 78
     2
 53
180.0
 43
0.0
 44
0.0
 45
-0.0000000000000018
 46
-15.0
 79
     0
 53
180.0
 43
0.0000000000000003
 44
-7.5
 45
-0.0000000000000018
 46
-15.0
 79
     0
 98
        0
1001
ACAD
1010
0.0
1020
0.0
1030
0.0
1001
NEM_ODX
1002
{
1000
BZM_DEPEND
1070
     1
1000
BZM_SCALE
1040
5.0
1000
HATCHING_1
1002
}
  0
LWPOLYLINE
  5
C7
330
1F
100
AcDbEntity
  8
SAMENGESTELDE GEVELBEKLEDING
  6
Continuous
 62
     7
370
    25
100
AcDbPolyline
 90
        4
 70
     0
 43
0.0
 10
826.0000001838475
 20
215.0915882815088
 10
826.0000001838365
 20
637.4119921423255
 10
818.0000001838365
 20
637.4119921423255
 10
818.0000001838475
 20
215.0915882815169
  0
LINE
  5
C8
330
1F
100
AcDbEntity
  8
DILALATIEVOEG EN AFDICHTING
  6
VERDECKT2_S2
 62
     5
370
    13
100
AcDbLine
 10
815.0000001424945
 20
635.1421587911259
 30
0.0
 11
815.0000001838403
 21
215.0915882818052
 31
0.0
  0
LWPOLYLINE
  5
C9
330
1F
100
AcDbEntity
  8
HOUT_1
  6
Continuous
 62
    30
370
    18
100
AcDbPolyline
 90
        5
 70
     1
 43
0.0
 10
944.000000002387
 20
924.4119921238617
 10
944.0000000024161
 20
609.4119921234906
 10
959.000000002416
 20
609.4119921234906
 10
959.000000002387
 20
924.4119921238626
 10
944.000000002387
 20
924.4119921238617
  0
LINE
  5
CA
330
1F
100
AcDbEntity
  8
HOUT_1
  6
Continuous
 62
     5
370
    13
100
AcDbLine
 10
947.500000002387
 20
924.4119921238626
 30
0.0
 11
947.5000000023943
 21
609.4119921234906
 31
0.0
  0
LINE
  5
CB
330
1F
100
AcDbEntity
  8
HOUT_1
  6
Continuous
 62
     5
370
    13
100
AcDbLine
 10
955.500000002387
 20
924.4119921238626
 30
0.0
 11
955.5000000023943
 21
609.4119921234906
 31
0.0
  0
LINE
  5
CC
330
1F
100
AcDbEntity
  8
HOUT_1
  6
Continuous
 62
     5
370
    13
100
AcDbLine
 10
951.5000000023869
 20
924.4119921238626
 30
0.0
 11
951.5000000023942
 21
609.4119921234906
 31
0.0
  0
LWPOLYLINE
  5
CD
330
1F
100
AcDbEntity
  8
HOUT_1
  6
Continuous
 62
    30
370
    18
100
AcDbPolyline
 90
        5
 70
     1
 43
0.0
 10
922.0000000072536
 20
647.4119921237312
 10
922.0000000015586
 20
867.4119921237695
 10
944.0000000015588
 20
867.4119921237334
 10
944.0000000072537
 20
647.4119921237111
 10
922.0000000072536
 20
647.4119921237312
  0
LINE
  5
CE
330
1F
100
AcDbEntity
  8
HOUT_1
  6
Continuous
 62
    30
370
    18
100
AcDbLine
 10
944.0000000015581
 20
867.411992123679
 30
0.0
 11
922.0000000072536
 21
647.4119921237312
 31
0.0
  0
LINE
  5
CF
330
1F
100
AcDbEntity
  8
HOUT_1
  6
Continuous
 62
    30
370
    18
100
AcDbLine
 10
944.0000000072537
 20
647.4119921237111
 30
0.0
 11
922.0000000015579
 21
867.4119921237696
 31
0.0
  0
DIMENSION
  5
E2
330
1F
100
AcDbEntity
  8
Maatlijnen 1_5
  6
Continuous
 62
    30
370
    18
100
AcDbDimension
280
     0
  2
*D5
 10
590.0000001210969
 20
185.0915882815087
 30
0.0
 11
514.7116041671658
 21
195.2281070528398
 31
0.0
 70
   160
  1
<>
 71
     5
 42
150.0000000989885
 73
     0
 74
     0
 75
     0
  3
_DIMSTYLE_2
100
AcDbAlignedDimension
 13
440.0000000221084
 23
185.0905882614734
 33
0.0
 14
590.0000001210969
 24
185.0905882815675
 34
0.0
100
AcDbRotatedDimension
1001
ACAD
1000
DSTYLE
1002
{
1070
     3
1000
<>
1070
   372
1070
    18
1070
   371
1070
     0
1070
   178
1070
    30
1070
   177
1070
    30
1070
   176
1070
    30
1002
}
1001
NEM_ODX
1000
MASSLINIE
1002
{
1000
UTF_TYPE
1070
     1
1000
ODXVALUES
1070
     1
1070
     0
1070
   499
1040
1.0
1002
}
  0
DIMENSION
  5
EE
330
1F
100
AcDbEntity
  8
Maatlijnen 1_5
  6
Continuous
 62
    30
370
    18
100
AcDbDimension
280
     0
  2
*D6
 10
730.000000121096
 20
185.0915882815087
 30
0.0
 11
659.7116042166597
 21
195.2281070528398
 31
0.0
 70
   160
  1
<>
 71
     5
 42
139.9999999999991
 73
     0
 74
     0
 75
     0
  3
_DIMSTYLE_3
100
AcDbAlignedDimension
 13
590.0000001210969
 23
185.0905882815675
 33
0.0
 14
730.000000121096
 24
185.090588281579
 34
0.0
100
AcDbRotatedDimension
1001
ACAD
1000
DSTYLE
1002
{
1070
     3
1000
<>
1070
   372
1070
    18
1070
   371
1070
     0
1070
   178
1070
    30
1070
   177
1070
    30
1070
   176
1070
    30
1002
}
1001
NEM_ODX
1000
MASSLINIE
1002
{
1000
UTF_TYPE
1070
     1
1000
ODXVALUES
1070
     1
1070
     0
1070
   499
1040
1.0
1002
}
  0
DIMENSION
  5
F9
330
1F
100
AcDbEntity
  8
Maatlijnen 1_5
  6
Continuous
 62
    30
370
    18
100
AcDbDimension
280
     0
  2
*D7
 10
790.0000001210887
 20
185.0915882815087
 30
0.0
 11
759.8771332268944
 21
195.2622367456726
 31
0.0
 70
   160
  1
<>
 71
     5
 42
59.99999999999272
 73
     0
 74
     0
 75
     0
  3
_DIMSTYLE_3
100
AcDbAlignedDimension
 13
730.000000121096
 23
185.090588281579
 33
0.0
 14
790.0000001210887
 24
185.0905882815593
 34
0.0
100
AcDbRotatedDimension
1001
ACAD
1000
DSTYLE
1002
{
1070
     3
1000
<>
1070
   372
1070
    18
1070
   371
1070
     0
1070
   178
1070
    30
1070
   177
1070
    30
1070
   176
1070
    30
1002
}
1001
NEM_ODX
1000
MASSLINIE
1002
{
1000
UTF_TYPE
1070
     1
1000
ODXVALUES
1070
     1
1070
     0
1070
   499
1040
1.0
1002
}
  0
DIMENSION
  5
104
330
1F
100
AcDbEntity
  8
Maatlijnen 1_5
  6
Continuous
 62
    30
370
    18
100
AcDbDimension
280
     0
  2
*D8
 10
818.0000001838475
 20
185.0915882815087
 30
0.0
 11
803.9556315517856
 21
195.2281070528398
 31
0.0
 70
   160
  1
<>
 71
     5
 42
28.00000006275877
 73
     0
 74
     0
 75
     0
  3
_DIMSTYLE_3
100
AcDbAlignedDimension
 13
790.0000001210887
 23
185.0905882815593
 33
0.0
 14
818.0000001838475
 24
185.0905882815169
 34
0.0
100
AcDbRotatedDimension
1001
ACAD
1000
DSTYLE
1002
{
1070
     3
1000
<>
1070
   372
1070
    18
1070
   371
1070
     0
1070
   178
1070
    30
1070
   177
1070
    30
1070
   176
1070
    30
1002
}
1001
NEM_ODX
1000
MASSLINIE
1002
{
1000
UTF_TYPE
1070
     1
1000
ODXVALUES
1070
     1
1070
     0
1070
   499
1040
1.0
1002
}
  0
DIMENSION
  5
110
330
1F
100
AcDbEntity
  8
Maatlijnen 1_5
  6
Continuous
 62
    30
370
    18
100
AcDbDimension
280
     0
  2
*D9
 10
826.0000001838475
 20
185.0915882815087
 30
0.0
 11
834.0000001838475
 21
195.2281070528398
 31
0.0
 70
   160
  1
<>
 71
     5
 42
8.0
 73
     0
 74
     0
 75
     0
  3
_DIMSTYLE_4
100
AcDbAlignedDimension
 13
818.0000001838475
 23
185.0905882815169
 33
0.0
 14
826.0000001838475
 24
185.0905882815087
 34
0.0
100
AcDbRotatedDimension
1001
ACAD
1000
DSTYLE
1002
{
1070
     3
1000
<>
1070
   372
1070
    18
1070
   371
1070
     0
1070
   178
1070
    30
1070
   177
1070
    30
1070
   176
1070
    30
1002
}
1001
NEM_ODX
1000
MASSLINIE
1002
{
1000
UTF_TYPE
1070
     1
1000
ODXVALUES
1070
     1
1070
     0
1070
   499
1040
1.0
1002
}
  0
DIMENSION
  5
11B
330
1F
100
AcDbEntity
  8
Maatlijnen 1_5
  6
Continuous
 62
    30
370
    18
100
AcDbDimension
280
     0
  2
*D10
 10
826.0000001838475
 20
155.0915882614735
 30
0.0
 11
632.7935154613397
 21
165.2622367256373
 31
0.0
 70
   160
  1
<>
 71
     5
 42
386.0000001617391
 73
     0
 74
     0
 75
     0
  3
_DIMSTYLE_3
100
AcDbAlignedDimension
 13
440.0000000221084
 23
155.0905882614735
 33
0.0
 14
826.0000001838475
 24
155.0905882815087
 34
0.0
100
AcDbRotatedDimension
1001
ACAD
1000
DSTYLE
1002
{
1070
     3
1000
<>
1070
   372
1070
    18
1070
   371
1070
     0
1070
   178
1070
    30
1070
   177
1070
    30
1070
   176
1070
    30
1002
}
1001
NEM_ODX
1000
MASSLINIE
1002
{
1000
UTF_TYPE
1070
     1
1000
ODXVALUES
1070
     1
1070
     0
1070
   499
1040
1.0
1002
}
  0
INSERT
  5
123
330
1F
100
AcDbEntity
  8
ANKER
  6
VERDECKT2_S2
 62
    30
370
    18
100
AcDbBlockReference
  2
COMPLEXOBJECT_1
 10
0.0
 20
0.0
 30
0.0
  0
CIRCLE
  5
124
330
1F
100
AcDbEntity
  8
ANKER
  6
Continuous
 62
     5
370
    13
100
AcDbCircle
 10
631.5000000220939
 20
392.4118990012903
 30
0.0
 40
3.0
  0
CIRCLE
  5
125
330
1F
100
AcDbEntity
  8
ANKER
  6
Continuous
 62
     5
370
    13
100
AcDbCircle
 10
606.5000000220939
 20
392.4118990012903
 30
0.0
 40
3.0
  0
LWPOLYLINE
  5
126
330
1F
100
AcDbEntity
  8
ANKER
  6
VERDECKT2_S2
 62
    30
370
    18
100
AcDbPolyline
 90
        5
 70
     1
 43
0.0
 10
651.5000000220939
 20
422.4118990012902
 10
593.0000000220939
 20
422.4118990012902
 10
593.0000000220939
 20
362.4118990012903
 10
651.5000000220939
 20
362.4118990012903
 10
651.5000000220939
 20
422.4118990012902
  0
LWPOLYLINE
  5
127
330
1F
100
AcDbEntity
  8
ANKER
  6
VERDECKT2_S2
 62
    30
370
    18
100
AcDbPolyline
 90
        5
 70
     1
 43
0.0
 10
593.0000000220939
 20
422.4118990012902
 10
590.0000000220939
 20
422.4118990012902
 10
590.0000000220939
 20
362.4118990012903
 10
593.0000000220939
 20
362.4118990012903
 10
593.0000000220939
 20
422.4118990012902
  0
INSERT
  5
128
330
1F
100
AcDbEntity
  8
AANHAALLIJN
  6
Continuous
 62
    30
370
    18
100
AcDbBlockReference
  2
NSY154
 10
651.5000000220939
 20
392.4118990012768
 30
0.0
 41
1.962533333333333
 42
1.962533333333333
 43
1.962533333333333
  0
LINE
  5
129
330
1F
100
AcDbEntity
  8
AFBREEKLIJNEN
  6
STRICHPUNKT2_S5
 62
     7
370
    25
100
AcDbLine
 10
410.0000000221012
 20
215.0915882614029
 30
0.0
 11
856.0000000220938
 21
215.0915882613992
 31
0.0
  0
INSERT
  5
12A
330
1F
100
AcDbEntity
  8
AANHAALLIJN
  6
Continuous
 62
    30
370
    18
100
AcDbBlockReference
  2
NSY154
 10
660.0000001210964
 20
268.4119921234651
 30
0.0
 41
1.962533333333333
 42
1.962533333333333
 43
1.962533333333333
  0
INSERT
  5
12B
330
1F
100
AcDbEntity
  8
AANHAALLIJN
  6
Continuous
 62
    30
370
    18
100
AcDbBlockReference
  2
NSY154
 10
760.0000001210842
 20
268.4119921234651
 30
0.0
 41
1.962533333333333
 42
1.962533333333333
 43
1.962533333333333
  0
INSERT
  5
12C
330
1F
100
AcDbEntity
  8
AANHAALLIJN
  6
Continuous
 62
    30
370
    18
100
AcDbBlockReference
  2
NSY154
 10
792.0000000024161
 20
929.411992123485
 30
0.0
 41
1.962533333333333
 42
1.962533333333333
 43
1.962533333333333
  0
LWPOLYLINE
  5
12D
330
1F
100
AcDbEntity
  8
STEENWOL
  6
Continuous
 62
     7
370
    25
100
AcDbPolyline
 90
        5
 70
     0
 43
0.0
 10
638.8009047587607
 20
215.091588281601
 10
590.0000001210924
 20
243.2668037108554
 10
730.0000001210924
 20
324.0958413974015
 10
590.0000001210924
 20
404.9248790839494
 10
706.8909475041728
 20
472.4118990213995
  0
LWPOLYLINE
  5
12E
330
1F
100
AcDbEntity
  8
STEENWOL
  6
Continuous
 62
     7
370
    25
100
AcDbPolyline
 90
        4
 70
     0
 43
0.0
 10
590.0000001210969
 20
215.0915882815675
 10
590.0000001210941
 20
472.4118990213992
 10
730.0000001210942
 20
472.4118990213996
 10
730.000000121096
 20
215.0915882815657
  0
LWPOLYLINE
  5
12F
330
1F
100
AcDbEntity
  8
STEENWOL
  6
Continuous
 62
     7
370
    25
100
AcDbPolyline
 90
        4
 70
     0
 43
0.0
 10
639.9999997413847
 20
472.4118990213987
 10
639.9999997413829
 20
647.411992123474
 10
790.0000000830791
 20
647.4119921234749
 10
790.0000000830803
 20
472.4118990213979
  0
LWPOLYLINE
  5
130
330
1F
100
AcDbEntity
  8
STEENWOL
  6
Continuous
 62
     7
370
    25
100
AcDbPolyline
 90
        4
 70
     0
 43
0.0
 10
752.9065252730815
 20
647.4119921234745
 10
639.999999741384
 20
582.2253792144841
 10
790.0000000830805
 20
495.6228386387613
 10
749.7974733743967
 20
472.4118990213997
  0
HATCH
  5
131
330
1F
100
AcDbEntity
  8
STEENWOL
  6
Continuous
 62
   255
370
    25
100
AcDbHatch
 10
0.0
 20
0.0
 30
0.0
210
0.0
220
0.0
230
1.0
  2
SOLID
 70
     1
 71
     0
 91
        1
 92
        3
 72
     0
 73
     1
 93
        4
 10
60.00000000000411
 20
847.4119921234869
 10
60.00000000000047
 20
787.411992123486
 10
420.000000002416
 20
787.411992123486
 10
420.0000000024088
 20
847.411992123486
 97
        0
 75
     0
 76
     1
 98
        0
450
        0
451
        0
460
0.0
461
0.0
452
        1
462
0.0
453
        0
470

  0
LWPOLYLINE
  5
132
330
1F
100
AcDbEntity
  8
STEENWOL
  6
Continuous
 62
    32
370
    25
100
AcDbPolyline
 90
        4
 70
     0
 43
0.0
 10
790.000000121089
 20
215.0915882815563
 10
790.0000001210851
 20
472.4118990213993
 10
730.0000001210849
 20
472.4118990213988
 10
730.0000001210958
 20
215.0915882815787
  0
LWPOLYLINE
  5
133
330
1F
100
AcDbEntity
  8
STEENWOL
  6
Continuous
 62
     7
370
    25
100
AcDbPolyline
 90
        4
 70
     0
 43
0.0
 10
60.00000000000411
 20
787.4119921234851
 10
390.0000000108343
 20
787.4119921234851
 10
390.0000000108343
 20
567.4119921234851
 10
60.00000000000047
 20
567.4119921234851
  0
LWPOLYLINE
  5
134
330
1F
100
AcDbEntity
  8
STEENWOL
  6
Continuous
 62
     7
370
    25
100
AcDbPolyline
 90
        4
 70
     0
 43
0.0
 10
60.00000000000411
 20
847.4119921234851
 10
420.0000000025688
 20
847.4119921234851
 10
420.0000000025688
 20
787.4119921234851
 10
60.00000000000047
 20
787.4119921234851
  0
LWPOLYLINE
  5
135
330
1F
100
AcDbEntity
  8
STEENWOL
  6
Continuous
 62
    32
370
    25
100
AcDbPolyline
 90
        4
 70
     0
 43
0.0
 10
390.0000000108343
 20
581.2683985840358
 10
270.9829407891161
 20
787.4119921234842
 10
143.9658815673979
 20
567.4119921234842
 10
60.00000000000411
 20
712.8451651005243
  0
LWPOLYLINE
  5
136
330
1F
100
AcDbEntity
  8
STEENWOL
  6
Continuous
 62
    32
370
    25
100
AcDbPolyline
 90
       12
 70
     0
 43
0.0
 10
420.000000002416
 20
787.411992123486
 10
385.3589838510384
 20
847.4119921234869
 10
350.7179676996607
 20
787.4119921234869
 10
316.076951548283
 20
847.4119921234869
 10
281.4359353969053
 20
787.411992123486
 10
246.7949192455276
 20
847.4119921234869
 10
212.1539030941499
 20
787.411992123486
 10
177.5128869427722
 20
847.4119921234869
 10
142.8718707913945
 20
787.4119921234869
 10
108.2308546400168
 20
847.4119921234869
 10
73.58983848863546
 20
787.4119921234851
 10
60.00000000000411
 20
810.950282852451
  0
LWPOLYLINE
  5
137
330
1F
100
AcDbEntity
  8
STEENWOL
  6
Continuous
 62
    32
370
    25
100
AcDbPolyline
 90
        6
 70
     0
 43
0.0
 10
892.000000002416
 20
655.4119921234851
 10
785.767550471523
 20
839.4119921234842
 10
679.5351009406299
 20
655.4119921234859
 10
573.3026514097441
 20
839.4119921234842
 10
467.070201878851
 20
655.4119921234869
 10
450.0000000024161
 20
684.978449068938
  0
MTEXT
  5
138
330
1F
100
AcDbEntity
  8
AANHAALLIJN
  6
Continuous
 62
    30
370
    18
100
AcDbMText
 10
454.5833333387507
 20
1016.895325456815
 30
0.0
 40
12.5
 41
53.95833333333337
 46
0.0
 71
     9
 72
     5
  1
tengel
  7
Trebuchet MS
 73
     1
 44
1.0
  0
LWPOLYLINE
  5
139
330
1F
100
AcDbEntity
  8
STEENWOL
  6
Continuous
 62
    32
370
    25
100
AcDbPolyline
 90
        8
 70
     0
 43
0.0
 10
749.8739214892091
 20
215.0915882613999
 10
730.0000001210983
 20
226.5658021131331
 10
790.0000001210983
 20
261.2068182645109
 10
730.0000001210983
 20
295.8478344158885
 10
790.0000001210947
 20
330.4888505672662
 10
730.0000001210946
 20
365.1298667186421
 10
790.0000001210947
 20
399.7708828700216
 10
730.0000001210946
 20
434.4118990213993
  0
INSERT
  5
187
330
1F
100
AcDbEntity
  8
ENKELSCHALIGE DAKELEMENTEN
  6
Continuous
 62
     5
370
    13
100
AcDbBlockReference
  2
COMPLEXOBJECT_2
 10
0.0
 20
0.0
 30
0.0
  0
INSERT
  5
1D5
330
1F
100
AcDbEntity
  8
ENKELSCHALIGE DAKELEMENTEN
  6
Continuous
 62
     5
370
    13
100
AcDbBlockReference
  2
COMPLEXOBJECT_3
 10
0.0
 20
0.0
 30
0.0
  0
LINE
  5
1D6
330
1F
100
AcDbEntity
  8
AANHAALLIJN
  6
Continuous
 62
    30
370
    18
100
AcDbLine
 10
825.0000000221922
 20
268.4119921234669
 30
0.0
 11
59.99999999999636
 21
268.4119921234719
 31
0.0
  0
MTEXT
  5
1D7
330
1F
100
AcDbEntity
  8
AANHAALLIJN
  6
Continuous
 62
    30
100
AcDbMText
 10
60.0
 20
476.9986591417
 30
0.0
 40
12.5
 41
184.1666666666667
 46
0.0
 71
     7
 72
     5
  1
luchtdichte aansluiting
  7
Trebuchet MS
 73
     1
 44
1.0
  0
LWPOLYLINE
  5
1D8
330
1F
100
AcDbEntity
  8
AANHAALLIJN
  6
Continuous
 62
    30
370
    18
100
AcDbPolyline
 90
        3
 70
     0
 43
0.0
 10
60.0
 20
472.4153258083665
 10
366.0000000112709
 20
472.4153258083569
 10
440.0000000108307
 20
637.411992165508
  0
LINE
  5
1D9
330
1F
100
AcDbEntity
  8
DILALATIEVOEG EN AFDICHTING
  6
VERDECKT2_S2
 62
     5
370
    13
100
AcDbLine
 10
793.0000002309173
 20
492.4118990215752
 30
0.0
 11
793.0000003267779
 21
215.0915882613997
 31
0.0
  0
LWPOLYLINE
  5
1DA
330
1F
100
AcDbEntity
  8
DILALATIEVOEG EN AFDICHTING
  6
VERDECKT2_S2
 62
     5
370
    13
100
AcDbPolyline
 90
        5
 70
     0
 43
0.0
 10
735.0000001664689
 20
645.4119921164463
 10
793.0000001664689
 20
645.4119921164463
 10
793.0000002297983
 20
495.4155005644708
 10
796.0000004264584
 20
492.4155003678108
 10
796.0000004264584
 20
408.0950967079753
  0
MTEXT
  5
1DB
330
1F
100
AcDbEntity
  8
AANHAALLIJN
  6
Continuous
 62
    30
370
    18
100
AcDbMText
 10
989.9999999999963
 20
441.9952323346102
 30
0.0
 40
12.5
 41
143.7604166666667
 46
0.0
 71
     3
 72
     5
  1
hoeklijn t.b.v.\Pbevestiging\Pachterconstructie
  7
Trebuchet MS
 73
     1
 44
0.783132530120482
  0
LINE
  5
1DC
330
1F
100
AcDbEntity
  8
AANHAALLIJN
  6
Continuous
 62
    30
370
    18
100
AcDbLine
 10
651.5000000220939
 20
392.4118990012768
 30
0.0
 11
989.9999999999963
 21
392.4118990012768
 31
0.0
  0
MTEXT
  5
1DD
330
1F
100
AcDbEntity
  8
AANHAALLIJN
  6
Continuous
 62
    30
370
    13
100
AcDbMText
 10
989.9999999999963
 20
1045.645325456816
 30
0.0
 40
12.5
 41
203.8392462055844
 46
0.0
 71
     3
 72
     5
  1
profiel ter ondersteuning\PPV panelen
  7
Trebuchet MS
 73
     1
 44
0.783132530120482
  0
LWPOLYLINE
  5
1DE
330
1F
100
AcDbEntity
  8
AANHAALLIJN
  6
Continuous
 62
    30
370
    18
100
AcDbPolyline
 90
        3
 70
     0
 43
0.0
 10
792.0000000024161
 20
929.411992123485
 10
792.0000000024161
 20
1012.311992123482
 10
989.9999999999963
 20
1012.311992123482
  0
HATCH
  5
1DF
330
1F
100
AcDbEntity
  8
ENKELSCHALIGE DAKELEMENTEN
  6
Continuous
 62
    30
370
    18
100
AcDbHatch
 10
0.0
 20
0.0
 30
0.0
210
0.0
220
0.0
230
1.0
  2
HATCHING_5
 70
     0
 71
     0
 91
        1
 92
        0
 93
        4
 72
     1
 10
872.0000000132428
 20
847.4119921234851
 11
922.000000002416
 21
847.4119921234851
 72
     1
 10
922.000000002416
 20
847.4119921234851
 11
922.000000002416
 21
867.4119921234851
 72
     1
 10
922.000000002416
 20
867.4119921234851
 11
872.0000000132428
 21
867.4119921234851
 72
     1
 10
872.0000000132428
 20
867.4119921234851
 11
872.0000000132428
 21
847.4119921234851
 97
        0
 75
     0
 76
     2
 52
0.0
 41
5.0
 77
     0
 78
     2
 53
45.0
 43
0.0
 44
0.0
 45
-10.60660171779821
 46
10.60660171779821
 79
     0
 53
45.0
 43
-5.303300858899105
 44
5.303300858899106
 45
-10.60660171779821
 46
10.60660171779821
 79
     0
 98
        0
1001
ACAD
1010
0.0
1020
0.0
1030
0.0
1001
NEM_ODX
1002
{
1000
BZM_DEPEND
1070
     1
1000
BZM_SCALE
1040
5.0
1000
HATCHING_5
1002
}
  0
HATCH
  5
1E0
330
1F
100
AcDbEntity
  8
ENKELSCHALIGE DAKELEMENTEN
  6
Continuous
 62
    30
370
    18
100
AcDbHatch
 10
0.0
 20
0.0
 30
0.0
210
0.0
220
0.0
230
1.0
  2
HATCHING_5
 70
     0
 71
     0
 91
        1
 92
        0
 93
        4
 72
     1
 10
380.0000000108344
 20
847.4119921234851
 11
430.0000000000004
 21
847.4119921234851
 72
     1
 10
430.0000000000004
 20
847.4119921234851
 11
430.0000000000004
 21
867.4119921234851
 72
     1
 10
430.0000000000004
 20
867.4119921234851
 11
380.0000000108344
 21
867.4119921234851
 72
     1
 10
380.0000000108344
 20
867.4119921234851
 11
380.0000000108344
 21
847.4119921234851
 97
        0
 75
     0
 76
     2
 52
0.0
 41
5.0
 77
     0
 78
     2
 53
45.0
 43
0.0
 44
0.0
 45
-10.60660171779821
 46
10.60660171779821
 79
     0
 53
45.0
 43
-5.303300858899105
 44
5.303300858899106
 45
-10.60660171779821
 46
10.60660171779821
 79
     0
 98
        0
1001
ACAD
1010
0.0
1020
0.0
1030
0.0
1001
NEM_ODX
1002
{
1000
BZM_DEPEND
1070
     1
1000
BZM_SCALE
1040
5.0
1000
HATCHING_5
1002
}
  0
HATCH
  5
1E1
330
1F
100
AcDbEntity
  8
ENKELSCHALIGE DAKELEMENTEN
  6
Continuous
 62
     7
370
    25
100
AcDbHatch
 10
0.0
 20
0.0
 30
0.0
210
0.0
220
0.0
230
1.0
  2
HATCHING_5
 70
     0
 71
     0
 91
        1
 92
        0
 93
        4
 72
     1
 10
419.9999999960641
 20
787.4119921234851
 11
390.0000000108343
 21
787.4119921234851
 72
     1
 10
390.0000000108343
 20
787.4119921234851
 11
390.0000000108343
 21
567.4119921234851
 72
     1
 10
390.0000000108343
 20
567.4119921234851
 11
420.0000000108343
 21
567.4119921234851
 72
     1
 10
420.0000000108343
 20
567.4119921234851
 11
419.9999999960641
 21
787.4119921234851
 97
        0
 75
     0
 76
     2
 52
0.0
 41
5.0
 77
     0
 78
     2
 53
45.0
 43
0.0
 44
0.0
 45
-10.60660171779821
 46
10.60660171779821
 79
     0
 53
45.0
 43
-5.303300858899105
 44
5.303300858899106
 45
-10.60660171779821
 46
10.60660171779821
 79
     0
 98
        0
1001
ACAD
1010
0.0
1020
0.0
1030
0.0
1001
NEM_ODX
1002
{
1000
BZM_DEPEND
1070
     1
1000
BZM_SCALE
1040
5.0
1000
HATCHING_5
1002
}
  0
HATCH
  5
1E2
330
1F
100
AcDbEntity
  8
ENKELSCHALIGE DAKELEMENTEN
  6
Continuous
 62
     7
370
    25
100
AcDbHatch
 10
0.0
 20
0.0
 30
0.0
210
0.0
220
0.0
230
1.0
  2
HATCHING_5
 70
     0
 71
     0
 91
        1
 92
        0
 93
        4
 72
     1
 10
450.0000000024161
 20
839.411992123486
 11
420.0000000024088
 21
839.411992123486
 72
     1
 10
420.0000000024088
 20
839.411992123486
 11
420.0000000024088
 21
655.4119921234869
 72
     1
 10
420.0000000024088
 20
655.4119921234869
 11
450.0000000024161
 21
655.4119921234869
 72
     1
 10
450.0000000024161
 20
655.4119921234869
 11
450.0000000024161
 21
839.411992123486
 97
        0
 75
     0
 76
     2
 52
0.0
 41
5.0
 77
     0
 78
     2
 53
45.0
 43
0.0
 44
0.0
 45
-10.60660171779821
 46
10.60660171779821
 79
     0
 53
45.0
 43
-5.303300858899105
 44
5.303300858899106
 45
-10.60660171779821
 46
10.60660171779821
 79
     0
 98
        0
1001
ACAD
1010
0.0
1020
0.0
1030
0.0
1001
NEM_ODX
1002
{
1000
BZM_DEPEND
1070
     1
1000
BZM_SCALE
1040
5.0
1000
HATCHING_5
1002
}
  0
HATCH
  5
1E3
330
1F
100
AcDbEntity
  8
ENKELSCHALIGE DAKELEMENTEN
  6
Continuous
 62
     7
370
    25
100
AcDbHatch
 10
0.0
 20
0.0
 30
0.0
210
0.0
220
0.0
230
1.0
  2
HATCHING_5
 70
     0
 71
     0
 91
        1
 92
        0
 93
        4
 72
     1
 10
892.000000002416
 20
839.4119921234842
 11
892.000000002416
 21
655.4119921234851
 72
     1
 10
892.000000002416
 20
655.4119921234851
 11
922.000000002416
 21
655.4119921234851
 72
     1
 10
922.000000002416
 20
655.4119921234851
 11
922.000000002416
 21
839.4119921234842
 72
     1
 10
922.000000002416
 20
839.4119921234842
 11
892.000000002416
 21
839.4119921234842
 97
        0
 75
     0
 76
     2
 52
0.0
 41
5.0
 77
     0
 78
     2
 53
45.0
 43
0.0
 44
0.0
 45
-10.60660171779821
 46
10.60660171779821
 79
     0
 53
45.0
 43
-5.303300858899105
 44
5.303300858899106
 45
-10.60660171779821
 46
10.60660171779821
 79
     0
 98
        0
1001
ACAD
1010
0.0
1020
0.0
1030
0.0
1001
NEM_ODX
1002
{
1000
BZM_DEPEND
1070
     1
1000
BZM_SCALE
1040
5.0
1000
HATCHING_5
1002
}
  0
LWPOLYLINE
  5
1E4
330
1F
100
AcDbEntity
  8
ENKELSCHALIGE DAKELEMENTEN
  6
Continuous
 62
     7
370
    25
100
AcDbPolyline
 90
        5
 70
     1
 43
0.0
 10
892.000000002416
 20
839.4119921234842
 10
892.000000002416
 20
655.4119921234851
 10
450.0000000024161
 20
655.4119921234869
 10
450.0000000024161
 20
839.4119921234842
 10
892.000000002416
 20
839.4119921234842
  0
LWPOLYLINE
  5
1E5
330
1F
100
AcDbEntity
  8
ENKELSCHALIGE DAKELEMENTEN
  6
Continuous
 62
    30
370
    18
100
AcDbPolyline
 90
        5
 70
     1
 43
0.0
 10
380.0000000108344
 20
847.4119921234851
 10
430.0000000000004
 20
847.4119921234851
 10
430.0000000000004
 20
867.4119921234851
 10
380.0000000108344
 20
867.4119921234851
 10
380.0000000108344
 20
847.4119921234851
  0
LWPOLYLINE
  5
1E6
330
1F
100
AcDbEntity
  8
ENKELSCHALIGE DAKELEMENTEN
  6
Continuous
 62
     7
370
    25
100
AcDbPolyline
 90
        5
 70
     1
 43
0.0
 10
420.0000000147706
 20
567.4119921234851
 10
390.0000000108343
 20
567.4119921234851
 10
390.0000000108343
 20
787.4119921234851
 10
420.0000000000004
 20
787.4119921234851
 10
420.0000000147706
 20
567.4119921234851
  0
LINE
  5
1E7
330
1F
100
AcDbEntity
  8
ENKELSCHALIGE DAKELEMENTEN
  6
VERDECKT2_S2
 62
     7
370
    25
100
AcDbLine
 10
450.0000000024161
 20
839.411992123486
 30
0.0
 11
892.000000002416
 21
655.4119921234851
 31
0.0
  0
LINE
  5
1E8
330
1F
100
AcDbEntity
  8
ENKELSCHALIGE DAKELEMENTEN
  6
VERDECKT2_S2
 62
     7
370
    25
100
AcDbLine
 10
892.000000002416
 20
839.4119921234842
 30
0.0
 11
450.0000000024161
 21
655.4119921234869
 31
0.0
  0
LWPOLYLINE
  5
1E9
330
1F
100
AcDbEntity
  8
ENKELSCHALIGE DAKELEMENTEN
  6
Continuous
 62
    30
370
    18
100
AcDbPolyline
 90
        5
 70
     1
 43
0.0
 10
872.0000000132428
 20
847.4119921234851
 10
922.000000002416
 20
847.4119921234851
 10
922.000000002416
 20
867.4119921234851
 10
872.0000000132428
 20
867.4119921234851
 10
872.0000000132428
 20
847.4119921234851
  0
LWPOLYLINE
  5
1EA
330
1F
100
AcDbEntity
  8
ENKELSCHALIGE DAKELEMENTEN
  6
Continuous
 62
    30
370
    18
100
AcDbPolyline
 90
        4
 70
     0
 43
0.0
 10
60.00000000000411
 20
867.4119921234851
 10
922.000000002416
 20
867.4119921234851
 10
922.000000002416
 20
889.4119921234851
 10
60.00000000000411
 20
889.4119921234851
  0
LWPOLYLINE
  5
1EB
330
1F
100
AcDbEntity
  8
ENKELSCHALIGE DAKELEMENTEN
  6
Continuous
 62
     7
370
    25
100
AcDbPolyline
 90
        5
 70
     1
 43
0.0
 10
892.000000002416
 20
839.4119921234842
 10
922.000000002416
 20
839.4119921234842
 10
922.000000002416
 20
655.4119921234851
 10
892.000000002416
 20
655.4119921234851
 10
892.000000002416
 20
839.4119921234842
  0
LWPOLYLINE
  5
1EC
330
1F
100
AcDbEntity
  8
ENKELSCHALIGE DAKELEMENTEN
  6
Continuous
 62
     7
370
    25
100
AcDbPolyline
 90
        5
 70
     0
 43
0.0
 10
420.000000002416
 20
839.411992123486
 10
450.0000000024161
 20
839.411992123486
 10
450.0000000024161
 20
655.4119921234869
 10
420.0000000024088
 20
655.4119921234869
 10
420.0000000024088
 20
839.411992123486
  0
INSERT
  5
1F9
330
1F
100
AcDbEntity
  8
0
  6
Continuous
 62
     7
370
    25
100
AcDbBlockReference
  2
COMPLEXOBJECT_4
 10
0.0
 20
0.0
 30
0.0
  0
INSERT
  5
206
330
1F
100
AcDbEntity
  8
0
  6
Continuous
 62
     7
370
    25
100
AcDbBlockReference
  2
COMPLEXOBJECT_5
 10
0.0
 20
0.0
 30
0.0
  0
LINE
  5
207
330
1F
100
AcDbEntity
  8
ISOLATIEPLATEN
  6
Continuous
 62
   255
370
    13
100
AcDbLine
 10
959.000000002387
 20
929.411992123485
 30
0.0
 11
959.000000002387
 21
952.311992123483
 31
0.0
  0
LWPOLYLINE
  5
208
330
1F
100
AcDbEntity
  8
ENKELSCHALIGE DAKELEMENTEN
  6
Continuous
 62
     5
370
    13
100
AcDbPolyline
 90
        4
 70
     0
 43
0.0
 10
60.00000000000387
 20
952.311992123483
 10
959.000000002387
 20
952.311992123483
 10
959.000000002387
 20
929.411992123485
 10
60.00000000000387
 20
929.4119921234852
  0
LINE
  5
209
330
1F
100
AcDbEntity
  8
ENKELSCHALIGE DAKELEMENTEN
  6
Continuous
 62
     5
370
    13
100
AcDbLine
 10
60.00000000000387
 20
935.411992123485
 30
0.0
 11
959.000000002387
 21
935.411992123485
 31
0.0
  0
LINE
  5
20A
330
1F
100
AcDbEntity
  8
ENKELSCHALIGE DAKELEMENTEN
  6
Continuous
 62
     5
370
    13
100
AcDbLine
 10
959.000000002387
 20
935.411992123485
 30
0.0
 11
60.00000000000387
 21
935.411992123485
 31
0.0
  0
LINE
  5
20B
330
1F
100
AcDbEntity
  8
ENKELSCHALIGE DAKELEMENTEN
  6
Continuous
 62
     5
370
    13
100
AcDbLine
 10
60.00000000000387
 20
942.4119921234888
 30
0.0
 11
959.000000002387
 21
942.4119921234888
 31
0.0
  0
LWPOLYLINE
  5
20C
330
1F
100
AcDbEntity
  8
ENKELSCHALIGE DAKELEMENTEN
  6
Continuous
 62
     5
370
    13
100
AcDbPolyline
 90
        4
 70
     0
 43
0.0
 10
60.00000000000387
 20
943.9119921234814
 10
949.0000000023869
 20
943.9119921234814
 10
949.0000000023869
 20
950.7119921234806
 10
60.00000000000387
 20
950.7119921234806
  0
LWPOLYLINE
  5
20D
330
1F
100
AcDbEntity
  8
ENKELSCHALIGE DAKELEMENTEN
  6
Continuous
 62
     5
370
    13
100
AcDbPolyline
 90
        4
 70
     0
 43
0.0
 10
60.00000000000387
 20
950.7119921234806
 10
949.0000000023869
 20
950.7119921234806
 10
949.0000000023869
 20
943.9119921234814
 10
60.00000000000387
 20
943.9119921234816
  0
LINE
  5
20E
330
1F
100
AcDbEntity
  8
ENKELSCHALIGE DAKELEMENTEN
  6
Continuous
 62
     5
370
    13
100
AcDbLine
 10
60.00000000000387
 20
932.4119921234851
 30
0.0
 11
959.000000002387
 21
932.4119921234851
 31
0.0
  0
LINE
  5
20F
330
1F
100
AcDbEntity
  8
ENKELSCHALIGE DAKELEMENTEN
  6
Continuous
 62
     5
370
    13
100
AcDbLine
 10
959.000000002387
 20
942.4119921234888
 30
0.0
 11
60.00000000000387
 21
942.4119921234888
 31
0.0
  0
LINE
  5
210
330
1F
100
AcDbEntity
  8
ENKELSCHALIGE DAKELEMENTEN
  6
Continuous
 62
     5
370
    13
100
AcDbLine
 10
60.00000000000387
 20
929.411992123485
 30
0.0
 11
959.000000002387
 21
929.411992123485
 31
0.0
  0
LINE
  5
211
330
1F
100
AcDbEntity
  8
ENKELSCHALIGE DAKELEMENTEN
  6
Continuous
 62
     5
370
    13
100
AcDbLine
 10
959.000000002387
 20
935.4119921234859
 30
0.0
 11
60.0000000000075
 21
935.4119921234858
 31
0.0
  0
LINE
  5
212
330
1F
100
AcDbEntity
  8
ENKELSCHALIGE DAKELEMENTEN
  6
Continuous
 62
     5
370
    13
100
AcDbLine
 10
60.00000000000387
 20
952.311992123483
 30
0.0
 11
959.000000002387
 21
952.311992123483
 31
0.0
  0
LINE
  5
213
330
1F
100
AcDbEntity
  8
ENKELSCHALIGE DAKELEMENTEN
  6
Continuous
 62
     5
370
    13
100
AcDbLine
 10
60.00000000000387
 20
932.4119921234851
 30
0.0
 11
959.000000002387
 21
932.4119921234851
 31
0.0
  0
HATCH
  5
214
330
1F
100
AcDbEntity
  8
ENKELSCHALIGE DAKELEMENTEN
  6
Continuous
 62
   253
370
    25
100
AcDbHatch
 10
0.0
 20
0.0
 30
0.0
210
0.0
220
0.0
230
1.0
  2
SOLID
 70
     1
 71
     0
 91
        1
 92
        3
 72
     0
 73
     1
 93
        4
 10
959.000000002387
 20
935.4119921234859
 10
959.000000002387
 20
942.4119921234888
 10
60.00000000000387
 20
942.4119921234888
 10
60.00000000000387
 20
935.4119921234858
 97
        0
 75
     0
 76
     1
 98
        0
450
        0
451
        0
460
0.0
461
0.0
452
        1
462
0.0
453
        0
470

  0
INSERT
  5
2A4
330
1F
100
AcDbEntity
  8
ENKELSCHALIGE DAKELEMENTEN
  6
Continuous
 62
     5
370
    13
100
AcDbBlockReference
  2
COMPLEXOBJECT_6
 10
0.0
 20
0.0
 30
0.0
  0
LWPOLYLINE
  5
2A5
330
1F
100
AcDbEntity
  8
GEVEL-ELEMENTEN
  6
Continuous
 62
    30
370
    18
100
AcDbPolyline
 90
        5
 70
     0
 43
0.0
 10
730.0000001210942
 20
472.4118990213996
 10
790.0000000830803
 20
472.4118990213996
 10
790.0000000830803
 20
434.4118990213993
 10
730.0000001210946
 20
434.4118990213993
 10
730.0000001210946
 20
472.4118990213996
  0
HATCH
  5
2A6
330
1F
100
AcDbEntity
  8
HOUT
  6
Continuous
 62
    30
370
    18
100
AcDbHatch
 10
0.0
 20
0.0
 30
0.0
210
0.0
220
0.0
230
1.0
  2
HATCHING_5
 70
     0
 71
     0
 91
        1
 92
        0
 93
        4
 72
     1
 10
790.0000000220829
 20
434.4118990213993
 11
790.0000000220829
 21
472.4118990213996
 72
     1
 10
790.0000000220829
 20
472.4118990213996
 11
730.0000001210946
 21
472.4118990213996
 72
     1
 10
730.0000001210946
 20
472.4118990213996
 11
730.0000001210946
 21
434.4118990213993
 72
     1
 10
730.0000001210946
 20
434.4118990213993
 11
790.0000000220829
 21
434.4118990213993
 97
        0
 75
     0
 76
     2
 52
0.0
 41
5.0
 77
     0
 78
     2
 53
45.0
 43
0.0
 44
0.0
 45
-10.60660171779821
 46
10.60660171779821
 79
     0
 53
45.0
 43
-5.303300858899105
 44
5.303300858899106
 45
-10.60660171779821
 46
10.60660171779821
 79
     0
 98
        0
1001
ACAD
1010
0.0
1020
0.0
1030
0.0
1001
NEM_ODX
1002
{
1000
BZM_DEPEND
1070
     1
1000
BZM_SCALE
1040
5.0
1000
HATCHING_5
1002
}
  0
LWPOLYLINE
  5
2A7
330
1F
100
AcDbEntity
  8
HOUT_1
  6
Continuous
 62
    30
370
    18
100
AcDbPolyline
 90
        5
 70
     1
 43
0.0
 10
914.0000000436321
 20
619.4119921234617
 10
851.0000000436322
 20
619.4119921234617
 10
851.0000000436322
 20
647.4119921234617
 10
914.0000000436321
 20
647.4119921234617
 10
914.0000000436321
 20
619.4119921234617
  0
LWPOLYLINE
  5
2A8
330
1F
100
AcDbEntity
  8
HOUT_1
  6
Continuous
 62
     7
370
    25
100
AcDbPolyline
 90
        5
 70
     1
 43
0.0
 10
939.0000000024153
 20
609.4119921234745
 10
831.0000000848496
 20
609.4119921234484
 10
831.0000000848493
 20
619.411992123447
 10
939.000000002415
 20
619.4119921234763
 10
939.0000000024153
 20
609.4119921234745
  0
HATCH
  5
2A9
330
1F
100
AcDbEntity
  8
HOUT_1
  6
Continuous
 62
     5
370
    13
100
AcDbHatch
 10
0.0
 20
0.0
 30
0.0
210
0.0
220
0.0
230
1.0
  2
HATCHING_1
 70
     0
 71
     0
 91
        1
 92
        0
 93
        4
 72
     1
 10
831.0000000848496
 20
609.4119921234484
 11
939.0000000024153
 21
609.4119921234745
 72
     1
 10
939.0000000024153
 20
609.4119921234745
 11
939.000000002415
 21
619.4119921234763
 72
     1
 10
939.000000002415
 20
619.4119921234763
 11
831.0000000848493
 21
619.411992123447
 72
     1
 10
831.0000000848493
 20
619.411992123447
 11
831.0000000848496
 21
609.4119921234484
 97
        0
 75
     0
 76
     2
 52
0.0
 41
5.0
 77
     0
 78
     2
 53
90.0
 43
0.0
 44
0.0
 45
-15.0
 46
0.0000000000000009
 79
     0
 53
90.0
 43
-7.5
 44
0.0000000000000009
 45
-15.0
 46
0.0000000000000009
 79
     0
 98
        0
1001
ACAD
1010
939.000000002415
1020
619.4119921234763
1030
0.0
1001
NEM_ODX
1002
{
1000
BZM_DEPEND
1070
     1
1000
BZM_SCALE
1040
5.0
1000
HATCHING_1
1002
}
  0
HATCH
  5
2AA
330
1F
100
AcDbEntity
  8
HOUT_1
  6
Continuous
 62
    30
370
    18
100
AcDbHatch
 10
0.0
 20
0.0
 30
0.0
210
0.0
220
0.0
230
1.0
  2
HATCHING_5
 70
     0
 71
     0
 91
        1
 92
        0
 93
        4
 72
     1
 10
914.0000000436321
 20
647.4119921234617
 11
851.0000000436322
 21
647.4119921234617
 72
     1
 10
851.0000000436322
 20
647.4119921234617
 11
851.0000000436322
 21
619.4119921234617
 72
     1
 10
851.0000000436322
 20
619.4119921234617
 11
914.0000000436321
 21
619.4119921234617
 72
     1
 10
914.0000000436321
 20
619.4119921234617
 11
914.0000000436321
 21
647.4119921234617
 97
        0
 75
     0
 76
     2
 52
0.0
 41
5.0
 77
     0
 78
     2
 53
45.0
 43
0.0
 44
0.0
 45
-10.60660171779821
 46
10.60660171779821
 79
     0
 53
45.0
 43
-5.303300858899105
 44
5.303300858899106
 45
-10.60660171779821
 46
10.60660171779821
 79
     0
 98
        0
1001
ACAD
1010
0.0
1020
0.0
1030
0.0
1001
NEM_ODX
1002
{
1000
BZM_DEPEND
1070
     1
1000
BZM_SCALE
1040
5.0
1000
HATCHING_5
1002
}
  0
LWPOLYLINE
  5
2AB
330
1F
100
AcDbEntity
  8
ENKELSCHALIGE DAKELEMENTEN
  6
Continuous
 62
     5
370
    13
100
AcDbPolyline
 90
       13
 70
     1
 43
0.0
 10
867.000000002416
 20
929.411992123485
 10
892.000000002416
 20
929.411992123485
 10
892.000000002416
 20
889.4119921234851
 10
772.000000002416
 20
889.4119921234851
 10
772.000000002416
 20
929.411992123485
 10
797.000000002416
 20
929.411992123485
 10
797.000000002416
 20
928.6619921234851
 10
772.7500000024161
 20
928.6619921234851
 10
772.7500000024161
 20
890.1619921234852
 10
891.2500000024161
 20
890.1619921234852
 10
891.2500000024161
 20
928.6619921234851
 10
867.000000002416
 20
928.6619921234851
 10
867.000000002416
 20
929.411992123485
  0
MTEXT
  5
2AC
330
1F
100
AcDbEntity
  8
AANHAALLIJN
  6
Continuous
 62
    30
370
    18
100
AcDbMText
 10
989.9999999999963
 20
555.7452323346102
 30
0.0
 40
12.5
 41
90.10037782665079
 46
0.0
 71
     3
 72
     5
  1
luchtdicht\Pmembraan
  7
Trebuchet MS
 73
     1
 44
0.783132530120482
  0
LWPOLYLINE
  5
2AD
330
1F
100
AcDbEntity
  8
AANHAALLIJN
  6
Continuous
 62
    30
370
    18
100
AcDbPolyline
 90
        3
 70
     0
 43
0.0
 10
643.7999996719376
 20
566.4119924858414
 10
703.3710246567728
 20
522.4118990012767
 10
989.9999999999963
 20
522.4118990012767
  0
INSERT
  5
2AE
330
1F
100
AcDbEntity
  8
AANHAALLIJN
  6
Continuous
 62
    30
370
    18
100
AcDbBlockReference
  2
NSY154
 10
643.7999996719376
 20
566.4119924858414
 30
0.0
 41
1.962533333333333
 42
1.962533333333333
 43
1.962533333333333
  0
MTEXT
  5
2AF
330
1F
100
AcDbEntity
  8
AANHAALLIJN
  6
Continuous
 62
     5
370
    18
100
AcDbMText
 10
51.49999999999636
 20
1283.0
 30
0.0
 40
10.0
 41
708.2315412392915
 46
0.0
 71
     1
 72
     5
  3
{\fArial|i0|b0;\H10.000000;\W1.000000;\C5;Bouwdetail gebaseerd op:     Rc wand ≥ \fArial|i0|b1;5,0 m²·K/W     \fArial|i0|b0;Rc dak ≥ \fArial|i0|b1;7,0 m²·K/W*     \fArial|i0|b0;qv10-waarde\fArial|i0|b1; \fArial|i0|b0;≤ \fArial|i0|b1;0,4 dm³/s per m²}
  1
\P
  7
ARIAL
 73
     1
 44
1.0
  0
INSERT
  5
2B0
330
1F
100
AcDbEntity
  8
AANHAALLIJN
  6
Continuous
 62
    30
370
    18
100
AcDbBlockReference
  2
NSY154
 10
239.2914626355673
 20
677.411992123485
 30
0.0
 41
1.962533333333333
 42
1.962533333333333
 43
1.962533333333333
  0
MTEXT
  5
2B1
330
1F
100
AcDbEntity
  8
AANHAALLIJN
  6
Continuous
 62
     5
370
    13
100
AcDbMText
 10
70.00000000000001
 20
43.00000000000546
 30
0.0
 40
7.5
 41
440.1289571934895
 46
0.0
 71
     1
 72
     5
  1
\W1.00;ROCKWOOL\~bouwdetails\~ontwikkeld\~door\~Archidat\~Bouwformatie\~-\~bouwdetails.bouwformatie.nl
  7
TAHOMA
 73
     1
 44
1.0
  0
LWPOLYLINE
  5
2B2
330
1F
100
AcDbEntity
  8
AANHAALLIJN
  6
Continuous
 62
    30
370
    18
100
AcDbPolyline
 90
        3
 70
     0
 43
0.0
 10
587.9215891546
 20
747.5607439865612
 10
587.9215891546
 20
1012.460743986542
 10
741.8799224879334
 20
1012.460743986542
  0
LWPOLYLINE
  5
2B3
330
1F
100
AcDbEntity
  8
DILALATIEVOEG EN AFDICHTING
  6
Continuous
 62
    30
370
    18
100
AcDbPolyline
 90
        5
 70
     0
 43
0.0
 10
60.00000000000047
 20
567.4119921234842
 10
420.0000000108343
 20
567.4119921234851
 10
420.000000010958
 20
562.3372890397477
 10
420.0000000110379
 20
556.4119921234714
 10
60.00000000000039
 20
556.411992123485
  0
LINE
  5
2B4
330
1F
100
AcDbEntity
  8
DILALATIEVOEG EN AFDICHTING
  6
Continuous
 62
     5
370
    13
100
AcDbLine
 10
60.00000000000047
 20
559.4119921234842
 30
0.0
 11
420.0000000109871
 21
559.4119921233104
 31
0.0
  0
LINE
  5
2B5
330
1F
100
AcDbEntity
  8
DILALATIEVOEG EN AFDICHTING
  6
Continuous
 62
     5
370
    13
100
AcDbLine
 10
60.00000000000047
 20
557.4119921234841
 30
0.0
 11
420.0000000109871
 21
557.4119921233104
 31
0.0
  0
LWPOLYLINE
  5
2B6
330
1F
100
AcDbEntity
  8
DILALATIEVOEG EN AFDICHTING
  6
Continuous
 62
     5
370
    13
100
AcDbPolyline
 90
       10
 70
     1
 43
0.0
 10
440.0000000108851
 20
556.4119921236461
 10
440.0000000108851
 20
541.411992123646
 10
439.1910787628443
 20
542.2404884497855
 10
438.3529140230388
 20
542.7433872819865
 10
437.5000000147923
 20
542.9119921192805
 10
436.6470860496995
 20
542.7433872365118
 10
435.808921267046
 20
542.240488525892
 10
435.000000064327
 20
541.411992602535
 10
435.0000000108852
 20
556.4119921236461
 10
440.0000000108851
 20
556.4119921236461
  0
HATCH
  5
2B7
330
1F
100
AcDbEntity
  8
DILALATIEVOEG EN AFDICHTING
  6
Continuous
 62
     8
370
    25
100
AcDbHatch
 10
0.0
 20
0.0
 30
0.0
210
0.0
220
0.0
230
1.0
  2
SOLID
 70
     1
 71
     0
 91
        1
 92
        3
 72
     0
 73
     1
 93
        9
 10
440.0000000108851
 20
541.411992123646
 10
440.0000000108851
 20
556.4119921236461
 10
435.0000000108852
 20
556.4119921236461
 10
435.000000064327
 20
541.411992602535
 10
435.808921267046
 20
542.240488525892
 10
436.6470860496995
 20
542.7433872365118
 10
437.5000000147923
 20
542.9119921192805
 10
438.3529140230388
 20
542.7433872819865
 10
439.1910787628443
 20
542.2404884497855
 97
        0
 75
     0
 76
     1
 98
        0
450
        0
451
        0
460
0.0
461
0.0
452
        1
462
0.0
453
        0
470

  0
HATCH
  5
2B8
330
1F
100
AcDbEntity
  8
ENKELSCHALIGE DAKELEMENTEN
  6
Continuous
 62
    30
370
    18
100
AcDbHatch
 10
0.0
 20
0.0
 30
0.0
210
0.0
220
0.0
230
1.0
  2
HATCHING_5
 70
     0
 71
     0
 91
        1
 92
        0
 93
        4
 72
     1
 10
375.0000000000513
 20
541.4119921236315
 11
435.0000000108852
 21
541.4119921236315
 72
     1
 10
435.0000000108852
 20
541.4119921236315
 11
435.0000000108852
 21
556.4119921236315
 72
     1
 10
435.0000000108852
 20
556.4119921236315
 11
375.0000000000513
 21
556.4119921236315
 72
     1
 10
375.0000000000513
 20
556.4119921236315
 11
375.0000000000513
 21
541.4119921236315
 97
        0
 75
     0
 76
     2
 52
0.0
 41
5.0
 77
     0
 78
     2
 53
45.0
 43
0.0
 44
0.0
 45
-10.60660171779821
 46
10.60660171779821
 79
     0
 53
45.0
 43
-5.303300858899105
 44
5.303300858899106
 45
-10.60660171779821
 46
10.60660171779821
 79
     0
 98
        0
1001
ACAD
1010
0.0
1020
0.0
1030
0.0
1001
NEM_ODX
1002
{
1000
BZM_DEPEND
1070
     1
1000
BZM_SCALE
1040
5.0
1000
HATCHING_5
1002
}
  0
LWPOLYLINE
  5
2B9
330
1F
100
AcDbEntity
  8
ENKELSCHALIGE DAKELEMENTEN
  6
Continuous
 62
    30
370
    18
100
AcDbPolyline
 90
        5
 70
     1
 43
0.0
 10
435.0000000108852
 20
556.4119921236315
 10
375.0000000000513
 20
556.4119921236315
 10
375.0000000000513
 20
541.4119921236315
 10
435.0000000108852
 20
541.4119921236315
 10
435.0000000108852
 20
556.4119921236315
  0
LWPOLYLINE
  5
2BA
330
1F
100
AcDbEntity
  8
DILALATIEVOEG EN AFDICHTING
  6
Continuous
 62
     5
370
    13
100
AcDbPolyline
 90
        8
 70
     1
 43
0.0
 10
440.0000000108343
 20
647.4119921234814
 10
420.0000000112636
 20
647.4119921234859
 10
420.0000000108343
 20
593.4119921230785
 10
420.0000000108343
 20
590.4119921235006
 10
420.0000000147706
 20
567.4119921234851
 10
420.0000000110379
 20
556.4119921234714
 10
440.0000000108342
 20
556.411992123486
 10
440.0000000108343
 20
647.4119921234814
  0
HATCH
  5
2BB
330
1F
100
AcDbEntity
  8
DILALATIEVOEG EN AFDICHTING
  6
Continuous
 62
   254
370
    13
100
AcDbHatch
 10
0.0
 20
0.0
 30
0.0
210
0.0
220
0.0
230
1.0
  2
SOLID
 70
     1
 71
     0
 91
        1
 92
        0
 93
        5
 72
     1
 10
420.0000000108343
 20
593.4119921230785
 11
420.0000000110379
 21
556.4119921234714
 72
     1
 10
420.0000000110379
 20
556.4119921234714
 11
440.0000000108342
 21
556.411992123486
 72
     1
 10
440.0000000108342
 20
556.411992123486
 11
440.0000000220975
 21
647.4119921234668
 72
     1
 10
440.0000000220975
 20
647.4119921234668
 11
420.0000000225267
 21
647.4119921234715
 72
     1
 10
420.0000000225267
 20
647.4119921234715
 11
420.0000000108343
 21
593.4119921230785
 97
        0
 75
     0
 76
     1
 98
        0
450
        0
451
        0
460
1.570796326794896
461
0.0
452
        1
462
0.0
453
        0
470

1001
ACAD
1010
0.0
1020
0.0
1030
0.0
1001
NEM_ODX
1002
{
1000
BZM_DEPEND
1070
     1
1000
BZM_SCALE
1040
5.0
1000
HATCHING_15
1002
}
  0
HATCH
  5
2BC
330
1F
100
AcDbEntity
  8
DILALATIEVOEG EN AFDICHTING
  6
Continuous
 62
     7
370
    13
100
AcDbHatch
 10
0.0
 20
0.0
 30
0.0
210
0.0
220
0.0
230
1.0
  2
HATCHING_15
 70
     0
 71
     0
 91
        1
 92
        0
 93
        5
 72
     1
 10
420.0000000108343
 20
593.4119921230785
 11
420.0000000110379
 21
556.4119921234714
 72
     1
 10
420.0000000110379
 20
556.4119921234714
 11
440.0000000108342
 21
556.411992123486
 72
     1
 10
440.0000000108342
 20
556.411992123486
 11
440.0000000220975
 21
647.4119921234668
 72
     1
 10
440.0000000220975
 20
647.4119921234668
 11
420.0000000225267
 21
647.4119921234715
 72
     1
 10
420.0000000225267
 20
647.4119921234715
 11
420.0000000108343
 21
593.4119921230785
 97
        0
 75
     0
 76
     2
 52
90.00000000000001
 41
5.0
 77
     0
 78
     2
 53
135.0
 43
0.0
 44
0.0
 45
-10.60660171779821
 46
-10.60660171779821
 79
     0
 53
135.0
 43
-5.303300858899105
 44
-5.303300858899106
 45
-10.60660171779821
 46
-10.60660171779821
 79
     4
 49
40.0
 49
-5.0
 49
5.0
 49
-5.0
 98
        0
1001
ACAD
1010
0.0
1020
0.0
1030
0.0
1001
NEM_ODX
1002
{
1000
BZM_DEPEND
1070
     1
1000
BZM_SCALE
1040
5.0
1000
HATCHING_15
1002
}
  0
INSERT
  5
2BD
330
1F
100
AcDbEntity
  8
AANHAALLIJN
  6
Continuous
 62
    30
370
    18
100
AcDbBlockReference
  2
NSY154
 10
239.2914626355673
 20
563.4119921234846
 30
0.0
 41
1.962533333333333
 42
1.962533333333333
 43
1.962533333333333
  0
MTEXT
  5
2BE
330
1F
100
AcDbEntity
  8
AANHAALLIJN
  6
Continuous
 62
    30
370
    13
100
AcDbMText
 10
741.8799224879334
 20
1017.044077319876
 30
0.0
 40
12.5
 41
160.5648529580044
 46
0.0
 71
     9
 72
     5
  1
{\fArial|b1|i0|c0|p34;RockSono Base***}
  7
Trebuchet MS
 73
     1
 44
1.0
  0
LWPOLYLINE
  5
2BF
330
1F
100
AcDbEntity
  8
AANHAALLIJN
  6
Continuous
 62
    30
370
    18
100
AcDbPolyline
 90
        3
 70
     0
 43
0.0
 10
239.2914626355673
 20
567.4119921234996
 10
239.291462635571
 20
1012.311992123481
 10
60.00000000000411
 20
1012.311992123483
  0
INSERT
  5
2C0
330
1F
100
AcDbEntity
  8
AANHAALLIJN
  6
Continuous
 62
    30
370
    18
100
AcDbBlockReference
  2
NSY154
 10
587.9215891546
 20
747.5607439865612
 30
0.0
 41
1.962533333333333
 42
1.962533333333333
 43
1.962533333333333
  0
LINE
  5
2C1
330
1F
100
AcDbEntity
  8
AFBREEKLIJNEN
  6
STRICHPUNKT2_S5
 62
     7
370
    25
100
AcDbLine
 10
60.00000000000047
 20
526.4119921234842
 30
0.0
 11
60.00000000000411
 21
982.3119921234829
 31
0.0
  0
MTEXT
  5
2C2
330
1F
100
AcDbEntity
  8
AANHAALLIJN
  6
Continuous
 62
    30
370
    25
100
AcDbMText
 10
51.50000000000363
 20
1431.749999999998
 30
0.0
 40
17.5
 41
595.065699290855
 46
0.0
 71
     1
 72
     5
  1
{\fArial|i0|b1;\H17.500000;\W1.000000;\C30;ROCKWOOL - bouwdetail 007}\P{\fArial|i0|b0;\H17.500000;\W1.000000;\C30;Hellend dak met buitenwand met overstek (eindgevel)}\P
  7
ARIAL
 73
     1
 44
0.9036144578313253
  0
LWPOLYLINE
  5
2C3
330
1F
100
AcDbEntity
  8
AANHAALLIJN
  6
Continuous
 62
    30
370
    18
100
AcDbPolyline
 90
        5
 70
     1
 43
0.0
 10
69.99999999999637
 20
70.00000000000181
 10
214.724388648525
 20
70.00000000000214
 10
214.724388648525
 20
123.1261193698775
 10
69.99999999999636
 20
123.1261193698714
 10
69.99999999999637
 20
70.00000000000181
  0
HATCH
  5
2C4
330
1F
100
AcDbEntity
  8
AANHAALLIJN
  6
Continuous
 62
   255
370
    25
100
AcDbHatch
 10
0.0
 20
0.0
 30
0.0
210
0.0
220
0.0
230
1.0
  2
SOLID
 70
     1
 71
     0
 91
        1
 92
        3
 72
     0
 73
     1
 93
        4
 10
214.724388648525
 20
70.0000000000021
 10
214.7243886485251
 20
123.126119369878
 10
69.99999999999639
 20
123.126119369872
 10
69.99999999999637
 20
70.00000000000172
 97
        0
 75
     0
 76
     1
 98
        0
450
        0
451
        0
460
0.0
461
0.0
452
        1
462
0.0
453
        0
470

  0
MTEXT
  5
2C5
330
1F
100
AcDbEntity
  8
AANHAALLIJN
  6
Continuous
 62
    30
370
    18
100
AcDbMText
 10
51.49999999999272
 20
1344.249999999997
 30
0.0
 40
17.5
 41
469.3380160185397
 46
0.0
 71
     1
 72
     5
  1
\A1;Rockzero{\H0.42x;\S® ^ ;} Daksystemen en gevelisolatie
  7
ARIAL
 73
     1
 44
1.0
  0
MTEXT
  5
2C6
330
1F
100
AcDbEntity
  8
AANHAALLIJN
  6
Continuous
 62
    30
370
    13
100
AcDbMText
 10
60.00000000000411
 20
1126.895325456815
 30
0.0
 40
12.5
 41
334.4121544593672
 46
0.0
 71
     1
 72
     5
  1
{\fArial|b1|i0|c0|p34;\Lopbouw Rockzero Daksystemen\l\P}PV panelen\Ppanlat 22x38 mm \Pwaterwerende, dampdoorlatende laag\P{\fArial|b1|i0|c0|p34;ROCKWOOL drukvaste toplaag 60 mm*\PROCKWOOL isolatieplaat 220 mm}\Pbinnenbeplating 11 mm
  7
Trebuchet MS
 73
     1
 44
0.783132530120482
  0
MTEXT
  5
2C7
330
1F
100
AcDbEntity
  8
AANHAALLIJN
  6
Continuous
 62
     5
370
    13
100
AcDbMText
 10
74.07536362500195
 20
120.0000000000036
 30
0.0
 40
7.5
 41
182.2440972984845
 46
0.0
 71
     1
 72
     5
  1
* afhankelijk van de dikte van\Pde toplaag, kan de Rc-waarde\Pverhoogd worden naar 8 of 9\P**λreken ≤ 0,033 W/(m.K)\P***λreken ≤ 0,037 W/(m.K)
  7
Trebuchet MS
 73
     1
 44
0.7831325301204821
  0
MTEXT
  5
2C8
330
1F
100
AcDbEntity
  8
AANHAALLIJN
  6
Continuous
 62
    30
100
AcDbMText
 10
59.99999999999637
 20
415.4953254568052
 30
0.0
 40
12.5
 41
307.2494386454666
 46
0.0
 71
     1
 72
     5
  1
{\Lwandopbouw}\Pi.h.w. gestorte topwand\Pstijlen 38x140 mm\P{\fArial|b1|i0|c0|p34;RockSono Base***\PRockfit Premium**}\Pwaterwerende, dampdoorlatende laag\Pregelwerk 28mm\PEPDM voegband per stijl\P{\fArial|b1|i0|c0|p34;Rockpanel 8 mm gevelbekleding}
  7
Trebuchet MS
 73
     1
 44
0.783132530120482
  0
ENDSEC
  0
SECTION
  2
OBJECTS
  0
DICTIONARY
  5
C
330
0
100
AcDbDictionary
281
     1
  3
ACAD_CIP_PREVIOUS_PRODUCT_INFO
350
2EB
  3
ACAD_COLOR
350
2DA
  3
ACAD_DETAILVIEWSTYLE
350
2DF
  3
ACAD_GROUP
350
D
  3
ACAD_LAYOUT
350
1A
  3
ACAD_MATERIAL
350
3B
  3
ACAD_MLEADERSTYLE
350
2CE
  3
ACAD_MLINESTYLE
350
17
  3
ACAD_PLOTSETTINGS
350
19
  3
ACAD_PLOTSTYLENAME
350
E
  3
ACAD_SCALELIST
350
84
  3
ACAD_SECTIONVIEWSTYLE
350
2DD
  3
ACAD_TABLESTYLE
350
2CD
  3
ACAD_VISUALSTYLE
350
2A
  3
ACDB_RECOMPOSE_DATA
350
3D3
  3
AcDbVariableDictionary
350
2CB
  3
AcDsDecomposeData
350
3D9
  0
DICTIONARY
  5
330
330
2
100
AcDbDictionary
280
     1
281
     1
  3
ACAD_LAYERSTATES
360
331
  0
DICTIONARY
  5
2C9
330
1F
100
AcDbDictionary
280
     1
281
     1
  3
ACAD_SORTENTS
360
2CA
  0
XRECORD
  5
2EB
102
{ACAD_REACTORS
330
C
102
}
330
C
100
AcDbXrecord
280
     1
300
ACDLT
300
2019
300

  0
DICTIONARY
  5
2DA
102
{ACAD_REACTORS
330
C
102
}
330
C
100
AcDbDictionary
281
     1
  0
DICTIONARY
  5
2DF
102
{ACAD_REACTORS
330
C
102
}
330
C
100
AcDbDictionary
281
     1
  3
Metric50
350
2E0
  0
DICTIONARY
  5
D
102
{ACAD_REACTORS
330
C
102
}
330
C
100
AcDbDictionary
281
     1
  0
DICTIONARY
  5
1A
102
{ACAD_REACTORS
330
C
102
}
330
C
100
AcDbDictionary
281
     1
  3
Layout1
350
1E
  3
Layout2
350
26
  3
Model
350
22
  0
DICTIONARY
  5
3B
102
{ACAD_REACTORS
330
C
102
}
330
C
100
AcDbDictionary
281
     1
  3
ByBlock
350
3D
  3
ByLayer
350
3C
  3
Global
350
3E
  0
DICTIONARY
  5
2CE
102
{ACAD_REACTORS
330
C
102
}
330
C
100
AcDbDictionary
281
     1
  3
Standard
350
2DC
  0
DICTIONARY
  5
17
102
{ACAD_REACTORS
330
C
102
}
330
C
100
AcDbDictionary
281
     1
  3
Standard
350
18
  0
DICTIONARY
  5
19
102
{ACAD_REACTORS
330
C
102
}
330
C
100
AcDbDictionary
281
     1
  0
ACDBDICTIONARYWDFLT
  5
E
102
{ACAD_REACTORS
330
C
102
}
330
C
100
AcDbDictionary
281
     1
  3
Normal
350
F
100
AcDbDictionaryWithDefault
340
F
  0
DICTIONARY
  5
84
102
{ACAD_REACTORS
330
C
102
}
330
C
100
AcDbDictionary
281
     1
  3
A0
350
85
  3
A1
350
86
  3
A2
350
87
  3
A3
350
88
  3
A4
350
89
  3
A5
350
8A
  3
A6
350
8B
  3
A7
350
8C
  3
A8
350
8D
  3
A9
350
8E
  3
B0
350
8F
  3
B1
350
90
  3
B2
350
91
  3
B3
350
92
  3
B4
350
93
  3
B5
350
94
  3
B6
350
95
  3
B7
350
96
  3
B8
350
97
  3
B9
350
98
  3
C0
350
99
  3
C1
350
9A
  3
C2
350
9B
  3
C3
350
9C
  3
C4
350
9D
  3
C5
350
9E
  3
C6
350
9F
  3
C7
350
A0
  3
C8
350
A1
  3
C9
350
A2
  3
D0
350
A3
  3
D1
350
A4
  3
D2
350
A5
  0
DICTIONARY
  5
2DD
102
{ACAD_REACTORS
330
C
102
}
330
C
100
AcDbDictionary
281
     1
  3
Metric50
350
2DE
  0
DICTIONARY
  5
2CD
102
{ACAD_REACTORS
330
C
102
}
330
C
100
AcDbDictionary
281
     1
  3
Standard
350
2DB
  0
DICTIONARY
  5
2A
102
{ACAD_REACTORS
330
C
102
}
330
C
100
AcDbDictionary
281
     1
  3
2dWireframe
350
2F
  3
3D Hidden
350
31
  3
3dWireframe
350
30
  3
Basic
350
32
  3
Brighten
350
36
  3
ColorChange
350
3A
  3
Conceptual
350
34
  3
Dim
350
35
  3
EdgeColorOff
350
2D9
  3
Facepattern
350
39
  3
Flat
350
2B
  3
FlatWithEdges
350
2C
  3
Gouraud
350
2D
  3
GouraudWithEdges
350
2E
  3
Hidden
350
2D1
  3
JitterOff
350
2D7
  3
Linepattern
350
38
  3
OverhangOff
350
2D8
  3
Realistic
350
33
  3
Shaded
350
2D6
  3
Shaded with edges
350
2D5
  3
Shades of Gray
350
2D2
  3
Sketchy
350
2D3
  3
Thicken
350
37
  3
Wireframe
350
2D0
  3
X-Ray
350
2D4
  0
XRECORD
  5
3D3
102
{ACAD_REACTORS
330
C
102
}
330
C
100
AcDbXrecord
280
     1
 90
        1
330
2DB
  0
DICTIONARY
  5
2CB
102
{ACAD_REACTORS
330
C
102
}
330
C
100
AcDbDictionary
281
     1
  3
CANNOSCALE
350
2CC
  3
CMLEADERSTYLE
350
3CE
  3
CTABLESTYLE
350
3CD
  3
CVIEWDETAILSTYLE
350
3CF
  3
CVIEWSECTIONSTYLE
350
3D0
  0
DICTIONARY
  5
3D9
102
{ACAD_REACTORS
330
C
102
}
330
C
100
AcDbDictionary
281
     1
  3
AcDsRecords
350
3DB
  3
AcDsSchemas
350
3DA
1001
ACAD
1070
     2
  0
DICTIONARY
  5
331
102
{ACAD_REACTORS
330
330
102
}
330
330
100
AcDbDictionary
281
     1
  0
SORTENTSTABLE
  5
2CA
102
{ACAD_REACTORS
330
2C9
102
}
330
2C9
100
AcDbSortentsTable
330
1F
331
70
  5
79
331
71
  5
7A
331
72
  5
7B
331
74
  5
70
331
75
  5
7C
331
76
  5
7D
331
77
  5
7E
331
78
  5
7F
331
79
  5
80
331
7A
  5
81
331
7B
  5
82
331
7C
  5
83
331
7D
  5
A6
331
7E
  5
A7
331
7F
  5
A8
331
80
  5
A9
331
81
  5
B1
331
82
  5
B2
331
83
  5
B3
331
A6
  5
B4
331
A7
  5
B5
331
A8
  5
71
331
A9
  5
B6
331
B1
  5
B7
331
B2
  5
B8
331
B3
  5
B9
331
B4
  5
BA
331
B5
  5
BB
331
B6
  5
BC
331
B7
  5
BD
331
B8
  5
BE
331
B9
  5
BF
331
BA
  5
72
331
BB
  5
C0
331
BC
  5
C1
331
BD
  5
C2
331
BE
  5
C3
331
BF
  5
C4
331
C0
  5
C5
331
C1
  5
C6
331
C2
  5
C7
331
C3
  5
C8
331
C4
  5
C9
331
C5
  5
CA
331
C6
  5
CB
331
C7
  5
CC
331
C8
  5
CD
331
C9
  5
CE
331
CA
  5
CF
331
CB
  5
E2
331
CC
  5
EE
331
CD
  5
F9
331
CE
  5
104
331
CF
  5
110
331
E2
  5
11B
331
EE
  5
123
331
F9
  5
124
331
104
  5
125
331
110
  5
126
331
11B
  5
127
331
123
  5
128
331
124
  5
129
331
125
  5
12A
331
126
  5
12B
331
127
  5
12C
331
128
  5
12D
331
129
  5
12E
331
12A
  5
12F
331
12B
  5
130
331
12C
  5
131
331
12D
  5
132
331
12E
  5
133
331
12F
  5
134
331
130
  5
135
331
131
  5
74
331
132
  5
136
331
133
  5
137
331
134
  5
138
331
135
  5
139
331
136
  5
187
331
137
  5
1D5
331
138
  5
1D6
331
139
  5
1D7
331
187
  5
1D8
331
1D5
  5
1D9
331
1D6
  5
1DA
331
1D7
  5
1DB
331
1D8
  5
1DC
331
1D9
  5
1DD
331
1DA
  5
1DE
331
1DB
  5
1DF
331
1DC
  5
1E0
331
1DD
  5
1E1
331
1DE
  5
1E2
331
1DF
  5
1E3
331
1E0
  5
1E4
331
1E1
  5
1E5
331
1E2
  5
1E6
331
1E3
  5
1E7
331
1E4
  5
1E8
331
1E5
  5
1E9
331
1E6
  5
1EA
331
1E7
  5
1EB
331
1E8
  5
1EC
331
1E9
  5
1F9
331
1EA
  5
206
331
1EB
  5
207
331
1EC
  5
208
331
1F9
  5
209
331
206
  5
20A
331
207
  5
20B
331
208
  5
20C
331
209
  5
20D
331
20A
  5
20E
331
20B
  5
20F
331
20C
  5
210
331
20D
  5
211
331
20E
  5
212
331
20F
  5
213
331
210
  5
214
331
211
  5
2A4
331
212
  5
2A5
331
213
  5
2A6
331
214
  5
75
331
2A4
  5
2A7
331
2A5
  5
2A8
331
2A6
  5
2A9
331
2A7
  5
2AA
331
2A8
  5
2AB
331
2A9
  5
2AC
331
2AA
  5
2AD
331
2AB
  5
2AE
331
2AC
  5
2AF
331
2AD
  5
2B0
331
2AE
  5
2B1
331
2AF
  5
2B2
331
2B0
  5
2B3
331
2B1
  5
2B4
331
2B2
  5
2B5
331
2B3
  5
2B6
331
2B4
  5
2B7
331
2B5
  5
2B8
331
2B6
  5
2B9
331
2B7
  5
76
331
2B8
  5
2BA
331
2B9
  5
2BB
331
2BA
  5
2BC
331
2BB
  5
77
331
2BC
  5
2BD
331
2BD
  5
2BE
331
2BE
  5
2BF
331
2BF
  5
2C0
331
2C0
  5
2C1
331
2C1
  5
2C2
331
2C2
  5
2C3
331
2C3
  5
2C4
331
2C4
  5
78
  0
ACDBDETAILVIEWSTYLE
  5
2E0
102
{ACAD_XDICTIONARY
360
414
102
}
102
{ACAD_REACTORS
330
2DF
102
}
330
2DF
100
AcDbModelDocViewStyle
 70
     0
  3
Metric50
290
     0
100
AcDbDetailViewStyle
 70
     0
 71
     0
 90
        3
 71
     1
340
11
 62
   256
 40
5.0
340
0
 62
   256
 40
5.0
300

 40
0.0
280
     1
 71
     2
340
16
 90
       25
 62
   256
 71
     3
340
11
 62
   256
 40
5.0
 90
        0
 40
15.0
 90
        1
300
%<\AcVar ViewDetailId>% (%<\AcVar ViewScale \f "%sn">%)
 71
     4
340
16
 90
       25
 62
   256
340
16
 90
       25
 62
   256
280
     0
  0
LAYOUT
  5
1E
102
{ACAD_REACTORS
330
1A
102
}
330
1A
100
AcDbPlotSettings
  1

  2
none_device
  4
none_user_media
  6

 40
6.349999999999999
 41
19.05
 42
6.349974599999999
 43
19.0499873
 44
1500.000000000001
 45
1064.999999999996
 46
7.5
 47
7.5
 48
0.0
 49
0.0
140
0.0
141
0.0
142
1.0
143
1.0
 70
   688
 72
     1
 73
     0
 74
     5
  7

 75
    16
147
1.0
 76
     0
 77
     2
 78
   300
148
0.0
149
0.0
100
AcDbLayout
  1
Layout1
 70
     1
 71
     1
 10
0.0
 20
0.0
 11
12.0
 21
9.0
 12
0.0
 22
0.0
 32
0.0
 14
1.000000000000000E+20
 24
1.000000000000000E+20
 34
1.000000000000000E+20
 15
-1.000000000000000E+20
 25
-1.000000000000000E+20
 35
-1.000000000000000E+20
146
0.0
 13
0.0
 23
0.0
 33
0.0
 16
1.0
 26
0.0
 36
0.0
 17
0.0
 27
1.0
 37
0.0
 76
     0
330
1B
  0
LAYOUT
  5
26
102
{ACAD_REACTORS
330
1A
102
}
330
1A
100
AcDbPlotSettings
  1

  2
none_device
  4

  6

 40
0.0
 41
0.0
 42
0.0
 43
0.0
 44
0.0
 45
0.0
 46
0.0
 47
0.0
 48
0.0
 49
0.0
140
0.0
141
0.0
142
1.0
143
1.0
 70
   688
 72
     0
 73
     0
 74
     5
  7

 75
    16
147
1.0
 76
     0
 77
     2
 78
   300
148
0.0
149
0.0
100
AcDbLayout
  1
Layout2
 70
     1
 71
     2
 10
0.0
 20
0.0
 11
0.0
 21
0.0
 12
0.0
 22
0.0
 32
0.0
 14
0.0
 24
0.0
 34
0.0
 15
0.0
 25
0.0
 35
0.0
146
0.0
 13
0.0
 23
0.0
 33
0.0
 16
1.0
 26
0.0
 36
0.0
 17
0.0
 27
1.0
 37
0.0
 76
     0
330
23
  0
LAYOUT
  5
22
102
{ACAD_REACTORS
330
1A
102
}
330
1A
100
AcDbPlotSettings
  1

  2
none_device
  4

  6

 40
0.0
 41
0.0
 42
0.0
 43
0.0
 44
0.0
 45
0.0
 46
0.0
 47
0.0
 48
0.0
 49
0.0
140
0.0
141
0.0
142
1.0
143
1.0
 70
  1712
 72
     0
 73
     0
 74
     0
  7

 75
     0
147
1.0
 76
     0
 77
     2
 78
   300
148
0.0
149
0.0
100
AcDbLayout
  1
Model
 70
     1
 71
     0
 10
0.0
 20
0.0
 11
1049.999999999996
 21
1485.000000000002
 12
0.0
 22
0.0
 32
0.0
 14
0.0
 24
0.0
 34
0.0
 15
1049.999999999996
 25
1485.000000000002
 35
1049.999999999996
146
0.0
 13
0.0
 23
0.0
 33
0.0
 16
1.0
 26
0.0
 36
0.0
 17
0.0
 27
1.0
 37
0.0
 76
     0
330
1F
331
29
  0
MATERIAL
  5
3D
102
{ACAD_REACTORS
330
3B
102
}
330
3B
100
AcDbMaterial
  1
ByBlock
 73
     1
 78
     1
172
     1
176
     1
270
     1
274
     1
  0
MATERIAL
  5
3C
102
{ACAD_REACTORS
330
3B
102
}
330
3B
100
AcDbMaterial
  1
ByLayer
 73
     1
 78
     1
172
     1
176
     1
270
     1
274
     1
  0
MATERIAL
  5
3E
102
{ACAD_REACTORS
330
3B
102
}
330
3B
100
AcDbMaterial
  1
Global
 73
     1
 78
     1
172
     1
176
     1
270
     1
274
     1
  0
MLEADERSTYLE
  5
2DC
102
{ACAD_XDICTIONARY
360
410
102
}
102
{ACAD_REACTORS
330
2CE
102
}
330
2CE
100
AcDbMLeaderStyle
179
     2
170
     2
171
     1
172
     0
 90
        2
 40
0.0
 41
0.0
173
     1
 91
-1056964608
340
14
 92
       -2
290
     1
 42
2.0
291
     1
 43
0.36
  3
Standard
 44
4.0
300

342
11
174
     1
178
     6
175
     1
176
     0
 93
-1056964608
 45
4.0
292
     0
297
     0
 46
4.0
 94
-1056964608
 47
1.0
 49
1.0
140
1.0
293
     1
141
0.0
294
     1
177
     0
142
1.0
295
     0
296
     0
143
0.125
271
     0
272
     9
273
     9
  0
MLINESTYLE
  5
18
102
{ACAD_REACTORS
330
17
102
}
330
17
100
AcDbMlineStyle
  2
STANDARD
 70
     0
  3

 62
   256
 51
90.0
 52
90.0
 71
     2
 49
0.5
 62
   256
  6
BYLAYER
 49
-0.5
 62
   256
  6
BYLAYER
  0
ACDBPLACEHOLDER
  5
F
102
{ACAD_REACTORS
330
E
102
}
330
E
  0
SCALE
  5
85
102
{ACAD_REACTORS
330
84
102
}
330
84
100
AcDbScale
 70
     0
300
1:1
140
1.0
141
1.0
290
     1
  0
SCALE
  5
86
102
{ACAD_REACTORS
330
84
102
}
330
84
100
AcDbScale
 70
     0
300
1:2
140
1.0
141
2.0
290
     0
  0
SCALE
  5
87
102
{ACAD_REACTORS
330
84
102
}
330
84
100
AcDbScale
 70
     0
300
1:4
140
1.0
141
4.0
290
     0
  0
SCALE
  5
88
102
{ACAD_REACTORS
330
84
102
}
330
84
100
AcDbScale
 70
     0
300
1:5
140
1.0
141
5.0
290
     0
  0
SCALE
  5
89
102
{ACAD_REACTORS
330
84
102
}
330
84
100
AcDbScale
 70
     0
300
1:8
140
1.0
141
8.0
290
     0
  0
SCALE
  5
8A
102
{ACAD_REACTORS
330
84
102
}
330
84
100
AcDbScale
 70
     0
300
1:10
140
1.0
141
10.0
290
     0
  0
SCALE
  5
8B
102
{ACAD_REACTORS
330
84
102
}
330
84
100
AcDbScale
 70
     0
300
1:16
140
1.0
141
16.0
290
     0
  0
SCALE
  5
8C
102
{ACAD_REACTORS
330
84
102
}
330
84
100
AcDbScale
 70
     0
300
1:20
140
1.0
141
20.0
290
     0
  0
SCALE
  5
8D
102
{ACAD_REACTORS
330
84
102
}
330
84
100
AcDbScale
 70
     0
300
1:30
140
1.0
141
30.0
290
     0
  0
SCALE
  5
8E
102
{ACAD_REACTORS
330
84
102
}
330
84
100
AcDbScale
 70
     0
300
1:40
140
1.0
141
40.0
290
     0
  0
SCALE
  5
8F
102
{ACAD_REACTORS
330
84
102
}
330
84
100
AcDbScale
 70
     0
300
1:50
140
1.0
141
50.0
290
     0
  0
SCALE
  5
90
102
{ACAD_REACTORS
330
84
102
}
330
84
100
AcDbScale
 70
     0
300
1:100
140
1.0
141
100.0
290
     0
  0
SCALE
  5
91
102
{ACAD_REACTORS
330
84
102
}
330
84
100
AcDbScale
 70
     0
300
2:1
140
2.0
141
1.0
290
     0
  0
SCALE
  5
92
102
{ACAD_REACTORS
330
84
102
}
330
84
100
AcDbScale
 70
     0
300
4:1
140
4.0
141
1.0
290
     0
  0
SCALE
  5
93
102
{ACAD_REACTORS
330
84
102
}
330
84
100
AcDbScale
 70
     0
300
8:1
140
8.0
141
1.0
290
     0
  0
SCALE
  5
94
102
{ACAD_REACTORS
330
84
102
}
330
84
100
AcDbScale
 70
     0
300
10:1
140
10.0
141
1.0
290
     0
  0
SCALE
  5
95
102
{ACAD_REACTORS
330
84
102
}
330
84
100
AcDbScale
 70
     0
300
100:1
140
100.0
141
1.0
290
     0
  0
SCALE
  5
96
102
{ACAD_REACTORS
330
84
102
}
330
84
100
AcDbScale
 70
     0
300
1/128" = 1'-0"
140
0.0078125
141
12.0
290
     0
  0
SCALE
  5
97
102
{ACAD_REACTORS
330
84
102
}
330
84
100
AcDbScale
 70
     0
300
1/64" = 1'-0"
140
0.015625
141
12.0
290
     0
  0
SCALE
  5
98
102
{ACAD_REACTORS
330
84
102
}
330
84
100
AcDbScale
 70
     0
300
1/32" = 1'-0"
140
0.03125
141
12.0
290
     0
  0
SCALE
  5
99
102
{ACAD_REACTORS
330
84
102
}
330
84
100
AcDbScale
 70
     0
300
1/16" = 1'-0"
140
0.0625
141
12.0
290
     0
  0
SCALE
  5
9A
102
{ACAD_REACTORS
330
84
102
}
330
84
100
AcDbScale
 70
     0
300
3/32" = 1'-0"
140
0.09375
141
12.0
290
     0
  0
SCALE
  5
9B
102
{ACAD_REACTORS
330
84
102
}
330
84
100
AcDbScale
 70
     0
300
1/8" = 1'-0"
140
0.125
141
12.0
290
     0
  0
SCALE
  5
9C
102
{ACAD_REACTORS
330
84
102
}
330
84
100
AcDbScale
 70
     0
300
3/16" = 1'-0"
140
0.1875
141
12.0
290
     0
  0
SCALE
  5
9D
102
{ACAD_REACTORS
330
84
102
}
330
84
100
AcDbScale
 70
     0
300
1/4" = 1'-0"
140
0.25
141
12.0
290
     0
  0
SCALE
  5
9E
102
{ACAD_REACTORS
330
84
102
}
330
84
100
AcDbScale
 70
     0
300
3/8" = 1'-0"
140
0.375
141
12.0
290
     0
  0
SCALE
  5
9F
102
{ACAD_REACTORS
330
84
102
}
330
84
100
AcDbScale
 70
     0
300
1/2" = 1'-0"
140
0.5
141
12.0
290
     0
  0
SCALE
  5
A0
102
{ACAD_REACTORS
330
84
102
}
330
84
100
AcDbScale
 70
     0
300
3/4" = 1'-0"
140
0.75
141
12.0
290
     0
  0
SCALE
  5
A1
102
{ACAD_REACTORS
330
84
102
}
330
84
100
AcDbScale
 70
     0
300
1" = 1'-0"
140
1.0
141
12.0
290
     0
  0
SCALE
  5
A2
102
{ACAD_REACTORS
330
84
102
}
330
84
100
AcDbScale
 70
     0
300
1-1/2" = 1'-0"
140
1.5
141
12.0
290
     0
  0
SCALE
  5
A3
102
{ACAD_REACTORS
330
84
102
}
330
84
100
AcDbScale
 70
     0
300
3" = 1'-0"
140
3.0
141
12.0
290
     0
  0
SCALE
  5
A4
102
{ACAD_REACTORS
330
84
102
}
330
84
100
AcDbScale
 70
     0
300
6" = 1'-0"
140
6.0
141
12.0
290
     0
  0
SCALE
  5
A5
102
{ACAD_REACTORS
330
84
102
}
330
84
100
AcDbScale
 70
     0
300
1'-0" = 1'-0"
140
12.0
141
12.0
290
     0
  0
ACDBSECTIONVIEWSTYLE
  5
2DE
102
{ACAD_XDICTIONARY
360
412
102
}
102
{ACAD_REACTORS
330
2DD
102
}
330
2DD
100
AcDbModelDocViewStyle
 70
     0
  3
Metric50
290
     0
100
AcDbSectionViewStyle
 70
     0
 71
     0
 90
      102
 71
     1
340
11
 62
   256
 40
5.0
340
0
340
0
 62
   256
 40
5.0
300
I, O, Q, S, X, Z
 40
10.0
 90
        0
 40
2.5
 90
        0
 71
     2
340
16
 90
       25
 62
   256
340
16
 90
       50
 62
   256
 40
5.0
 40
2.5
 40
5.0
 71
     3
340
11
 62
   256
 40
5.0
 90
        0
 40
15.0
 90
        1
300
%<\AcVar ViewSectionStartId>%-%<\AcVar ViewSectionEndId>% (%<\AcVar ViewScale \f "%sn">%)
 71
     4
 62
   256
 62
   257
300
ANSI31
 40
1.0
 90
        0
290
     0
290
     0
 90
        6
 40
0.0
 40
1.570796326794896
 40
0.2617993877991494
 40
1.308996938995747
 40
-0.2617993877991494
 40
1.832595714594046
  0
TABLESTYLE
  5
2DB
102
{ACAD_XDICTIONARY
360
3D1
102
}
102
{ACAD_REACTORS
330
2CD
102
}
330
2CD
100
AcDbTableStyle
280
     0
  3
Standard
 70
     0
 71
     0
 40
1.5
 41
1.5
280
     0
281
     0
  7
Standard
140
4.5
170
     2
 62
     0
 63
     7
283
     0
 90
      512
 91
        0
  1

274
    -2
284
     1
 64
     0
275
    -2
285
     1
 65
     0
276
    -2
286
     1
 66
     0
277
    -2
287
     1
 67
     0
278
    -2
288
     1
 68
     0
279
    -2
289
     1
 69
     0
  7
Standard
140
6.0
170
     5
 62
     0
 63
     7
283
     0
 90
      512
 91
        0
  1

274
    -2
284
     1
 64
     0
275
    -2
285
     1
 65
     0
276
    -2
286
     1
 66
     0
277
    -2
287
     1
 67
     0
278
    -2
288
     1
 68
     0
279
    -2
289
     1
 69
     0
  7
Standard
140
4.5
170
     5
 62
     0
 63
     7
283
     0
 90
      512
 91
        0
  1

274
    -2
284
     1
 64
     0
275
    -2
285
     1
 65
     0
276
    -2
286
     1
 66
     0
277
    -2
287
     1
 67
     0
278
    -2
288
     1
 68
     0
279
    -2
289
     1
 69
     0
  0
VISUALSTYLE
  5
2F
102
{ACAD_XDICTIONARY
360
3E4
102
}
102
{ACAD_REACTORS
330
2A
102
}
330
2A
100
AcDbVisualStyle
  2
2dWireframe
 70
     4
177
     2
291
     0
 71
     0
176
     1
 72
     2
176
     1
 73
     0
176
     1
 90
        0
176
     1
 40
0.6
176
     1
 41
30.0
176
     1
 63
     7
421
 16777215
176
     1
 74
     1
176
     1
 91
        4
176
     1
 64
     7
176
     1
 65
   257
176
     1
 75
     1
176
     1
175
     1
176
     1
 42
1.0
176
     1
 92
        0
176
     1
 66
   257
176
     1
 43
1.0
176
     1
 76
     1
176
     1
 77
     6
176
     1
 78
     2
176
     1
 67
     7
176
     1
 79
     5
176
     1
170
     0
176
     1
171
     0
176
     1
290
     0
176
     1
 93
        1
176
     1
 44
0.0
176
     1
173
     0
176
     1
1001
ACAD
1000
AcDbSavedByObjectVersion
1070
     0
  0
VISUALSTYLE
  5
31
102
{ACAD_XDICTIONARY
360
3E8
102
}
102
{ACAD_REACTORS
330
2A
102
}
330
2A
100
AcDbVisualStyle
  2
3D Hidden
 70
     6
177
     2
291
     0
 71
     1
176
     1
 72
     2
176
     1
 73
     2
176
     1
 90
        0
176
     1
 40
0.6
176
     1
 41
30.0
176
     1
 63
     7
421
 16777215
176
     1
 74
     2
176
     1
 91
        2
176
     1
 64
     7
176
     1
 65
   257
176
     1
 75
     2
176
     1
175
     1
176
     1
 42
40.0
176
     1
 92
        0
176
     1
 66
   257
176
     1
 43
1.0
176
     1
 76
     1
176
     1
 77
     6
176
     1
 78
     2
176
     1
 67
     7
176
     1
 79
     3
176
     1
170
     0
176
     1
171
     0
176
     1
290
     0
176
     1
 93
        1
176
     1
 44
0.0
176
     1
173
     0
176
     1
1001
ACAD
1000
AcDbSavedByObjectVersion
1070
     0
  0
VISUALSTYLE
  5
30
102
{ACAD_XDICTIONARY
360
3E6
102
}
102
{ACAD_REACTORS
330
2A
102
}
330
2A
100
AcDbVisualStyle
  2
3dWireframe
 70
     5
177
     2
291
     0
 71
     0
176
     1
 72
     2
176
     1
 73
     0
176
     1
 90
        0
176
     1
 40
0.6
176
     1
 41
30.0
176
     1
 63
     7
421
 16777215
176
     1
 74
     1
176
     1
 91
        4
176
     1
 64
     7
176
     1
 65
   257
176
     1
 75
     1
176
     1
175
     1
176
     1
 42
1.0
176
     1
 92
        0
176
     1
 66
   257
176
     1
 43
1.0
176
     1
 76
     1
176
     1
 77
     6
176
     1
 78
     2
176
     1
 67
     7
176
     1
 79
     5
176
     1
170
     0
176
     1
171
     0
176
     1
290
     0
176
     1
 93
        1
176
     1
 44
0.0
176
     1
173
     0
176
     1
1001
ACAD
1000
AcDbSavedByObjectVersion
1070
     0
  0
VISUALSTYLE
  5
32
102
{ACAD_XDICTIONARY
360
3EA
102
}
102
{ACAD_REACTORS
330
2A
102
}
330
2A
100
AcDbVisualStyle
  2
Basic
 70
     7
177
     2
291
     1
 71
     1
176
     1
 72
     0
176
     1
 73
     1
176
     1
 90
        0
176
     1
 40
0.6
176
     1
 41
30.0
176
     1
 63
     7
421
 16777215
176
     1
 74
     0
176
     1
 91
        4
176
     1
 64
     7
176
     1
 65
   257
176
     1
 75
     1
176
     1
175
     1
176
     1
 42
1.0
176
     1
 92
        8
176
     1
 66
     7
176
     1
 43
1.0
176
     1
 76
     1
176
     1
 77
     6
176
     1
 78
     2
176
     1
 67
     7
176
     1
 79
     5
176
     1
170
     0
176
     1
171
     0
176
     1
290
     0
176
     1
 93
        1
176
     1
 44
0.0
176
     1
173
     0
176
     1
1001
ACAD
1000
AcDbSavedByObjectVersion
1070
     0
  0
VISUALSTYLE
  5
36
102
{ACAD_XDICTIONARY
360
3F2
102
}
102
{ACAD_REACTORS
330
2A
102
}
330
2A
100
AcDbVisualStyle
  2
Brighten
 70
    12
177
     2
291
     1
 71
     2
176
     1
 72
     2
176
     1
 73
     0
176
     1
 90
        0
176
     1
 40
0.6
176
     1
 41
30.0
176
     1
 63
     7
421
 16777215
176
     1
 74
     1
176
     1
 91
        4
176
     1
 64
     7
176
     1
 65
   257
176
     1
 75
     1
176
     1
175
     1
176
     1
 42
1.0
176
     1
 92
        8
176
     1
 66
     7
176
     1
 43
1.0
176
     1
 76
     1
176
     1
 77
     6
176
     1
 78
     2
176
     1
 67
     7
176
     1
 79
     5
176
     1
170
     0
176
     1
171
     0
176
     1
290
     0
176
     1
 93
        1
176
     1
 44
50.0
176
     1
173
     0
176
     1
1001
ACAD
1000
AcDbSavedByObjectVersion
1070
     0
  0
VISUALSTYLE
  5
3A
102
{ACAD_XDICTIONARY
360
3FA
102
}
102
{ACAD_REACTORS
330
2A
102
}
330
2A
100
AcDbVisualStyle
  2
ColorChange
 70
    16
177
     2
291
     1
 71
     2
176
     1
 72
     2
176
     1
 73
     3
176
     1
 90
        0
176
     1
 40
0.6
176
     1
 41
30.0
176
     1
 63
     8
421
  8421504
176
     1
 74
     1
176
     1
 91
        4
176
     1
 64
     7
176
     1
 65
   257
176
     1
 75
     1
176
     1
175
     1
176
     1
 42
1.0
176
     1
 92
        8
176
     1
 66
     8
424
  8421504
176
     1
 43
1.0
176
     1
 76
     1
176
     1
 77
     6
176
     1
 78
     2
176
     1
 67
     7
176
     1
 79
     5
176
     1
170
     0
176
     1
171
     0
176
     1
290
     0
176
     1
 93
        1
176
     1
 44
0.0
176
     1
173
     0
176
     1
1001
ACAD
1000
AcDbSavedByObjectVersion
1070
     0
  0
VISUALSTYLE
  5
34
102
{ACAD_XDICTIONARY
360
3EE
102
}
102
{ACAD_REACTORS
330
2A
102
}
330
2A
100
AcDbVisualStyle
  2
Conceptual
 70
     9
177
     2
291
     0
 71
     3
176
     1
 72
     2
176
     1
 73
     0
176
     1
 90
        0
176
     1
 40
0.6
176
     1
 41
30.0
176
     1
 63
     7
421
 16777215
176
     1
 74
     2
176
     1
 91
        2
176
     1
 64
     7
176
     1
 65
   257
176
     1
 75
     1
176
     1
175
     1
176
     1
 42
40.0
176
     1
 92
        8
176
     1
 66
     7
176
     1
 43
1.0
176
     1
 76
     1
176
     1
 77
     6
176
     1
 78
     2
176
     1
 67
     7
176
     1
 79
     3
176
     1
170
     0
176
     1
171
     0
176
     1
290
     0
176
     1
 93
        1
176
     1
 44
0.0
176
     1
173
     0
176
     1
1001
ACAD
1000
AcDbSavedByObjectVersion
1070
     0
  0
VISUALSTYLE
  5
35
102
{ACAD_XDICTIONARY
360
3F0
102
}
102
{ACAD_REACTORS
330
2A
102
}
330
2A
100
AcDbVisualStyle
  2
Dim
 70
    11
177
     2
291
     1
 71
     2
176
     1
 72
     2
176
     1
 73
     0
176
     1
 90
        0
176
     1
 40
0.6
176
     1
 41
30.0
176
     1
 63
     7
421
 16777215
176
     1
 74
     1
176
     1
 91
        4
176
     1
 64
     7
176
     1
 65
   257
176
     1
 75
     1
176
     1
175
     1
176
     1
 42
1.0
176
     1
 92
        8
176
     1
 66
     7
176
     1
 43
1.0
176
     1
 76
     1
176
     1
 77
     6
176
     1
 78
     2
176
     1
 67
     7
176
     1
 79
     5
176
     1
170
     0
176
     1
171
     0
176
     1
290
     0
176
     1
 93
        1
176
     1
 44
-50.0
176
     1
173
     0
176
     1
1001
ACAD
1000
AcDbSavedByObjectVersion
1070
     0
  0
VISUALSTYLE
  5
2D9
102
{ACAD_XDICTIONARY
360
40E
102
}
102
{ACAD_REACTORS
330
2A
102
}
330
2A
100
AcDbVisualStyle
  2
EdgeColorOff
 70
    22
177
     2
291
     1
 71
     2
176
     0
 72
     2
176
     0
 73
     0
176
     0
 90
        0
176
     0
 40
0.6
176
     0
 41
30.0
176
     0
 63
     7
421
 16777215
176
     0
 74
     1
176
     0
 91
        4
176
     0
 64
     7
176
     0
 65
   257
176
     0
 75
     1
176
     0
175
     1
176
     0
 42
1.0
176
     0
 92
        8
176
     2
 66
     7
176
     0
 43
1.0
176
     0
 76
     1
176
     0
 77
     6
176
     0
 78
     2
176
     0
 67
     7
176
     0
 79
     5
176
     0
170
     0
176
     0
171
     0
176
     0
290
     0
176
     0
 93
        1
176
     0
 44
0.0
176
     0
173
     0
176
     0
1001
ACAD
1000
AcDbSavedByObjectVersion
1070
     0
  0
VISUALSTYLE
  5
39
102
{ACAD_XDICTIONARY
360
3F8
102
}
102
{ACAD_REACTORS
330
2A
102
}
330
2A
100
AcDbVisualStyle
  2
Facepattern
 70
    15
177
     2
291
     1
 71
     2
176
     1
 72
     2
176
     1
 73
     0
176
     1
 90
        0
176
     1
 40
0.6
176
     1
 41
30.0
176
     1
 63
     7
421
 16777215
176
     1
 74
     1
176
     1
 91
        4
176
     1
 64
     7
176
     1
 65
   257
176
     1
 75
     1
176
     1
175
     1
176
     1
 42
1.0
176
     1
 92
        8
176
     1
 66
     7
176
     1
 43
1.0
176
     1
 76
     1
176
     1
 77
     6
176
     1
 78
     2
176
     1
 67
     7
176
     1
 79
     5
176
     1
170
     0
176
     1
171
     0
176
     1
290
     0
176
     1
 93
        1
176
     1
 44
0.0
176
     1
173
     0
176
     1
1001
ACAD
1000
AcDbSavedByObjectVersion
1070
     0
  0
VISUALSTYLE
  5
2B
102
{ACAD_XDICTIONARY
360
3DC
102
}
102
{ACAD_REACTORS
330
2A
102
}
330
2A
100
AcDbVisualStyle
  2
Flat
 70
     0
177
     2
291
     1
 71
     2
176
     1
 72
     1
176
     1
 73
     1
176
     1
 90
        2
176
     1
 40
0.6
176
     1
 41
30.0
176
     1
 63
     7
421
 16777215
176
     1
 74
     0
176
     1
 91
        4
176
     1
 64
     7
176
     1
 65
   257
176
     1
 75
     1
176
     1
175
     1
176
     1
 42
1.0
176
     1
 92
        8
176
     1
 66
     7
176
     1
 43
1.0
176
     1
 76
     1
176
     1
 77
     6
176
     1
 78
     2
176
     1
 67
     7
176
     1
 79
     5
176
     1
170
     0
176
     1
171
     0
176
     1
290
     0
176
     1
 93
       13
176
     1
 44
0.0
176
     1
173
     0
176
     1
1001
ACAD
1000
AcDbSavedByObjectVersion
1070
     0
  0
VISUALSTYLE
  5
2C
102
{ACAD_XDICTIONARY
360
3DE
102
}
102
{ACAD_REACTORS
330
2A
102
}
330
2A
100
AcDbVisualStyle
  2
FlatWithEdges
 70
     1
177
     2
291
     1
 71
     2
176
     1
 72
     1
176
     1
 73
     1
176
     1
 90
        2
176
     1
 40
0.6
176
     1
 41
30.0
176
     1
 63
     7
421
 16777215
176
     1
 74
     1
176
     1
 91
        4
176
     1
 64
     7
176
     1
 65
   257
176
     1
 75
     1
176
     1
175
     1
176
     1
 42
1.0
176
     1
 92
        0
176
     1
 66
   257
176
     1
 43
1.0
176
     1
 76
     1
176
     1
 77
     6
176
     1
 78
     2
176
     1
 67
     7
176
     1
 79
     5
176
     1
170
     0
176
     1
171
     0
176
     1
290
     0
176
     1
 93
       13
176
     1
 44
0.0
176
     1
173
     0
176
     1
1001
ACAD
1000
AcDbSavedByObjectVersion
1070
     0
  0
VISUALSTYLE
  5
2D
102
{ACAD_XDICTIONARY
360
3E0
102
}
102
{ACAD_REACTORS
330
2A
102
}
330
2A
100
AcDbVisualStyle
  2
Gouraud
 70
     2
177
     2
291
     1
 71
     2
176
     1
 72
     2
176
     1
 73
     1
176
     1
 90
        2
176
     1
 40
0.6
176
     1
 41
30.0
176
     1
 63
     7
421
 16777215
176
     1
 74
     0
176
     1
 91
        4
176
     1
 64
     7
176
     1
 65
   257
176
     1
 75
     1
176
     1
175
     1
176
     1
 42
1.0
176
     1
 92
        0
176
     1
 66
     7
176
     1
 43
1.0
176
     1
 76
     1
176
     1
 77
     6
176
     1
 78
     2
176
     1
 67
     7
176
     1
 79
     5
176
     1
170
     0
176
     1
171
     0
176
     1
290
     0
176
     1
 93
       13
176
     1
 44
0.0
176
     1
173
     0
176
     1
1001
ACAD
1000
AcDbSavedByObjectVersion
1070
     0
  0
VISUALSTYLE
  5
2E
102
{ACAD_XDICTIONARY
360
3E2
102
}
102
{ACAD_REACTORS
330
2A
102
}
330
2A
100
AcDbVisualStyle
  2
GouraudWithEdges
 70
     3
177
     2
291
     1
 71
     2
176
     1
 72
     2
176
     1
 73
     1
176
     1
 90
        2
176
     1
 40
0.6
176
     1
 41
30.0
176
     1
 63
     7
421
 16777215
176
     1
 74
     1
176
     1
 91
        4
176
     1
 64
     7
176
     1
 65
   257
176
     1
 75
     1
176
     1
175
     1
176
     1
 42
1.0
176
     1
 92
        0
176
     1
 66
   257
176
     1
 43
1.0
176
     1
 76
     1
176
     1
 77
     6
176
     1
 78
     2
176
     1
 67
     7
176
     1
 79
     5
176
     1
170
     0
176
     1
171
     0
176
     1
290
     0
176
     1
 93
       13
176
     1
 44
0.0
176
     1
173
     0
176
     1
1001
ACAD
1000
AcDbSavedByObjectVersion
1070
     0
  0
VISUALSTYLE
  5
2D1
102
{ACAD_XDICTIONARY
360
3FE
102
}
102
{ACAD_REACTORS
330
2A
102
}
330
2A
100
AcDbVisualStyle
  2
Hidden
 70
     6
177
     2
291
     0
 71
     1
176
     1
 72
     2
176
     1
 73
     2
176
     1
 90
        0
176
     1
 40
0.6
176
     1
 41
30.0
176
     1
 63
     7
421
 16777215
176
     1
 74
     2
176
     1
 91
        2
176
     1
 64
     7
176
     1
 65
   257
176
     1
 75
     2
176
     1
175
     1
176
     1
 42
40.0
176
     1
 92
        0
176
     1
 66
   257
176
     1
 43
1.0
176
     1
 76
     1
176
     1
 77
     6
176
     1
 78
     2
176
     1
 67
     7
176
     1
 79
     3
176
     1
170
     0
176
     1
171
     0
176
     1
290
     0
176
     1
 93
        1
176
     1
 44
0.0
176
     1
173
     0
176
     1
1001
ACAD
1000
AcDbSavedByObjectVersion
1070
     0
  0
VISUALSTYLE
  5
2D7
102
{ACAD_XDICTIONARY
360
40A
102
}
102
{ACAD_REACTORS
330
2A
102
}
330
2A
100
AcDbVisualStyle
  2
JitterOff
 70
    20
177
     2
291
     1
 71
     2
176
     0
 72
     2
176
     0
 73
     0
176
     0
 90
        0
176
     0
 40
0.6
176
     0
 41
30.0
176
     0
 63
     7
421
 16777215
176
     0
 74
     1
176
     0
 91
        4
176
     0
 64
     7
176
     0
 65
   257
176
     0
 75
     1
176
     0
175
     1
176
     0
 42
1.0
176
     0
 92
       10
176
     2
 66
     7
176
     0
 43
1.0
176
     0
 76
     1
176
     0
 77
     6
176
     0
 78
     2
176
     0
 67
     7
176
     0
 79
     5
176
     0
170
     0
176
     0
171
     0
176
     0
290
     0
176
     0
 93
        1
176
     0
 44
0.0
176
     0
173
     0
176
     0
1001
ACAD
1000
AcDbSavedByObjectVersion
1070
     0
  0
VISUALSTYLE
  5
38
102
{ACAD_XDICTIONARY
360
3F6
102
}
102
{ACAD_REACTORS
330
2A
102
}
330
2A
100
AcDbVisualStyle
  2
Linepattern
 70
    14
177
     2
291
     1
 71
     2
176
     1
 72
     2
176
     1
 73
     0
176
     1
 90
        0
176
     1
 40
0.6
176
     1
 41
30.0
176
     1
 63
     7
421
 16777215
176
     1
 74
     1
176
     1
 91
        4
176
     1
 64
     7
176
     1
 65
   257
176
     1
 75
     7
176
     1
175
     7
176
     1
 42
1.0
176
     1
 92
        8
176
     1
 66
     7
176
     1
 43
1.0
176
     1
 76
     1
176
     1
 77
     6
176
     1
 78
     2
176
     1
 67
     7
176
     1
 79
     5
176
     1
170
     0
176
     1
171
     0
176
     1
290
     0
176
     1
 93
        1
176
     1
 44
0.0
176
     1
173
     0
176
     1
1001
ACAD
1000
AcDbSavedByObjectVersion
1070
     0
  0
VISUALSTYLE
  5
2D8
102
{ACAD_XDICTIONARY
360
40C
102
}
102
{ACAD_REACTORS
330
2A
102
}
330
2A
100
AcDbVisualStyle
  2
OverhangOff
 70
    21
177
     2
291
     1
 71
     2
176
     0
 72
     2
176
     0
 73
     0
176
     0
 90
        0
176
     0
 40
0.6
176
     0
 41
30.0
176
     0
 63
     7
421
 16777215
176
     0
 74
     1
176
     0
 91
        4
176
     0
 64
     7
176
     0
 65
   257
176
     0
 75
     1
176
     0
175
     1
176
     0
 42
1.0
176
     0
 92
        9
176
     2
 66
     7
176
     0
 43
1.0
176
     0
 76
     1
176
     0
 77
     6
176
     0
 78
     2
176
     0
 67
     7
176
     0
 79
     5
176
     0
170
     0
176
     0
171
     0
176
     0
290
     0
176
     0
 93
        1
176
     0
 44
0.0
176
     0
173
     0
176
     0
1001
ACAD
1000
AcDbSavedByObjectVersion
1070
     0
  0
VISUALSTYLE
  5
33
102
{ACAD_XDICTIONARY
360
3EC
102
}
102
{ACAD_REACTORS
330
2A
102
}
330
2A
100
AcDbVisualStyle
  2
Realistic
 70
     8
177
     2
291
     0
 71
     2
176
     1
 72
     2
176
     1
 73
     0
176
     1
 90
        0
176
     1
 40
0.6
176
     1
 41
30.0
176
     1
 63
     7
421
 16777215
176
     1
 74
     1
176
     1
 91
        0
176
     1
 64
     7
176
     1
 65
   257
176
     1
 75
     1
176
     1
175
     1
176
     1
 42
1.0
176
     1
 92
        8
176
     1
 66
     8
424
  7895160
176
     1
 43
1.0
176
     1
 76
     1
176
     1
 77
     6
176
     1
 78
     2
176
     1
 67
     7
176
     1
 79
     5
176
     1
170
     0
176
     1
171
     0
176
     1
290
     0
176
     1
 93
       13
176
     1
 44
0.0
176
     1
173
     0
176
     1
1001
ACAD
1000
AcDbSavedByObjectVersion
1070
     0
  0
VISUALSTYLE
  5
2D6
102
{ACAD_XDICTIONARY
360
408
102
}
102
{ACAD_REACTORS
330
2A
102
}
330
2A
100
AcDbVisualStyle
  2
Shaded
 70
    27
177
     2
291
     0
 71
     2
176
     1
 72
     2
176
     1
 73
     1
176
     1
 90
        2
176
     1
 40
0.6
176
     1
 41
30.0
176
     1
 63
     7
421
 16777215
176
     1
 74
     0
176
     1
 91
        4
176
     1
 64
     7
176
     1
 65
   257
176
     1
 75
     1
176
     1
175
     1
176
     1
 42
1.0
176
     1
 92
        8
176
     1
 66
   257
176
     1
 43
1.0
176
     1
 76
     1
176
     1
 77
     6
176
     1
 78
     2
176
     1
 67
     8
425
  7895160
176
     1
 79
     3
176
     1
170
     0
176
     1
171
     0
176
     1
290
     0
176
     1
 93
        5
176
     1
 44
0.0
176
     1
173
     0
176
     1
1001
ACAD
1000
AcDbSavedByObjectVersion
1070
     0
  0
VISUALSTYLE
  5
2D5
102
{ACAD_XDICTIONARY
360
406
102
}
102
{ACAD_REACTORS
330
2A
102
}
330
2A
100
AcDbVisualStyle
  2
Shaded with edges
 70
    26
177
     2
291
     0
 71
     2
176
     1
 72
     2
176
     1
 73
     1
176
     1
 90
        2
176
     1
 40
0.6
176
     1
 41
30.0
176
     1
 63
     7
421
 16777215
176
     1
 74
     1
176
     1
 91
        2
176
     1
 64
     7
176
     1
 65
   257
176
     1
 75
     2
176
     1
175
     1
176
     1
 42
1.0
176
     1
 92
        8
176
     1
 66
   257
176
     1
 43
1.0
176
     1
 76
     1
176
     1
 77
     6
176
     1
 78
     2
176
     1
 67
     7
176
     1
 79
     3
176
     1
170
     0
176
     1
171
     0
176
     1
290
     0
176
     1
 93
        5
176
     1
 44
0.0
176
     1
173
     0
176
     1
1001
ACAD
1000
AcDbSavedByObjectVersion
1070
     0
  0
VISUALSTYLE
  5
2D2
102
{ACAD_XDICTIONARY
360
400
102
}
102
{ACAD_REACTORS
330
2A
102
}
330
2A
100
AcDbVisualStyle
  2
Shades of Gray
 70
    23
177
     2
291
     0
 71
     2
176
     1
 72
     2
176
     1
 73
     3
176
     1
 90
        0
176
     1
 40
0.6
176
     1
 41
30.0
176
     1
 63
     7
421
 16777215
176
     1
 74
     2
176
     1
 91
        2
176
     1
 64
     7
176
     1
 65
     7
176
     1
 75
     1
176
     1
175
     1
176
     1
 42
40.0
176
     1
 92
        8
176
     1
 66
     7
176
     1
 43
1.0
176
     1
 76
     1
176
     1
 77
     6
176
     1
 78
     2
176
     1
 67
     7
176
     1
 79
     3
176
     1
170
     0
176
     1
171
     0
176
     1
290
     0
176
     1
 93
        1
176
     1
 44
0.0
176
     1
173
     0
176
     1
1001
ACAD
1000
AcDbSavedByObjectVersion
1070
     0
  0
VISUALSTYLE
  5
2D3
102
{ACAD_XDICTIONARY
360
402
102
}
102
{ACAD_REACTORS
330
2A
102
}
330
2A
100
AcDbVisualStyle
  2
Sketchy
 70
    24
177
     2
291
     0
 71
     1
176
     1
 72
     2
176
     1
 73
     2
176
     1
 90
        0
176
     1
 40
0.6
176
     1
 41
30.0
176
     1
 63
     7
421
 16777215
176
     1
 74
     2
176
     1
 91
        2
176
     1
 64
     7
176
     1
 65
     7
176
     1
 75
     1
176
     1
175
     1
176
     1
 42
40.0
176
     1
 92
       11
176
     1
 66
     7
176
     1
 43
1.0
176
     1
 76
     1
176
     1
 77
     6
176
     1
 78
     2
176
     1
 67
     7
176
     1
 79
     6
176
     1
170
     0
176
     1
171
     0
176
     1
290
     0
176
     1
 93
        1
176
     1
 44
0.0
176
     1
173
     0
176
     1
1001
ACAD
1000
AcDbSavedByObjectVersion
1070
     0
  0
VISUALSTYLE
  5
37
102
{ACAD_XDICTIONARY
360
3F4
102
}
102
{ACAD_REACTORS
330
2A
102
}
330
2A
100
AcDbVisualStyle
  2
Thicken
 70
    13
177
     2
291
     1
 71
     2
176
     1
 72
     2
176
     1
 73
     0
176
     1
 90
        0
176
     1
 40
0.6
176
     1
 41
30.0
176
     1
 63
     7
421
 16777215
176
     1
 74
     1
176
     1
 91
        4
176
     1
 64
     7
176
     1
 65
   257
176
     1
 75
     1
176
     1
175
     1
176
     1
 42
1.0
176
     1
 92
       12
176
     1
 66
     7
176
     1
 43
1.0
176
     1
 76
     1
176
     1
 77
     6
176
     1
 78
     2
176
     1
 67
     7
176
     1
 79
     5
176
     1
170
     0
176
     1
171
     0
176
     1
290
     0
176
     1
 93
        1
176
     1
 44
0.0
176
     1
173
     0
176
     1
1001
ACAD
1000
AcDbSavedByObjectVersion
1070
     0
  0
VISUALSTYLE
  5
2D0
102
{ACAD_XDICTIONARY
360
3FC
102
}
102
{ACAD_REACTORS
330
2A
102
}
330
2A
100
AcDbVisualStyle
  2
Wireframe
 70
     5
177
     2
291
     0
 71
     0
176
     1
 72
     2
176
     1
 73
     0
176
     1
 90
        0
176
     1
 40
0.6
176
     1
 41
30.0
176
     1
 63
     7
421
 16777215
176
     1
 74
     1
176
     1
 91
        4
176
     1
 64
     7
176
     1
 65
   257
176
     1
 75
     1
176
     1
175
     1
176
     1
 42
1.0
176
     1
 92
        0
176
     1
 66
   257
176
     1
 43
1.0
176
     1
 76
     1
176
     1
 77
     6
176
     1
 78
     2
176
     1
 67
     7
176
     1
 79
     3
176
     1
170
     0
176
     1
171
     0
176
     1
290
     0
176
     1
 93
        1
176
     1
 44
0.0
176
     1
173
     0
176
     1
1001
ACAD
1000
AcDbSavedByObjectVersion
1070
     0
  0
VISUALSTYLE
  5
2D4
102
{ACAD_XDICTIONARY
360
404
102
}
102
{ACAD_REACTORS
330
2A
102
}
330
2A
100
AcDbVisualStyle
  2
X-Ray
 70
    25
177
     2
291
     0
 71
     2
176
     1
 72
     2
176
     1
 73
     1
176
     1
 90
        1
176
     1
 40
0.5
176
     1
 41
30.0
176
     1
 63
     7
421
 16777215
176
     1
 74
     1
176
     1
 91
        0
176
     1
 64
     7
176
     1
 65
   257
176
     1
 75
     1
176
     1
175
     1
176
     1
 42
1.0
176
     1
 92
        8
176
     1
 66
     7
176
     1
 43
1.0
176
     1
 76
     1
176
     1
 77
     6
176
     1
 78
     2
176
     1
 67
     7
176
     1
 79
     3
176
     1
170
     0
176
     1
171
     0
176
     1
290
     0
176
     1
 93
       13
176
     1
 44
0.0
176
     1
173
     0
176
     1
1001
ACAD
1000
AcDbSavedByObjectVersion
1070
     0
  0
DICTIONARYVAR
  5
2CC
102
{ACAD_REACTORS
330
2CB
102
}
330
2CB
100
DictionaryVariables
280
     0
  1
1:1
  0
DICTIONARYVAR
  5
3CE
102
{ACAD_REACTORS
330
2CB
102
}
330
2CB
100
DictionaryVariables
280
     0
  1
STANDARD
  0
DICTIONARYVAR
  5
3CD
102
{ACAD_REACTORS
330
2CB
102
}
330
2CB
100
DictionaryVariables
280
     0
  1
STANDARD
  0
DICTIONARYVAR
  5
3CF
102
{ACAD_REACTORS
330
2CB
102
}
330
2CB
100
DictionaryVariables
280
     0
  1
Metric50
  0
DICTIONARYVAR
  5
3D0
102
{ACAD_REACTORS
330
2CB
102
}
330
2CB
100
DictionaryVariables
280
     0
  1
Metric50
  0
DICTIONARY
  5
3DB
102
{ACAD_REACTORS
330
3D9
102
}
330
3D9
100
AcDbDictionary
281
     1
  0
DICTIONARY
  5
3DA
102
{ACAD_REACTORS
330
3D9
102
}
330
3D9
100
AcDbDictionary
281
     1
  3
2168648665408
350
3D4
  3
2168648665424
350
3D5
  3
2168648665440
350
3D6
  3
2168648665456
350
3D7
  3
2168648665472
350
3D8
  0
DICTIONARY
  5
414
330
2E0
100
AcDbDictionary
280
     1
281
     1
  3
ACAD_XREC_ROUNDTRIP
360
415
  0
DICTIONARY
  5
410
330
2DC
100
AcDbDictionary
280
     1
281
     1
  3
ACAD_XREC_ROUNDTRIP
360
411
  0
DICTIONARY
  5
412
330
2DE
100
AcDbDictionary
280
     1
281
     1
  3
ACAD_XREC_ROUNDTRIP
360
413
  0
DICTIONARY
  5
3D1
330
2DB
100
AcDbDictionary
280
     1
281
     1
  3
ACAD_ROUNDTRIP_2008_TABLESTYLE_CELLSTYLEMAP
360
3D2
  0
DICTIONARY
  5
3E4
330
2F
100
AcDbDictionary
280
     1
281
     1
  3
ACAD_XREC_ROUNDTRIP
360
3E5
  0
DICTIONARY
  5
3E8
330
31
100
AcDbDictionary
280
     1
281
     1
  3
ACAD_XREC_ROUNDTRIP
360
3E9
  0
DICTIONARY
  5
3E6
330
30
100
AcDbDictionary
280
     1
281
     1
  3
ACAD_XREC_ROUNDTRIP
360
3E7
  0
DICTIONARY
  5
3EA
330
32
100
AcDbDictionary
280
     1
281
     1
  3
ACAD_XREC_ROUNDTRIP
360
3EB
  0
DICTIONARY
  5
3F2
330
36
100
AcDbDictionary
280
     1
281
     1
  3
ACAD_XREC_ROUNDTRIP
360
3F3
  0
DICTIONARY
  5
3FA
330
3A
100
AcDbDictionary
280
     1
281
     1
  3
ACAD_XREC_ROUNDTRIP
360
3FB
  0
DICTIONARY
  5
3EE
330
34
100
AcDbDictionary
280
     1
281
     1
  3
ACAD_XREC_ROUNDTRIP
360
3EF
  0
DICTIONARY
  5
3F0
330
35
100
AcDbDictionary
280
     1
281
     1
  3
ACAD_XREC_ROUNDTRIP
360
3F1
  0
DICTIONARY
  5
40E
330
2D9
100
AcDbDictionary
280
     1
281
     1
  3
ACAD_XREC_ROUNDTRIP
360
40F
  0
DICTIONARY
  5
3F8
330
39
100
AcDbDictionary
280
     1
281
     1
  3
ACAD_XREC_ROUNDTRIP
360
3F9
  0
DICTIONARY
  5
3DC
330
2B
100
AcDbDictionary
280
     1
281
     1
  3
ACAD_XREC_ROUNDTRIP
360
3DD
  0
DICTIONARY
  5
3DE
330
2C
100
AcDbDictionary
280
     1
281
     1
  3
ACAD_XREC_ROUNDTRIP
360
3DF
  0
DICTIONARY
  5
3E0
330
2D
100
AcDbDictionary
280
     1
281
     1
  3
ACAD_XREC_ROUNDTRIP
360
3E1
  0
DICTIONARY
  5
3E2
330
2E
100
AcDbDictionary
280
     1
281
     1
  3
ACAD_XREC_ROUNDTRIP
360
3E3
  0
DICTIONARY
  5
3FE
330
2D1
100
AcDbDictionary
280
     1
281
     1
  3
ACAD_XREC_ROUNDTRIP
360
3FF
  0
DICTIONARY
  5
40A
330
2D7
100
AcDbDictionary
280
     1
281
     1
  3
ACAD_XREC_ROUNDTRIP
360
40B
  0
DICTIONARY
  5
3F6
330
38
100
AcDbDictionary
280
     1
281
     1
  3
ACAD_XREC_ROUNDTRIP
360
3F7
  0
DICTIONARY
  5
40C
330
2D8
100
AcDbDictionary
280
     1
281
     1
  3
ACAD_XREC_ROUNDTRIP
360
40D
  0
DICTIONARY
  5
3EC
330
33
100
AcDbDictionary
280
     1
281
     1
  3
ACAD_XREC_ROUNDTRIP
360
3ED
  0
DICTIONARY
  5
408
330
2D6
100
AcDbDictionary
280
     1
281
     1
  3
ACAD_XREC_ROUNDTRIP
360
409
  0
DICTIONARY
  5
406
330
2D5
100
AcDbDictionary
280
     1
281
     1
  3
ACAD_XREC_ROUNDTRIP
360
407
  0
DICTIONARY
  5
400
330
2D2
100
AcDbDictionary
280
     1
281
     1
  3
ACAD_XREC_ROUNDTRIP
360
401
  0
DICTIONARY
  5
402
330
2D3
100
AcDbDictionary
280
     1
281
     1
  3
ACAD_XREC_ROUNDTRIP
360
403
  0
DICTIONARY
  5
3F4
330
37
100
AcDbDictionary
280
     1
281
     1
  3
ACAD_XREC_ROUNDTRIP
360
3F5
  0
DICTIONARY
  5
3FC
330
2D0
100
AcDbDictionary
280
     1
281
     1
  3
ACAD_XREC_ROUNDTRIP
360
3FD
  0
DICTIONARY
  5
404
330
2D4
100
AcDbDictionary
280
     1
281
     1
  3
ACAD_XREC_ROUNDTRIP
360
405
  0
XRECORD
  5
3D4
102
{ACAD_REACTORS
330
3DA
102
}
330
3DA
100
AcDbXrecord
280
     1
  1
AcDb_Thumbnail_Schema
102
{ATTRRECORD
341
3D5
  2
AcDbDs::TreatedAsObjectData
280
     1
291
     1
102
ATTRRECORD}
102
{ATTRRECORD
341
3D6
  2
AcDbDs::Legacy
280
     1
291
     1
102
ATTRRECORD}
  2
AcDbDs::ID
280
    10
 91
        8
102
{ATTRRECORD
341
3D7
  2
AcDs:Indexable
280
     1
291
     1
102
ATTRRECORD}
102
{ATTRRECORD
341
3D8
  2
AcDbDs::HandleAttribute
280
     7
282
     1
102
ATTRRECORD}
  2
Thumbnail_Data
280
    15
 91
        0
  0
XRECORD
  5
3D5
102
{ACAD_REACTORS
330
3DA
102
}
330
3DA
100
AcDbXrecord
280
     1
  1
AcDbDs::TreatedAsObjectDataSchema
  2
AcDbDs::TreatedAsObjectData
280
     1
 91
        0
  0
XRECORD
  5
3D6
102
{ACAD_REACTORS
330
3DA
102
}
330
3DA
100
AcDbXrecord
280
     1
  1
AcDbDs::LegacySchema
  2
AcDbDs::Legacy
280
     1
 91
        0
  0
XRECORD
  5
3D7
102
{ACAD_REACTORS
330
3DA
102
}
330
3DA
100
AcDbXrecord
280
     1
  1
AcDbDs::IndexedPropertySchema
  2
AcDs:Indexable
280
     1
 91
        0
  0
XRECORD
  5
3D8
102
{ACAD_REACTORS
330
3DA
102
}
330
3DA
100
AcDbXrecord
280
     1
  1
AcDbDs::HandleAttributeSchema
  2
AcDbDs::HandleAttribute
280
     7
 91
        1
284
     1
  0
XRECORD
  5
415
102
{ACAD_REACTORS
330
414
102
}
330
414
100
AcDbXrecord
280
     1
102
DISPLAYNAME
  1
Metric50
102
FLAGS
 90
        0
  0
XRECORD
  5
411
102
{ACAD_REACTORS
330
410
102
}
330
410
100
AcDbXrecord
280
     1
102
ACAD_ROUNDTRIP_2012_MLEADER_STYLE
298
     1
  0
XRECORD
  5
413
102
{ACAD_REACTORS
330
412
102
}
330
412
100
AcDbXrecord
280
     1
102
DISPLAYNAME
  1
Metric50
102
FLAGS
 90
        0
  0
CELLSTYLEMAP
  5
3D2
102
{ACAD_REACTORS
330
3D1
102
}
330
3D1
100
AcDbCellStyleMap
 90
        3
300
CELLSTYLE
  1
TABLEFORMAT_BEGIN
 90
        5
170
     1
 91
        0
 92
    32768
 62
   257
 93
        1
300
CONTENTFORMAT
  1
CONTENTFORMAT_BEGIN
 90
        0
 91
        0
 92
      512
 93
        0
300

 40
0.0
140
1.0
 94
        5
 62
     0
340
11
144
6.0
309
CONTENTFORMAT_END
171
     1
301
MARGIN
  1
CELLMARGIN_BEGIN
 40
1.5
 40
1.5
 40
1.5
 40
1.5
 40
4.5
 40
4.5
309
CELLMARGIN_END
 94
        6
 95
        1
302
GRIDFORMAT
  1
GRIDFORMAT_BEGIN
 90
        0
 91
        1
 62
     0
 92
       -2
340
0
 93
        0
 40
1.125
309
GRIDFORMAT_END
 95
        2
302
GRIDFORMAT
  1
GRIDFORMAT_BEGIN
 90
        0
 91
        1
 62
     0
 92
       -2
340
0
 93
        0
 40
1.125
309
GRIDFORMAT_END
 95
        4
302
GRIDFORMAT
  1
GRIDFORMAT_BEGIN
 90
        0
 91
        1
 62
     0
 92
       -2
340
0
 93
        0
 40
1.125
309
GRIDFORMAT_END
 95
        8
302
GRIDFORMAT
  1
GRIDFORMAT_BEGIN
 90
        0
 91
        1
 62
     0
 92
       -2
340
0
 93
        0
 40
1.125
309
GRIDFORMAT_END
 95
       16
302
GRIDFORMAT
  1
GRIDFORMAT_BEGIN
 90
        0
 91
        1
 62
     0
 92
       -2
340
0
 93
        0
 40
1.125
309
GRIDFORMAT_END
 95
       32
302
GRIDFORMAT
  1
GRIDFORMAT_BEGIN
 90
        0
 91
        1
 62
     0
 92
       -2
340
0
 93
        0
 40
1.125
309
GRIDFORMAT_END
309
TABLEFORMAT_END
  1
CELLSTYLE_BEGIN
 90
        1
 91
        1
300
_TITLE
309
CELLSTYLE_END
300
CELLSTYLE
  1
TABLEFORMAT_BEGIN
 90
        5
170
     1
 91
        0
 92
        0
 62
   257
 93
        1
300
CONTENTFORMAT
  1
CONTENTFORMAT_BEGIN
 90
        0
 91
        0
 92
      512
 93
        0
300

 40
0.0
140
1.0
 94
        5
 62
     0
340
11
144
4.5
309
CONTENTFORMAT_END
171
     1
301
MARGIN
  1
CELLMARGIN_BEGIN
 40
1.5
 40
1.5
 40
1.5
 40
1.5
 40
4.5
 40
4.5
309
CELLMARGIN_END
 94
        6
 95
        1
302
GRIDFORMAT
  1
GRIDFORMAT_BEGIN
 90
        0
 91
        1
 62
     0
 92
       -2
340
0
 93
        0
 40
1.125
309
GRIDFORMAT_END
 95
        2
302
GRIDFORMAT
  1
GRIDFORMAT_BEGIN
 90
        0
 91
        1
 62
     0
 92
       -2
340
0
 93
        0
 40
1.125
309
GRIDFORMAT_END
 95
        4
302
GRIDFORMAT
  1
GRIDFORMAT_BEGIN
 90
        0
 91
        1
 62
     0
 92
       -2
340
0
 93
        0
 40
1.125
309
GRIDFORMAT_END
 95
        8
302
GRIDFORMAT
  1
GRIDFORMAT_BEGIN
 90
        0
 91
        1
 62
     0
 92
       -2
340
0
 93
        0
 40
1.125
309
GRIDFORMAT_END
 95
       16
302
GRIDFORMAT
  1
GRIDFORMAT_BEGIN
 90
        0
 91
        1
 62
     0
 92
       -2
340
0
 93
        0
 40
1.125
309
GRIDFORMAT_END
 95
       32
302
GRIDFORMAT
  1
GRIDFORMAT_BEGIN
 90
        0
 91
        1
 62
     0
 92
       -2
340
0
 93
        0
 40
1.125
309
GRIDFORMAT_END
309
TABLEFORMAT_END
  1
CELLSTYLE_BEGIN
 90
        2
 91
        1
300
_HEADER
309
CELLSTYLE_END
300
CELLSTYLE
  1
TABLEFORMAT_BEGIN
 90
        5
170
     1
 91
        0
 92
        0
 62
   257
 93
        1
300
CONTENTFORMAT
  1
CONTENTFORMAT_BEGIN
 90
        0
 91
        0
 92
      512
 93
        0
300

 40
0.0
140
1.0
 94
        2
 62
     0
340
11
144
4.5
309
CONTENTFORMAT_END
171
     1
301
MARGIN
  1
CELLMARGIN_BEGIN
 40
1.5
 40
1.5
 40
1.5
 40
1.5
 40
4.5
 40
4.5
309
CELLMARGIN_END
 94
        6
 95
        1
302
GRIDFORMAT
  1
GRIDFORMAT_BEGIN
 90
        0
 91
        1
 62
     0
 92
       -2
340
0
 93
        0
 40
1.125
309
GRIDFORMAT_END
 95
        2
302
GRIDFORMAT
  1
GRIDFORMAT_BEGIN
 90
        0
 91
        1
 62
     0
 92
       -2
340
0
 93
        0
 40
1.125
309
GRIDFORMAT_END
 95
        4
302
GRIDFORMAT
  1
GRIDFORMAT_BEGIN
 90
        0
 91
        1
 62
     0
 92
       -2
340
0
 93
        0
 40
1.125
309
GRIDFORMAT_END
 95
        8
302
GRIDFORMAT
  1
GRIDFORMAT_BEGIN
 90
        0
 91
        1
 62
     0
 92
       -2
340
0
 93
        0
 40
1.125
309
GRIDFORMAT_END
 95
       16
302
GRIDFORMAT
  1
GRIDFORMAT_BEGIN
 90
        0
 91
        1
 62
     0
 92
       -2
340
0
 93
        0
 40
1.125
309
GRIDFORMAT_END
 95
       32
302
GRIDFORMAT
  1
GRIDFORMAT_BEGIN
 90
        0
 91
        1
 62
     0
 92
       -2
340
0
 93
        0
 40
1.125
309
GRIDFORMAT_END
309
TABLEFORMAT_END
  1
CELLSTYLE_BEGIN
 90
        3
 91
        2
300
_DATA
309
CELLSTYLE_END
  0
XRECORD
  5
3E5
102
{ACAD_REACTORS
330
3E4
102
}
330
3E4
100
AcDbXrecord
280
     1
102
RTVSPost2010Prop28
280
     1
102
RTVSPost2010PropOp28
 70
     1
102
RTVSPost2010Prop29
280
     1
102
RTVSPost2010PropOp29
 70
     1
102
RTVSPost2010Prop30
280
     0
102
RTVSPost2010PropOp30
 70
     1
102
RTVSPost2010Prop31
280
     0
102
RTVSPost2010PropOp31
 70
     1
102
RTVSPost2010Prop32
280
     0
102
RTVSPost2010PropOp32
 70
     1
102
RTVSPost2010Prop33
280
     0
102
RTVSPost2010PropOp33
 70
     1
102
RTVSPost2010Prop34
280
     0
102
RTVSPost2010PropOp34
 70
     1
102
RTVSPost2010Prop35
280
     0
102
RTVSPost2010PropOp35
 70
     1
102
RTVSPost2010Prop36
280
     0
102
RTVSPost2010PropOp36
 70
     1
102
RTVSPost2010Prop37
 90
       50
102
RTVSPost2010PropOp37
 70
     1
102
RTVSPost2010Prop38
140
0.0
102
RTVSPost2010PropOp38
 70
     1
102
RTVSPost2010Prop39
140
1.0
102
RTVSPost2010PropOp39
 70
     1
102
RTVSPost2010Prop40
 90
        0
102
RTVSPost2010PropOp40
 70
     1
102
RTVSPost2010Prop41ColorIndex
 90
       18
102
RTVSPost2010Prop41ColorRGB
 90
        0
102
RTVSPost2010PropOp41
 70
     1
102
RTVSPost2010Prop42
 90
       50
102
RTVSPost2010PropOp42
 70
     1
102
RTVSPost2010Prop43
 90
        3
102
RTVSPost2010PropOp43
 70
     1
102
RTVSPost2010Prop44ColorIndex
 90
        5
102
RTVSPost2010Prop44ColorRGB
 90
      255
102
RTVSPost2010PropOp44
 70
     1
102
RTVSPost2010Prop45
280
     0
102
RTVSPost2010PropOp45
 70
     1
102
RTVSPost2010Prop46
 90
       50
102
RTVSPost2010PropOp46
 70
     1
102
RTVSPost2010Prop47
 90
       50
102
RTVSPost2010PropOp47
 70
     1
102
RTVSPost2010Prop48
 90
       50
102
RTVSPost2010PropOp48
 70
     1
102
RTVSPost2010Prop49
280
     0
102
RTVSPost2010PropOp49
 70
     1
102
RTVSPost2010Prop50
 90
       50
102
RTVSPost2010PropOp50
 70
     1
102
RTVSPost2010Prop51ColorIndex
 90
      256
102
RTVSPost2010Prop51ColorRGB
 90
-16777216
102
RTVSPost2010PropOp51
 70
     0
102
RTVSPost2010Prop52
140
1.0
102
RTVSPost2010PropOp52
 70
     0
102
RTVSPost2010Prop53
 90
        2
102
RTVSPost2010PropOp53
 70
     1
102
RTVSPost2010Prop54
  1
strokes_ogs.tif
102
RTVSPost2010PropOp54
 70
     1
102
RTVSPost2010Prop55
280
     0
102
RTVSPost2010PropOp55
 70
     1
102
RTVSPost2010Prop56
140
1.0
102
RTVSPost2010PropOp56
 70
     1
102
RTVSPost2010Prop57
140
1.0
102
RTVSPost2010PropOp57
 70
     1
  0
XRECORD
  5
3E9
102
{ACAD_REACTORS
330
3E8
102
}
330
3E8
100
AcDbXrecord
280
     1
102
RTVSPost2010Prop28
280
     0
102
RTVSPost2010PropOp28
 70
     1
102
RTVSPost2010Prop29
280
     1
102
RTVSPost2010PropOp29
 70
     1
102
RTVSPost2010Prop30
280
     1
102
RTVSPost2010PropOp30
 70
     1
102
RTVSPost2010Prop31
280
     0
102
RTVSPost2010PropOp31
 70
     1
102
RTVSPost2010Prop32
280
     0
102
RTVSPost2010PropOp32
 70
     1
102
RTVSPost2010Prop33
280
     0
102
RTVSPost2010PropOp33
 70
     1
102
RTVSPost2010Prop34
280
     0
102
RTVSPost2010PropOp34
 70
     1
102
RTVSPost2010Prop35
280
     0
102
RTVSPost2010PropOp35
 70
     1
102
RTVSPost2010Prop36
280
     0
102
RTVSPost2010PropOp36
 70
     1
102
RTVSPost2010Prop37
 90
       50
102
RTVSPost2010PropOp37
 70
     1
102
RTVSPost2010Prop38
140
0.0
102
RTVSPost2010PropOp38
 70
     1
102
RTVSPost2010Prop39
140
1.0
102
RTVSPost2010PropOp39
 70
     1
102
RTVSPost2010Prop40
 90
        0
102
RTVSPost2010PropOp40
 70
     1
102
RTVSPost2010Prop41ColorIndex
 90
       18
102
RTVSPost2010Prop41ColorRGB
 90
        0
102
RTVSPost2010PropOp41
 70
     1
102
RTVSPost2010Prop42
 90
       50
102
RTVSPost2010PropOp42
 70
     1
102
RTVSPost2010Prop43
 90
        3
102
RTVSPost2010PropOp43
 70
     1
102
RTVSPost2010Prop44ColorIndex
 90
        5
102
RTVSPost2010Prop44ColorRGB
 90
      255
102
RTVSPost2010PropOp44
 70
     1
102
RTVSPost2010Prop45
280
     0
102
RTVSPost2010PropOp45
 70
     1
102
RTVSPost2010Prop46
 90
       50
102
RTVSPost2010PropOp46
 70
     1
102
RTVSPost2010Prop47
 90
       50
102
RTVSPost2010PropOp47
 70
     1
102
RTVSPost2010Prop48
 90
       50
102
RTVSPost2010PropOp48
 70
     1
102
RTVSPost2010Prop49
280
     0
102
RTVSPost2010PropOp49
 70
     1
102
RTVSPost2010Prop50
 90
       50
102
RTVSPost2010PropOp50
 70
     1
102
RTVSPost2010Prop51ColorIndex
 90
      256
102
RTVSPost2010Prop51ColorRGB
 90
-16777216
102
RTVSPost2010PropOp51
 70
     0
102
RTVSPost2010Prop52
140
1.0
102
RTVSPost2010PropOp52
 70
     0
102
RTVSPost2010Prop53
 90
        2
102
RTVSPost2010PropOp53
 70
     1
102
RTVSPost2010Prop54
  1
strokes_ogs.tif
102
RTVSPost2010PropOp54
 70
     1
102
RTVSPost2010Prop55
280
     0
102
RTVSPost2010PropOp55
 70
     1
102
RTVSPost2010Prop56
140
1.0
102
RTVSPost2010PropOp56
 70
     1
102
RTVSPost2010Prop57
140
1.0
102
RTVSPost2010PropOp57
 70
     1
  0
XRECORD
  5
3E7
102
{ACAD_REACTORS
330
3E6
102
}
330
3E6
100
AcDbXrecord
280
     1
102
RTVSPost2010Prop28
280
     0
102
RTVSPost2010PropOp28
 70
     1
102
RTVSPost2010Prop29
280
     1
102
RTVSPost2010PropOp29
 70
     1
102
RTVSPost2010Prop30
280
     1
102
RTVSPost2010PropOp30
 70
     1
102
RTVSPost2010Prop31
280
     0
102
RTVSPost2010PropOp31
 70
     1
102
RTVSPost2010Prop32
280
     0
102
RTVSPost2010PropOp32
 70
     1
102
RTVSPost2010Prop33
280
     0
102
RTVSPost2010PropOp33
 70
     1
102
RTVSPost2010Prop34
280
     0
102
RTVSPost2010PropOp34
 70
     1
102
RTVSPost2010Prop35
280
     0
102
RTVSPost2010PropOp35
 70
     1
102
RTVSPost2010Prop36
280
     0
102
RTVSPost2010PropOp36
 70
     1
102
RTVSPost2010Prop37
 90
       50
102
RTVSPost2010PropOp37
 70
     1
102
RTVSPost2010Prop38
140
0.0
102
RTVSPost2010PropOp38
 70
     1
102
RTVSPost2010Prop39
140
1.0
102
RTVSPost2010PropOp39
 70
     1
102
RTVSPost2010Prop40
 90
        0
102
RTVSPost2010PropOp40
 70
     1
102
RTVSPost2010Prop41ColorIndex
 90
       18
102
RTVSPost2010Prop41ColorRGB
 90
        0
102
RTVSPost2010PropOp41
 70
     1
102
RTVSPost2010Prop42
 90
       50
102
RTVSPost2010PropOp42
 70
     1
102
RTVSPost2010Prop43
 90
        3
102
RTVSPost2010PropOp43
 70
     1
102
RTVSPost2010Prop44ColorIndex
 90
        5
102
RTVSPost2010Prop44ColorRGB
 90
      255
102
RTVSPost2010PropOp44
 70
     1
102
RTVSPost2010Prop45
280
     0
102
RTVSPost2010PropOp45
 70
     1
102
RTVSPost2010Prop46
 90
       50
102
RTVSPost2010PropOp46
 70
     1
102
RTVSPost2010Prop47
 90
       50
102
RTVSPost2010PropOp47
 70
     1
102
RTVSPost2010Prop48
 90
       50
102
RTVSPost2010PropOp48
 70
     1
102
RTVSPost2010Prop49
280
     0
102
RTVSPost2010PropOp49
 70
     1
102
RTVSPost2010Prop50
 90
       50
102
RTVSPost2010PropOp50
 70
     1
102
RTVSPost2010Prop51ColorIndex
 90
      256
102
RTVSPost2010Prop51ColorRGB
 90
-16777216
102
RTVSPost2010PropOp51
 70
     0
102
RTVSPost2010Prop52
140
1.0
102
RTVSPost2010PropOp52
 70
     0
102
RTVSPost2010Prop53
 90
        2
102
RTVSPost2010PropOp53
 70
     1
102
RTVSPost2010Prop54
  1
strokes_ogs.tif
102
RTVSPost2010PropOp54
 70
     1
102
RTVSPost2010Prop55
280
     0
102
RTVSPost2010PropOp55
 70
     1
102
RTVSPost2010Prop56
140
1.0
102
RTVSPost2010PropOp56
 70
     1
102
RTVSPost2010Prop57
140
1.0
102
RTVSPost2010PropOp57
 70
     1
  0
XRECORD
  5
3EB
102
{ACAD_REACTORS
330
3EA
102
}
330
3EA
100
AcDbXrecord
280
     1
102
RTVSPost2010Prop28
280
     0
102
RTVSPost2010PropOp28
 70
     1
102
RTVSPost2010Prop29
280
     1
102
RTVSPost2010PropOp29
 70
     1
102
RTVSPost2010Prop30
280
     1
102
RTVSPost2010PropOp30
 70
     1
102
RTVSPost2010Prop31
280
     0
102
RTVSPost2010PropOp31
 70
     1
102
RTVSPost2010Prop32
280
     0
102
RTVSPost2010PropOp32
 70
     1
102
RTVSPost2010Prop33
280
     0
102
RTVSPost2010PropOp33
 70
     1
102
RTVSPost2010Prop34
280
     0
102
RTVSPost2010PropOp34
 70
     1
102
RTVSPost2010Prop35
280
     0
102
RTVSPost2010PropOp35
 70
     1
102
RTVSPost2010Prop36
280
     0
102
RTVSPost2010PropOp36
 70
     1
102
RTVSPost2010Prop37
 90
       50
102
RTVSPost2010PropOp37
 70
     1
102
RTVSPost2010Prop38
140
0.0
102
RTVSPost2010PropOp38
 70
     1
102
RTVSPost2010Prop39
140
1.0
102
RTVSPost2010PropOp39
 70
     1
102
RTVSPost2010Prop40
 90
        0
102
RTVSPost2010PropOp40
 70
     1
102
RTVSPost2010Prop41ColorIndex
 90
       18
102
RTVSPost2010Prop41ColorRGB
 90
        0
102
RTVSPost2010PropOp41
 70
     1
102
RTVSPost2010Prop42
 90
       50
102
RTVSPost2010PropOp42
 70
     1
102
RTVSPost2010Prop43
 90
        3
102
RTVSPost2010PropOp43
 70
     1
102
RTVSPost2010Prop44ColorIndex
 90
        5
102
RTVSPost2010Prop44ColorRGB
 90
      255
102
RTVSPost2010PropOp44
 70
     1
102
RTVSPost2010Prop45
280
     0
102
RTVSPost2010PropOp45
 70
     1
102
RTVSPost2010Prop46
 90
       50
102
RTVSPost2010PropOp46
 70
     1
102
RTVSPost2010Prop47
 90
       50
102
RTVSPost2010PropOp47
 70
     1
102
RTVSPost2010Prop48
 90
       50
102
RTVSPost2010PropOp48
 70
     1
102
RTVSPost2010Prop49
280
     0
102
RTVSPost2010PropOp49
 70
     1
102
RTVSPost2010Prop50
 90
       50
102
RTVSPost2010PropOp50
 70
     1
102
RTVSPost2010Prop51ColorIndex
 90
      256
102
RTVSPost2010Prop51ColorRGB
 90
-16777216
102
RTVSPost2010PropOp51
 70
     0
102
RTVSPost2010Prop52
140
1.0
102
RTVSPost2010PropOp52
 70
     0
102
RTVSPost2010Prop53
 90
        2
102
RTVSPost2010PropOp53
 70
     1
102
RTVSPost2010Prop54
  1
strokes_ogs.tif
102
RTVSPost2010PropOp54
 70
     1
102
RTVSPost2010Prop55
280
     0
102
RTVSPost2010PropOp55
 70
     1
102
RTVSPost2010Prop56
140
1.0
102
RTVSPost2010PropOp56
 70
     1
102
RTVSPost2010Prop57
140
1.0
102
RTVSPost2010PropOp57
 70
     1
  0
XRECORD
  5
3F3
102
{ACAD_REACTORS
330
3F2
102
}
330
3F2
100
AcDbXrecord
280
     1
102
RTVSPost2010Prop28
280
     0
102
RTVSPost2010PropOp28
 70
     1
102
RTVSPost2010Prop29
280
     1
102
RTVSPost2010PropOp29
 70
     1
102
RTVSPost2010Prop30
280
     1
102
RTVSPost2010PropOp30
 70
     1
102
RTVSPost2010Prop31
280
     0
102
RTVSPost2010PropOp31
 70
     1
102
RTVSPost2010Prop32
280
     0
102
RTVSPost2010PropOp32
 70
     1
102
RTVSPost2010Prop33
280
     0
102
RTVSPost2010PropOp33
 70
     1
102
RTVSPost2010Prop34
280
     0
102
RTVSPost2010PropOp34
 70
     1
102
RTVSPost2010Prop35
280
     0
102
RTVSPost2010PropOp35
 70
     1
102
RTVSPost2010Prop36
280
     0
102
RTVSPost2010PropOp36
 70
     1
102
RTVSPost2010Prop37
 90
       50
102
RTVSPost2010PropOp37
 70
     1
102
RTVSPost2010Prop38
140
0.0
102
RTVSPost2010PropOp38
 70
     1
102
RTVSPost2010Prop39
140
1.0
102
RTVSPost2010PropOp39
 70
     1
102
RTVSPost2010Prop40
 90
        0
102
RTVSPost2010PropOp40
 70
     1
102
RTVSPost2010Prop41ColorIndex
 90
       18
102
RTVSPost2010Prop41ColorRGB
 90
        0
102
RTVSPost2010PropOp41
 70
     1
102
RTVSPost2010Prop42
 90
       50
102
RTVSPost2010PropOp42
 70
     1
102
RTVSPost2010Prop43
 90
        3
102
RTVSPost2010PropOp43
 70
     1
102
RTVSPost2010Prop44ColorIndex
 90
        5
102
RTVSPost2010Prop44ColorRGB
 90
      255
102
RTVSPost2010PropOp44
 70
     1
102
RTVSPost2010Prop45
280
     0
102
RTVSPost2010PropOp45
 70
     1
102
RTVSPost2010Prop46
 90
       50
102
RTVSPost2010PropOp46
 70
     1
102
RTVSPost2010Prop47
 90
       50
102
RTVSPost2010PropOp47
 70
     1
102
RTVSPost2010Prop48
 90
       50
102
RTVSPost2010PropOp48
 70
     1
102
RTVSPost2010Prop49
280
     0
102
RTVSPost2010PropOp49
 70
     1
102
RTVSPost2010Prop50
 90
       50
102
RTVSPost2010PropOp50
 70
     1
102
RTVSPost2010Prop51ColorIndex
 90
      256
102
RTVSPost2010Prop51ColorRGB
 90
-16777216
102
RTVSPost2010PropOp51
 70
     0
102
RTVSPost2010Prop52
140
1.0
102
RTVSPost2010PropOp52
 70
     0
102
RTVSPost2010Prop53
 90
        2
102
RTVSPost2010PropOp53
 70
     1
102
RTVSPost2010Prop54
  1
strokes_ogs.tif
102
RTVSPost2010PropOp54
 70
     1
102
RTVSPost2010Prop55
280
     0
102
RTVSPost2010PropOp55
 70
     1
102
RTVSPost2010Prop56
140
1.0
102
RTVSPost2010PropOp56
 70
     1
102
RTVSPost2010Prop57
140
1.0
102
RTVSPost2010PropOp57
 70
     1
  0
XRECORD
  5
3FB
102
{ACAD_REACTORS
330
3FA
102
}
330
3FA
100
AcDbXrecord
280
     1
102
RTVSPost2010Prop28
280
     0
102
RTVSPost2010PropOp28
 70
     1
102
RTVSPost2010Prop29
280
     1
102
RTVSPost2010PropOp29
 70
     1
102
RTVSPost2010Prop30
280
     1
102
RTVSPost2010PropOp30
 70
     1
102
RTVSPost2010Prop31
280
     0
102
RTVSPost2010PropOp31
 70
     1
102
RTVSPost2010Prop32
280
     0
102
RTVSPost2010PropOp32
 70
     1
102
RTVSPost2010Prop33
280
     0
102
RTVSPost2010PropOp33
 70
     1
102
RTVSPost2010Prop34
280
     0
102
RTVSPost2010PropOp34
 70
     1
102
RTVSPost2010Prop35
280
     0
102
RTVSPost2010PropOp35
 70
     1
102
RTVSPost2010Prop36
280
     0
102
RTVSPost2010PropOp36
 70
     1
102
RTVSPost2010Prop37
 90
       50
102
RTVSPost2010PropOp37
 70
     1
102
RTVSPost2010Prop38
140
0.0
102
RTVSPost2010PropOp38
 70
     1
102
RTVSPost2010Prop39
140
1.0
102
RTVSPost2010PropOp39
 70
     1
102
RTVSPost2010Prop40
 90
        0
102
RTVSPost2010PropOp40
 70
     1
102
RTVSPost2010Prop41ColorIndex
 90
       18
102
RTVSPost2010Prop41ColorRGB
 90
        0
102
RTVSPost2010PropOp41
 70
     1
102
RTVSPost2010Prop42
 90
       50
102
RTVSPost2010PropOp42
 70
     1
102
RTVSPost2010Prop43
 90
        3
102
RTVSPost2010PropOp43
 70
     1
102
RTVSPost2010Prop44ColorIndex
 90
        5
102
RTVSPost2010Prop44ColorRGB
 90
      255
102
RTVSPost2010PropOp44
 70
     1
102
RTVSPost2010Prop45
280
     0
102
RTVSPost2010PropOp45
 70
     1
102
RTVSPost2010Prop46
 90
       50
102
RTVSPost2010PropOp46
 70
     1
102
RTVSPost2010Prop47
 90
       50
102
RTVSPost2010PropOp47
 70
     1
102
RTVSPost2010Prop48
 90
       50
102
RTVSPost2010PropOp48
 70
     1
102
RTVSPost2010Prop49
280
     0
102
RTVSPost2010PropOp49
 70
     1
102
RTVSPost2010Prop50
 90
       50
102
RTVSPost2010PropOp50
 70
     1
102
RTVSPost2010Prop51ColorIndex
 90
      256
102
RTVSPost2010Prop51ColorRGB
 90
-16777216
102
RTVSPost2010PropOp51
 70
     0
102
RTVSPost2010Prop52
140
1.0
102
RTVSPost2010PropOp52
 70
     0
102
RTVSPost2010Prop53
 90
        2
102
RTVSPost2010PropOp53
 70
     1
102
RTVSPost2010Prop54
  1
strokes_ogs.tif
102
RTVSPost2010PropOp54
 70
     1
102
RTVSPost2010Prop55
280
     0
102
RTVSPost2010PropOp55
 70
     1
102
RTVSPost2010Prop56
140
1.0
102
RTVSPost2010PropOp56
 70
     1
102
RTVSPost2010Prop57
140
1.0
102
RTVSPost2010PropOp57
 70
     1
  0
XRECORD
  5
3EF
102
{ACAD_REACTORS
330
3EE
102
}
330
3EE
100
AcDbXrecord
280
     1
102
RTVSPost2010Prop28
280
     0
102
RTVSPost2010PropOp28
 70
     1
102
RTVSPost2010Prop29
280
     1
102
RTVSPost2010PropOp29
 70
     1
102
RTVSPost2010Prop30
280
     1
102
RTVSPost2010PropOp30
 70
     1
102
RTVSPost2010Prop31
280
     0
102
RTVSPost2010PropOp31
 70
     1
102
RTVSPost2010Prop32
280
     0
102
RTVSPost2010PropOp32
 70
     1
102
RTVSPost2010Prop33
280
     0
102
RTVSPost2010PropOp33
 70
     1
102
RTVSPost2010Prop34
280
     0
102
RTVSPost2010PropOp34
 70
     1
102
RTVSPost2010Prop35
280
     0
102
RTVSPost2010PropOp35
 70
     1
102
RTVSPost2010Prop36
280
     0
102
RTVSPost2010PropOp36
 70
     1
102
RTVSPost2010Prop37
 90
       50
102
RTVSPost2010PropOp37
 70
     1
102
RTVSPost2010Prop38
140
0.0
102
RTVSPost2010PropOp38
 70
     1
102
RTVSPost2010Prop39
140
1.0
102
RTVSPost2010PropOp39
 70
     1
102
RTVSPost2010Prop40
 90
        0
102
RTVSPost2010PropOp40
 70
     1
102
RTVSPost2010Prop41ColorIndex
 90
       18
102
RTVSPost2010Prop41ColorRGB
 90
        0
102
RTVSPost2010PropOp41
 70
     1
102
RTVSPost2010Prop42
 90
       50
102
RTVSPost2010PropOp42
 70
     1
102
RTVSPost2010Prop43
 90
        3
102
RTVSPost2010PropOp43
 70
     1
102
RTVSPost2010Prop44ColorIndex
 90
        5
102
RTVSPost2010Prop44ColorRGB
 90
      255
102
RTVSPost2010PropOp44
 70
     1
102
RTVSPost2010Prop45
280
     0
102
RTVSPost2010PropOp45
 70
     1
102
RTVSPost2010Prop46
 90
       50
102
RTVSPost2010PropOp46
 70
     1
102
RTVSPost2010Prop47
 90
       50
102
RTVSPost2010PropOp47
 70
     1
102
RTVSPost2010Prop48
 90
       50
102
RTVSPost2010PropOp48
 70
     1
102
RTVSPost2010Prop49
280
     0
102
RTVSPost2010PropOp49
 70
     1
102
RTVSPost2010Prop50
 90
       50
102
RTVSPost2010PropOp50
 70
     1
102
RTVSPost2010Prop51ColorIndex
 90
      256
102
RTVSPost2010Prop51ColorRGB
 90
-16777216
102
RTVSPost2010PropOp51
 70
     0
102
RTVSPost2010Prop52
140
1.0
102
RTVSPost2010PropOp52
 70
     0
102
RTVSPost2010Prop53
 90
        2
102
RTVSPost2010PropOp53
 70
     1
102
RTVSPost2010Prop54
  1
strokes_ogs.tif
102
RTVSPost2010PropOp54
 70
     1
102
RTVSPost2010Prop55
280
     0
102
RTVSPost2010PropOp55
 70
     1
102
RTVSPost2010Prop56
140
1.0
102
RTVSPost2010PropOp56
 70
     1
102
RTVSPost2010Prop57
140
1.0
102
RTVSPost2010PropOp57
 70
     1
  0
XRECORD
  5
3F1
102
{ACAD_REACTORS
330
3F0
102
}
330
3F0
100
AcDbXrecord
280
     1
102
RTVSPost2010Prop28
280
     0
102
RTVSPost2010PropOp28
 70
     1
102
RTVSPost2010Prop29
280
     1
102
RTVSPost2010PropOp29
 70
     1
102
RTVSPost2010Prop30
280
     1
102
RTVSPost2010PropOp30
 70
     1
102
RTVSPost2010Prop31
280
     0
102
RTVSPost2010PropOp31
 70
     1
102
RTVSPost2010Prop32
280
     0
102
RTVSPost2010PropOp32
 70
     1
102
RTVSPost2010Prop33
280
     0
102
RTVSPost2010PropOp33
 70
     1
102
RTVSPost2010Prop34
280
     0
102
RTVSPost2010PropOp34
 70
     1
102
RTVSPost2010Prop35
280
     0
102
RTVSPost2010PropOp35
 70
     1
102
RTVSPost2010Prop36
280
     0
102
RTVSPost2010PropOp36
 70
     1
102
RTVSPost2010Prop37
 90
       50
102
RTVSPost2010PropOp37
 70
     1
102
RTVSPost2010Prop38
140
0.0
102
RTVSPost2010PropOp38
 70
     1
102
RTVSPost2010Prop39
140
1.0
102
RTVSPost2010PropOp39
 70
     1
102
RTVSPost2010Prop40
 90
        0
102
RTVSPost2010PropOp40
 70
     1
102
RTVSPost2010Prop41ColorIndex
 90
       18
102
RTVSPost2010Prop41ColorRGB
 90
        0
102
RTVSPost2010PropOp41
 70
     1
102
RTVSPost2010Prop42
 90
       50
102
RTVSPost2010PropOp42
 70
     1
102
RTVSPost2010Prop43
 90
        3
102
RTVSPost2010PropOp43
 70
     1
102
RTVSPost2010Prop44ColorIndex
 90
        5
102
RTVSPost2010Prop44ColorRGB
 90
      255
102
RTVSPost2010PropOp44
 70
     1
102
RTVSPost2010Prop45
280
     0
102
RTVSPost2010PropOp45
 70
     1
102
RTVSPost2010Prop46
 90
       50
102
RTVSPost2010PropOp46
 70
     1
102
RTVSPost2010Prop47
 90
       50
102
RTVSPost2010PropOp47
 70
     1
102
RTVSPost2010Prop48
 90
       50
102
RTVSPost2010PropOp48
 70
     1
102
RTVSPost2010Prop49
280
     0
102
RTVSPost2010PropOp49
 70
     1
102
RTVSPost2010Prop50
 90
       50
102
RTVSPost2010PropOp50
 70
     1
102
RTVSPost2010Prop51ColorIndex
 90
      256
102
RTVSPost2010Prop51ColorRGB
 90
-16777216
102
RTVSPost2010PropOp51
 70
     0
102
RTVSPost2010Prop52
140
1.0
102
RTVSPost2010PropOp52
 70
     0
102
RTVSPost2010Prop53
 90
        2
102
RTVSPost2010PropOp53
 70
     1
102
RTVSPost2010Prop54
  1
strokes_ogs.tif
102
RTVSPost2010PropOp54
 70
     1
102
RTVSPost2010Prop55
280
     0
102
RTVSPost2010PropOp55
 70
     1
102
RTVSPost2010Prop56
140
1.0
102
RTVSPost2010PropOp56
 70
     1
102
RTVSPost2010Prop57
140
1.0
102
RTVSPost2010PropOp57
 70
     1
  0
XRECORD
  5
40F
102
{ACAD_REACTORS
330
40E
102
}
330
40E
100
AcDbXrecord
280
     1
102
RTVSPost2010Prop28
280
     0
102
RTVSPost2010PropOp28
 70
     0
102
RTVSPost2010Prop29
280
     1
102
RTVSPost2010PropOp29
 70
     0
102
RTVSPost2010Prop30
280
     1
102
RTVSPost2010PropOp30
 70
     0
102
RTVSPost2010Prop31
280
     0
102
RTVSPost2010PropOp31
 70
     0
102
RTVSPost2010Prop32
280
     0
102
RTVSPost2010PropOp32
 70
     0
102
RTVSPost2010Prop33
280
     0
102
RTVSPost2010PropOp33
 70
     0
102
RTVSPost2010Prop34
280
     0
102
RTVSPost2010PropOp34
 70
     0
102
RTVSPost2010Prop35
280
     0
102
RTVSPost2010PropOp35
 70
     0
102
RTVSPost2010Prop36
280
     0
102
RTVSPost2010PropOp36
 70
     0
102
RTVSPost2010Prop37
 90
       50
102
RTVSPost2010PropOp37
 70
     0
102
RTVSPost2010Prop38
140
0.0
102
RTVSPost2010PropOp38
 70
     0
102
RTVSPost2010Prop39
140
1.0
102
RTVSPost2010PropOp39
 70
     0
102
RTVSPost2010Prop40
 90
        0
102
RTVSPost2010PropOp40
 70
     0
102
RTVSPost2010Prop41ColorIndex
 90
       18
102
RTVSPost2010Prop41ColorRGB
 90
        0
102
RTVSPost2010PropOp41
 70
     0
102
RTVSPost2010Prop42
 90
       50
102
RTVSPost2010PropOp42
 70
     0
102
RTVSPost2010Prop43
 90
        3
102
RTVSPost2010PropOp43
 70
     0
102
RTVSPost2010Prop44ColorIndex
 90
        5
102
RTVSPost2010Prop44ColorRGB
 90
      255
102
RTVSPost2010PropOp44
 70
     0
102
RTVSPost2010Prop45
280
     0
102
RTVSPost2010PropOp45
 70
     0
102
RTVSPost2010Prop46
 90
       50
102
RTVSPost2010PropOp46
 70
     0
102
RTVSPost2010Prop47
 90
       50
102
RTVSPost2010PropOp47
 70
     0
102
RTVSPost2010Prop48
 90
       50
102
RTVSPost2010PropOp48
 70
     0
102
RTVSPost2010Prop49
280
     0
102
RTVSPost2010PropOp49
 70
     0
102
RTVSPost2010Prop50
 90
       50
102
RTVSPost2010PropOp50
 70
     0
102
RTVSPost2010Prop51ColorIndex
 90
      256
102
RTVSPost2010Prop51ColorRGB
 90
-16777216
102
RTVSPost2010PropOp51
 70
     0
102
RTVSPost2010Prop52
140
1.0
102
RTVSPost2010PropOp52
 70
     0
102
RTVSPost2010Prop53
 90
        2
102
RTVSPost2010PropOp53
 70
     0
102
RTVSPost2010Prop54
  1
strokes_ogs.tif
102
RTVSPost2010PropOp54
 70
     0
102
RTVSPost2010Prop55
280
     0
102
RTVSPost2010PropOp55
 70
     0
102
RTVSPost2010Prop56
140
1.0
102
RTVSPost2010PropOp56
 70
     0
102
RTVSPost2010Prop57
140
1.0
102
RTVSPost2010PropOp57
 70
     0
  0
XRECORD
  5
3F9
102
{ACAD_REACTORS
330
3F8
102
}
330
3F8
100
AcDbXrecord
280
     1
102
RTVSPost2010Prop28
280
     0
102
RTVSPost2010PropOp28
 70
     1
102
RTVSPost2010Prop29
280
     1
102
RTVSPost2010PropOp29
 70
     1
102
RTVSPost2010Prop30
280
     1
102
RTVSPost2010PropOp30
 70
     1
102
RTVSPost2010Prop31
280
     0
102
RTVSPost2010PropOp31
 70
     1
102
RTVSPost2010Prop32
280
     0
102
RTVSPost2010PropOp32
 70
     1
102
RTVSPost2010Prop33
280
     0
102
RTVSPost2010PropOp33
 70
     1
102
RTVSPost2010Prop34
280
     0
102
RTVSPost2010PropOp34
 70
     1
102
RTVSPost2010Prop35
280
     0
102
RTVSPost2010PropOp35
 70
     1
102
RTVSPost2010Prop36
280
     0
102
RTVSPost2010PropOp36
 70
     1
102
RTVSPost2010Prop37
 90
       50
102
RTVSPost2010PropOp37
 70
     1
102
RTVSPost2010Prop38
140
0.0
102
RTVSPost2010PropOp38
 70
     1
102
RTVSPost2010Prop39
140
1.0
102
RTVSPost2010PropOp39
 70
     1
102
RTVSPost2010Prop40
 90
        0
102
RTVSPost2010PropOp40
 70
     1
102
RTVSPost2010Prop41ColorIndex
 90
       18
102
RTVSPost2010Prop41ColorRGB
 90
        0
102
RTVSPost2010PropOp41
 70
     1
102
RTVSPost2010Prop42
 90
       50
102
RTVSPost2010PropOp42
 70
     1
102
RTVSPost2010Prop43
 90
        3
102
RTVSPost2010PropOp43
 70
     1
102
RTVSPost2010Prop44ColorIndex
 90
        5
102
RTVSPost2010Prop44ColorRGB
 90
      255
102
RTVSPost2010PropOp44
 70
     1
102
RTVSPost2010Prop45
280
     0
102
RTVSPost2010PropOp45
 70
     1
102
RTVSPost2010Prop46
 90
       50
102
RTVSPost2010PropOp46
 70
     1
102
RTVSPost2010Prop47
 90
       50
102
RTVSPost2010PropOp47
 70
     1
102
RTVSPost2010Prop48
 90
       50
102
RTVSPost2010PropOp48
 70
     1
102
RTVSPost2010Prop49
280
     0
102
RTVSPost2010PropOp49
 70
     1
102
RTVSPost2010Prop50
 90
       50
102
RTVSPost2010PropOp50
 70
     1
102
RTVSPost2010Prop51ColorIndex
 90
      256
102
RTVSPost2010Prop51ColorRGB
 90
-16777216
102
RTVSPost2010PropOp51
 70
     0
102
RTVSPost2010Prop52
140
1.0
102
RTVSPost2010PropOp52
 70
     0
102
RTVSPost2010Prop53
 90
        2
102
RTVSPost2010PropOp53
 70
     1
102
RTVSPost2010Prop54
  1
strokes_ogs.tif
102
RTVSPost2010PropOp54
 70
     1
102
RTVSPost2010Prop55
280
     0
102
RTVSPost2010PropOp55
 70
     1
102
RTVSPost2010Prop56
140
1.0
102
RTVSPost2010PropOp56
 70
     1
102
RTVSPost2010Prop57
140
1.0
102
RTVSPost2010PropOp57
 70
     1
  0
XRECORD
  5
3DD
102
{ACAD_REACTORS
330
3DC
102
}
330
3DC
100
AcDbXrecord
280
     1
102
RTVSPost2010Prop28
280
     0
102
RTVSPost2010PropOp28
 70
     1
102
RTVSPost2010Prop29
280
     1
102
RTVSPost2010PropOp29
 70
     1
102
RTVSPost2010Prop30
280
     1
102
RTVSPost2010PropOp30
 70
     1
102
RTVSPost2010Prop31
280
     0
102
RTVSPost2010PropOp31
 70
     1
102
RTVSPost2010Prop32
280
     0
102
RTVSPost2010PropOp32
 70
     1
102
RTVSPost2010Prop33
280
     0
102
RTVSPost2010PropOp33
 70
     1
102
RTVSPost2010Prop34
280
     0
102
RTVSPost2010PropOp34
 70
     1
102
RTVSPost2010Prop35
280
     0
102
RTVSPost2010PropOp35
 70
     1
102
RTVSPost2010Prop36
280
     0
102
RTVSPost2010PropOp36
 70
     1
102
RTVSPost2010Prop37
 90
       50
102
RTVSPost2010PropOp37
 70
     1
102
RTVSPost2010Prop38
140
0.0
102
RTVSPost2010PropOp38
 70
     1
102
RTVSPost2010Prop39
140
1.0
102
RTVSPost2010PropOp39
 70
     1
102
RTVSPost2010Prop40
 90
        0
102
RTVSPost2010PropOp40
 70
     1
102
RTVSPost2010Prop41ColorIndex
 90
       18
102
RTVSPost2010Prop41ColorRGB
 90
        0
102
RTVSPost2010PropOp41
 70
     1
102
RTVSPost2010Prop42
 90
       50
102
RTVSPost2010PropOp42
 70
     1
102
RTVSPost2010Prop43
 90
        3
102
RTVSPost2010PropOp43
 70
     1
102
RTVSPost2010Prop44ColorIndex
 90
        5
102
RTVSPost2010Prop44ColorRGB
 90
      255
102
RTVSPost2010PropOp44
 70
     1
102
RTVSPost2010Prop45
280
     0
102
RTVSPost2010PropOp45
 70
     1
102
RTVSPost2010Prop46
 90
       50
102
RTVSPost2010PropOp46
 70
     1
102
RTVSPost2010Prop47
 90
       50
102
RTVSPost2010PropOp47
 70
     1
102
RTVSPost2010Prop48
 90
       50
102
RTVSPost2010PropOp48
 70
     1
102
RTVSPost2010Prop49
280
     0
102
RTVSPost2010PropOp49
 70
     1
102
RTVSPost2010Prop50
 90
       50
102
RTVSPost2010PropOp50
 70
     1
102
RTVSPost2010Prop51ColorIndex
 90
      256
102
RTVSPost2010Prop51ColorRGB
 90
-16777216
102
RTVSPost2010PropOp51
 70
     0
102
RTVSPost2010Prop52
140
1.0
102
RTVSPost2010PropOp52
 70
     0
102
RTVSPost2010Prop53
 90
        2
102
RTVSPost2010PropOp53
 70
     1
102
RTVSPost2010Prop54
  1
strokes_ogs.tif
102
RTVSPost2010PropOp54
 70
     1
102
RTVSPost2010Prop55
280
     0
102
RTVSPost2010PropOp55
 70
     1
102
RTVSPost2010Prop56
140
1.0
102
RTVSPost2010PropOp56
 70
     1
102
RTVSPost2010Prop57
140
1.0
102
RTVSPost2010PropOp57
 70
     1
  0
XRECORD
  5
3DF
102
{ACAD_REACTORS
330
3DE
102
}
330
3DE
100
AcDbXrecord
280
     1
102
RTVSPost2010Prop28
280
     0
102
RTVSPost2010PropOp28
 70
     1
102
RTVSPost2010Prop29
280
     1
102
RTVSPost2010PropOp29
 70
     1
102
RTVSPost2010Prop30
280
     1
102
RTVSPost2010PropOp30
 70
     1
102
RTVSPost2010Prop31
280
     0
102
RTVSPost2010PropOp31
 70
     1
102
RTVSPost2010Prop32
280
     0
102
RTVSPost2010PropOp32
 70
     1
102
RTVSPost2010Prop33
280
     0
102
RTVSPost2010PropOp33
 70
     1
102
RTVSPost2010Prop34
280
     0
102
RTVSPost2010PropOp34
 70
     1
102
RTVSPost2010Prop35
280
     0
102
RTVSPost2010PropOp35
 70
     1
102
RTVSPost2010Prop36
280
     0
102
RTVSPost2010PropOp36
 70
     1
102
RTVSPost2010Prop37
 90
       50
102
RTVSPost2010PropOp37
 70
     1
102
RTVSPost2010Prop38
140
0.0
102
RTVSPost2010PropOp38
 70
     1
102
RTVSPost2010Prop39
140
1.0
102
RTVSPost2010PropOp39
 70
     1
102
RTVSPost2010Prop40
 90
        0
102
RTVSPost2010PropOp40
 70
     1
102
RTVSPost2010Prop41ColorIndex
 90
       18
102
RTVSPost2010Prop41ColorRGB
 90
        0
102
RTVSPost2010PropOp41
 70
     1
102
RTVSPost2010Prop42
 90
       50
102
RTVSPost2010PropOp42
 70
     1
102
RTVSPost2010Prop43
 90
        3
102
RTVSPost2010PropOp43
 70
     1
102
RTVSPost2010Prop44ColorIndex
 90
        5
102
RTVSPost2010Prop44ColorRGB
 90
      255
102
RTVSPost2010PropOp44
 70
     1
102
RTVSPost2010Prop45
280
     0
102
RTVSPost2010PropOp45
 70
     1
102
RTVSPost2010Prop46
 90
       50
102
RTVSPost2010PropOp46
 70
     1
102
RTVSPost2010Prop47
 90
       50
102
RTVSPost2010PropOp47
 70
     1
102
RTVSPost2010Prop48
 90
       50
102
RTVSPost2010PropOp48
 70
     1
102
RTVSPost2010Prop49
280
     0
102
RTVSPost2010PropOp49
 70
     1
102
RTVSPost2010Prop50
 90
       50
102
RTVSPost2010PropOp50
 70
     1
102
RTVSPost2010Prop51ColorIndex
 90
      256
102
RTVSPost2010Prop51ColorRGB
 90
-16777216
102
RTVSPost2010PropOp51
 70
     0
102
RTVSPost2010Prop52
140
1.0
102
RTVSPost2010PropOp52
 70
     0
102
RTVSPost2010Prop53
 90
        2
102
RTVSPost2010PropOp53
 70
     1
102
RTVSPost2010Prop54
  1
strokes_ogs.tif
102
RTVSPost2010PropOp54
 70
     1
102
RTVSPost2010Prop55
280
     0
102
RTVSPost2010PropOp55
 70
     1
102
RTVSPost2010Prop56
140
1.0
102
RTVSPost2010PropOp56
 70
     1
102
RTVSPost2010Prop57
140
1.0
102
RTVSPost2010PropOp57
 70
     1
  0
XRECORD
  5
3E1
102
{ACAD_REACTORS
330
3E0
102
}
330
3E0
100
AcDbXrecord
280
     1
102
RTVSPost2010Prop28
280
     0
102
RTVSPost2010PropOp28
 70
     1
102
RTVSPost2010Prop29
280
     1
102
RTVSPost2010PropOp29
 70
     1
102
RTVSPost2010Prop30
280
     1
102
RTVSPost2010PropOp30
 70
     1
102
RTVSPost2010Prop31
280
     0
102
RTVSPost2010PropOp31
 70
     1
102
RTVSPost2010Prop32
280
     0
102
RTVSPost2010PropOp32
 70
     1
102
RTVSPost2010Prop33
280
     0
102
RTVSPost2010PropOp33
 70
     1
102
RTVSPost2010Prop34
280
     0
102
RTVSPost2010PropOp34
 70
     1
102
RTVSPost2010Prop35
280
     0
102
RTVSPost2010PropOp35
 70
     1
102
RTVSPost2010Prop36
280
     0
102
RTVSPost2010PropOp36
 70
     1
102
RTVSPost2010Prop37
 90
       50
102
RTVSPost2010PropOp37
 70
     1
102
RTVSPost2010Prop38
140
0.0
102
RTVSPost2010PropOp38
 70
     1
102
RTVSPost2010Prop39
140
1.0
102
RTVSPost2010PropOp39
 70
     1
102
RTVSPost2010Prop40
 90
        0
102
RTVSPost2010PropOp40
 70
     1
102
RTVSPost2010Prop41ColorIndex
 90
       18
102
RTVSPost2010Prop41ColorRGB
 90
        0
102
RTVSPost2010PropOp41
 70
     1
102
RTVSPost2010Prop42
 90
       50
102
RTVSPost2010PropOp42
 70
     1
102
RTVSPost2010Prop43
 90
        3
102
RTVSPost2010PropOp43
 70
     1
102
RTVSPost2010Prop44ColorIndex
 90
        5
102
RTVSPost2010Prop44ColorRGB
 90
      255
102
RTVSPost2010PropOp44
 70
     1
102
RTVSPost2010Prop45
280
     0
102
RTVSPost2010PropOp45
 70
     1
102
RTVSPost2010Prop46
 90
       50
102
RTVSPost2010PropOp46
 70
     1
102
RTVSPost2010Prop47
 90
       50
102
RTVSPost2010PropOp47
 70
     1
102
RTVSPost2010Prop48
 90
       50
102
RTVSPost2010PropOp48
 70
     1
102
RTVSPost2010Prop49
280
     0
102
RTVSPost2010PropOp49
 70
     1
102
RTVSPost2010Prop50
 90
       50
102
RTVSPost2010PropOp50
 70
     1
102
RTVSPost2010Prop51ColorIndex
 90
      256
102
RTVSPost2010Prop51ColorRGB
 90
-16777216
102
RTVSPost2010PropOp51
 70
     0
102
RTVSPost2010Prop52
140
1.0
102
RTVSPost2010PropOp52
 70
     0
102
RTVSPost2010Prop53
 90
        2
102
RTVSPost2010PropOp53
 70
     1
102
RTVSPost2010Prop54
  1
strokes_ogs.tif
102
RTVSPost2010PropOp54
 70
     1
102
RTVSPost2010Prop55
280
     0
102
RTVSPost2010PropOp55
 70
     1
102
RTVSPost2010Prop56
140
1.0
102
RTVSPost2010PropOp56
 70
     1
102
RTVSPost2010Prop57
140
1.0
102
RTVSPost2010PropOp57
 70
     1
  0
XRECORD
  5
3E3
102
{ACAD_REACTORS
330
3E2
102
}
330
3E2
100
AcDbXrecord
280
     1
102
RTVSPost2010Prop28
280
     0
102
RTVSPost2010PropOp28
 70
     1
102
RTVSPost2010Prop29
280
     1
102
RTVSPost2010PropOp29
 70
     1
102
RTVSPost2010Prop30
280
     1
102
RTVSPost2010PropOp30
 70
     1
102
RTVSPost2010Prop31
280
     0
102
RTVSPost2010PropOp31
 70
     1
102
RTVSPost2010Prop32
280
     0
102
RTVSPost2010PropOp32
 70
     1
102
RTVSPost2010Prop33
280
     0
102
RTVSPost2010PropOp33
 70
     1
102
RTVSPost2010Prop34
280
     0
102
RTVSPost2010PropOp34
 70
     1
102
RTVSPost2010Prop35
280
     0
102
RTVSPost2010PropOp35
 70
     1
102
RTVSPost2010Prop36
280
     0
102
RTVSPost2010PropOp36
 70
     1
102
RTVSPost2010Prop37
 90
       50
102
RTVSPost2010PropOp37
 70
     1
102
RTVSPost2010Prop38
140
0.0
102
RTVSPost2010PropOp38
 70
     1
102
RTVSPost2010Prop39
140
1.0
102
RTVSPost2010PropOp39
 70
     1
102
RTVSPost2010Prop40
 90
        0
102
RTVSPost2010PropOp40
 70
     1
102
RTVSPost2010Prop41ColorIndex
 90
       18
102
RTVSPost2010Prop41ColorRGB
 90
        0
102
RTVSPost2010PropOp41
 70
     1
102
RTVSPost2010Prop42
 90
       50
102
RTVSPost2010PropOp42
 70
     1
102
RTVSPost2010Prop43
 90
        3
102
RTVSPost2010PropOp43
 70
     1
102
RTVSPost2010Prop44ColorIndex
 90
        5
102
RTVSPost2010Prop44ColorRGB
 90
      255
102
RTVSPost2010PropOp44
 70
     1
102
RTVSPost2010Prop45
280
     0
102
RTVSPost2010PropOp45
 70
     1
102
RTVSPost2010Prop46
 90
       50
102
RTVSPost2010PropOp46
 70
     1
102
RTVSPost2010Prop47
 90
       50
102
RTVSPost2010PropOp47
 70
     1
102
RTVSPost2010Prop48
 90
       50
102
RTVSPost2010PropOp48
 70
     1
102
RTVSPost2010Prop49
280
     0
102
RTVSPost2010PropOp49
 70
     1
102
RTVSPost2010Prop50
 90
       50
102
RTVSPost2010PropOp50
 70
     1
102
RTVSPost2010Prop51ColorIndex
 90
      256
102
RTVSPost2010Prop51ColorRGB
 90
-16777216
102
RTVSPost2010PropOp51
 70
     0
102
RTVSPost2010Prop52
140
1.0
102
RTVSPost2010PropOp52
 70
     0
102
RTVSPost2010Prop53
 90
        2
102
RTVSPost2010PropOp53
 70
     1
102
RTVSPost2010Prop54
  1
strokes_ogs.tif
102
RTVSPost2010PropOp54
 70
     1
102
RTVSPost2010Prop55
280
     0
102
RTVSPost2010PropOp55
 70
     1
102
RTVSPost2010Prop56
140
1.0
102
RTVSPost2010PropOp56
 70
     1
102
RTVSPost2010Prop57
140
1.0
102
RTVSPost2010PropOp57
 70
     1
  0
XRECORD
  5
3FF
102
{ACAD_REACTORS
330
3FE
102
}
330
3FE
100
AcDbXrecord
280
     1
102
RTVSPost2010Prop28
280
     0
102
RTVSPost2010PropOp28
 70
     1
102
RTVSPost2010Prop29
280
     1
102
RTVSPost2010PropOp29
 70
     1
102
RTVSPost2010Prop30
280
     1
102
RTVSPost2010PropOp30
 70
     1
102
RTVSPost2010Prop31
280
     0
102
RTVSPost2010PropOp31
 70
     1
102
RTVSPost2010Prop32
280
     0
102
RTVSPost2010PropOp32
 70
     1
102
RTVSPost2010Prop33
280
     0
102
RTVSPost2010PropOp33
 70
     1
102
RTVSPost2010Prop34
280
     0
102
RTVSPost2010PropOp34
 70
     1
102
RTVSPost2010Prop35
280
     0
102
RTVSPost2010PropOp35
 70
     1
102
RTVSPost2010Prop36
280
     0
102
RTVSPost2010PropOp36
 70
     1
102
RTVSPost2010Prop37
 90
       50
102
RTVSPost2010PropOp37
 70
     1
102
RTVSPost2010Prop38
140
0.0
102
RTVSPost2010PropOp38
 70
     1
102
RTVSPost2010Prop39
140
1.0
102
RTVSPost2010PropOp39
 70
     1
102
RTVSPost2010Prop40
 90
        0
102
RTVSPost2010PropOp40
 70
     1
102
RTVSPost2010Prop41ColorIndex
 90
       18
102
RTVSPost2010Prop41ColorRGB
 90
        0
102
RTVSPost2010PropOp41
 70
     1
102
RTVSPost2010Prop42
 90
       50
102
RTVSPost2010PropOp42
 70
     1
102
RTVSPost2010Prop43
 90
        3
102
RTVSPost2010PropOp43
 70
     1
102
RTVSPost2010Prop44ColorIndex
 90
        5
102
RTVSPost2010Prop44ColorRGB
 90
      255
102
RTVSPost2010PropOp44
 70
     1
102
RTVSPost2010Prop45
280
     0
102
RTVSPost2010PropOp45
 70
     1
102
RTVSPost2010Prop46
 90
       50
102
RTVSPost2010PropOp46
 70
     1
102
RTVSPost2010Prop47
 90
       50
102
RTVSPost2010PropOp47
 70
     1
102
RTVSPost2010Prop48
 90
       50
102
RTVSPost2010PropOp48
 70
     1
102
RTVSPost2010Prop49
280
     0
102
RTVSPost2010PropOp49
 70
     1
102
RTVSPost2010Prop50
 90
       50
102
RTVSPost2010PropOp50
 70
     1
102
RTVSPost2010Prop51ColorIndex
 90
      256
102
RTVSPost2010Prop51ColorRGB
 90
-16777216
102
RTVSPost2010PropOp51
 70
     0
102
RTVSPost2010Prop52
140
1.0
102
RTVSPost2010PropOp52
 70
     0
102
RTVSPost2010Prop53
 90
        2
102
RTVSPost2010PropOp53
 70
     1
102
RTVSPost2010Prop54
  1
strokes_ogs.tif
102
RTVSPost2010PropOp54
 70
     1
102
RTVSPost2010Prop55
280
     0
102
RTVSPost2010PropOp55
 70
     1
102
RTVSPost2010Prop56
140
1.0
102
RTVSPost2010PropOp56
 70
     1
102
RTVSPost2010Prop57
140
1.0
102
RTVSPost2010PropOp57
 70
     1
  0
XRECORD
  5
40B
102
{ACAD_REACTORS
330
40A
102
}
330
40A
100
AcDbXrecord
280
     1
102
RTVSPost2010Prop28
280
     0
102
RTVSPost2010PropOp28
 70
     0
102
RTVSPost2010Prop29
280
     1
102
RTVSPost2010PropOp29
 70
     0
102
RTVSPost2010Prop30
280
     1
102
RTVSPost2010PropOp30
 70
     0
102
RTVSPost2010Prop31
280
     0
102
RTVSPost2010PropOp31
 70
     0
102
RTVSPost2010Prop32
280
     0
102
RTVSPost2010PropOp32
 70
     0
102
RTVSPost2010Prop33
280
     0
102
RTVSPost2010PropOp33
 70
     0
102
RTVSPost2010Prop34
280
     0
102
RTVSPost2010PropOp34
 70
     0
102
RTVSPost2010Prop35
280
     0
102
RTVSPost2010PropOp35
 70
     0
102
RTVSPost2010Prop36
280
     0
102
RTVSPost2010PropOp36
 70
     0
102
RTVSPost2010Prop37
 90
       50
102
RTVSPost2010PropOp37
 70
     0
102
RTVSPost2010Prop38
140
0.0
102
RTVSPost2010PropOp38
 70
     0
102
RTVSPost2010Prop39
140
1.0
102
RTVSPost2010PropOp39
 70
     0
102
RTVSPost2010Prop40
 90
        0
102
RTVSPost2010PropOp40
 70
     0
102
RTVSPost2010Prop41ColorIndex
 90
       18
102
RTVSPost2010Prop41ColorRGB
 90
        0
102
RTVSPost2010PropOp41
 70
     0
102
RTVSPost2010Prop42
 90
       50
102
RTVSPost2010PropOp42
 70
     0
102
RTVSPost2010Prop43
 90
        3
102
RTVSPost2010PropOp43
 70
     0
102
RTVSPost2010Prop44ColorIndex
 90
        5
102
RTVSPost2010Prop44ColorRGB
 90
      255
102
RTVSPost2010PropOp44
 70
     0
102
RTVSPost2010Prop45
280
     0
102
RTVSPost2010PropOp45
 70
     0
102
RTVSPost2010Prop46
 90
       50
102
RTVSPost2010PropOp46
 70
     0
102
RTVSPost2010Prop47
 90
       50
102
RTVSPost2010PropOp47
 70
     0
102
RTVSPost2010Prop48
 90
       50
102
RTVSPost2010PropOp48
 70
     0
102
RTVSPost2010Prop49
280
     0
102
RTVSPost2010PropOp49
 70
     0
102
RTVSPost2010Prop50
 90
       50
102
RTVSPost2010PropOp50
 70
     0
102
RTVSPost2010Prop51ColorIndex
 90
      256
102
RTVSPost2010Prop51ColorRGB
 90
-16777216
102
RTVSPost2010PropOp51
 70
     0
102
RTVSPost2010Prop52
140
1.0
102
RTVSPost2010PropOp52
 70
     0
102
RTVSPost2010Prop53
 90
        2
102
RTVSPost2010PropOp53
 70
     0
102
RTVSPost2010Prop54
  1
strokes_ogs.tif
102
RTVSPost2010PropOp54
 70
     0
102
RTVSPost2010Prop55
280
     0
102
RTVSPost2010PropOp55
 70
     0
102
RTVSPost2010Prop56
140
1.0
102
RTVSPost2010PropOp56
 70
     0
102
RTVSPost2010Prop57
140
1.0
102
RTVSPost2010PropOp57
 70
     0
  0
XRECORD
  5
3F7
102
{ACAD_REACTORS
330
3F6
102
}
330
3F6
100
AcDbXrecord
280
     1
102
RTVSPost2010Prop28
280
     0
102
RTVSPost2010PropOp28
 70
     1
102
RTVSPost2010Prop29
280
     1
102
RTVSPost2010PropOp29
 70
     1
102
RTVSPost2010Prop30
280
     1
102
RTVSPost2010PropOp30
 70
     1
102
RTVSPost2010Prop31
280
     0
102
RTVSPost2010PropOp31
 70
     1
102
RTVSPost2010Prop32
280
     0
102
RTVSPost2010PropOp32
 70
     1
102
RTVSPost2010Prop33
280
     0
102
RTVSPost2010PropOp33
 70
     1
102
RTVSPost2010Prop34
280
     0
102
RTVSPost2010PropOp34
 70
     1
102
RTVSPost2010Prop35
280
     0
102
RTVSPost2010PropOp35
 70
     1
102
RTVSPost2010Prop36
280
     0
102
RTVSPost2010PropOp36
 70
     1
102
RTVSPost2010Prop37
 90
       50
102
RTVSPost2010PropOp37
 70
     1
102
RTVSPost2010Prop38
140
0.0
102
RTVSPost2010PropOp38
 70
     1
102
RTVSPost2010Prop39
140
1.0
102
RTVSPost2010PropOp39
 70
     1
102
RTVSPost2010Prop40
 90
        0
102
RTVSPost2010PropOp40
 70
     1
102
RTVSPost2010Prop41ColorIndex
 90
       18
102
RTVSPost2010Prop41ColorRGB
 90
        0
102
RTVSPost2010PropOp41
 70
     1
102
RTVSPost2010Prop42
 90
       50
102
RTVSPost2010PropOp42
 70
     1
102
RTVSPost2010Prop43
 90
        3
102
RTVSPost2010PropOp43
 70
     1
102
RTVSPost2010Prop44ColorIndex
 90
        5
102
RTVSPost2010Prop44ColorRGB
 90
      255
102
RTVSPost2010PropOp44
 70
     1
102
RTVSPost2010Prop45
280
     0
102
RTVSPost2010PropOp45
 70
     1
102
RTVSPost2010Prop46
 90
       50
102
RTVSPost2010PropOp46
 70
     1
102
RTVSPost2010Prop47
 90
       50
102
RTVSPost2010PropOp47
 70
     1
102
RTVSPost2010Prop48
 90
       50
102
RTVSPost2010PropOp48
 70
     1
102
RTVSPost2010Prop49
280
     0
102
RTVSPost2010PropOp49
 70
     1
102
RTVSPost2010Prop50
 90
       50
102
RTVSPost2010PropOp50
 70
     1
102
RTVSPost2010Prop51ColorIndex
 90
      256
102
RTVSPost2010Prop51ColorRGB
 90
-16777216
102
RTVSPost2010PropOp51
 70
     0
102
RTVSPost2010Prop52
140
1.0
102
RTVSPost2010PropOp52
 70
     0
102
RTVSPost2010Prop53
 90
        2
102
RTVSPost2010PropOp53
 70
     1
102
RTVSPost2010Prop54
  1
strokes_ogs.tif
102
RTVSPost2010PropOp54
 70
     1
102
RTVSPost2010Prop55
280
     0
102
RTVSPost2010PropOp55
 70
     1
102
RTVSPost2010Prop56
140
1.0
102
RTVSPost2010PropOp56
 70
     1
102
RTVSPost2010Prop57
140
1.0
102
RTVSPost2010PropOp57
 70
     1
  0
XRECORD
  5
40D
102
{ACAD_REACTORS
330
40C
102
}
330
40C
100
AcDbXrecord
280
     1
102
RTVSPost2010Prop28
280
     0
102
RTVSPost2010PropOp28
 70
     0
102
RTVSPost2010Prop29
280
     1
102
RTVSPost2010PropOp29
 70
     0
102
RTVSPost2010Prop30
280
     1
102
RTVSPost2010PropOp30
 70
     0
102
RTVSPost2010Prop31
280
     0
102
RTVSPost2010PropOp31
 70
     0
102
RTVSPost2010Prop32
280
     0
102
RTVSPost2010PropOp32
 70
     0
102
RTVSPost2010Prop33
280
     0
102
RTVSPost2010PropOp33
 70
     0
102
RTVSPost2010Prop34
280
     0
102
RTVSPost2010PropOp34
 70
     0
102
RTVSPost2010Prop35
280
     0
102
RTVSPost2010PropOp35
 70
     0
102
RTVSPost2010Prop36
280
     0
102
RTVSPost2010PropOp36
 70
     0
102
RTVSPost2010Prop37
 90
       50
102
RTVSPost2010PropOp37
 70
     0
102
RTVSPost2010Prop38
140
0.0
102
RTVSPost2010PropOp38
 70
     0
102
RTVSPost2010Prop39
140
1.0
102
RTVSPost2010PropOp39
 70
     0
102
RTVSPost2010Prop40
 90
        0
102
RTVSPost2010PropOp40
 70
     0
102
RTVSPost2010Prop41ColorIndex
 90
       18
102
RTVSPost2010Prop41ColorRGB
 90
        0
102
RTVSPost2010PropOp41
 70
     0
102
RTVSPost2010Prop42
 90
       50
102
RTVSPost2010PropOp42
 70
     0
102
RTVSPost2010Prop43
 90
        3
102
RTVSPost2010PropOp43
 70
     0
102
RTVSPost2010Prop44ColorIndex
 90
        5
102
RTVSPost2010Prop44ColorRGB
 90
      255
102
RTVSPost2010PropOp44
 70
     0
102
RTVSPost2010Prop45
280
     0
102
RTVSPost2010PropOp45
 70
     0
102
RTVSPost2010Prop46
 90
       50
102
RTVSPost2010PropOp46
 70
     0
102
RTVSPost2010Prop47
 90
       50
102
RTVSPost2010PropOp47
 70
     0
102
RTVSPost2010Prop48
 90
       50
102
RTVSPost2010PropOp48
 70
     0
102
RTVSPost2010Prop49
280
     0
102
RTVSPost2010PropOp49
 70
     0
102
RTVSPost2010Prop50
 90
       50
102
RTVSPost2010PropOp50
 70
     0
102
RTVSPost2010Prop51ColorIndex
 90
      256
102
RTVSPost2010Prop51ColorRGB
 90
-16777216
102
RTVSPost2010PropOp51
 70
     0
102
RTVSPost2010Prop52
140
1.0
102
RTVSPost2010PropOp52
 70
     0
102
RTVSPost2010Prop53
 90
        2
102
RTVSPost2010PropOp53
 70
     0
102
RTVSPost2010Prop54
  1
strokes_ogs.tif
102
RTVSPost2010PropOp54
 70
     0
102
RTVSPost2010Prop55
280
     0
102
RTVSPost2010PropOp55
 70
     0
102
RTVSPost2010Prop56
140
1.0
102
RTVSPost2010PropOp56
 70
     0
102
RTVSPost2010Prop57
140
1.0
102
RTVSPost2010PropOp57
 70
     0
  0
XRECORD
  5
3ED
102
{ACAD_REACTORS
330
3EC
102
}
330
3EC
100
AcDbXrecord
280
     1
102
RTVSPost2010Prop28
280
     0
102
RTVSPost2010PropOp28
 70
     1
102
RTVSPost2010Prop29
280
     1
102
RTVSPost2010PropOp29
 70
     1
102
RTVSPost2010Prop30
280
     1
102
RTVSPost2010PropOp30
 70
     1
102
RTVSPost2010Prop31
280
     0
102
RTVSPost2010PropOp31
 70
     1
102
RTVSPost2010Prop32
280
     0
102
RTVSPost2010PropOp32
 70
     1
102
RTVSPost2010Prop33
280
     0
102
RTVSPost2010PropOp33
 70
     1
102
RTVSPost2010Prop34
280
     0
102
RTVSPost2010PropOp34
 70
     1
102
RTVSPost2010Prop35
280
     0
102
RTVSPost2010PropOp35
 70
     1
102
RTVSPost2010Prop36
280
     0
102
RTVSPost2010PropOp36
 70
     1
102
RTVSPost2010Prop37
 90
       50
102
RTVSPost2010PropOp37
 70
     1
102
RTVSPost2010Prop38
140
0.0
102
RTVSPost2010PropOp38
 70
     1
102
RTVSPost2010Prop39
140
1.0
102
RTVSPost2010PropOp39
 70
     1
102
RTVSPost2010Prop40
 90
        0
102
RTVSPost2010PropOp40
 70
     1
102
RTVSPost2010Prop41ColorIndex
 90
       18
102
RTVSPost2010Prop41ColorRGB
 90
        0
102
RTVSPost2010PropOp41
 70
     1
102
RTVSPost2010Prop42
 90
       50
102
RTVSPost2010PropOp42
 70
     1
102
RTVSPost2010Prop43
 90
        3
102
RTVSPost2010PropOp43
 70
     1
102
RTVSPost2010Prop44ColorIndex
 90
        5
102
RTVSPost2010Prop44ColorRGB
 90
      255
102
RTVSPost2010PropOp44
 70
     1
102
RTVSPost2010Prop45
280
     0
102
RTVSPost2010PropOp45
 70
     1
102
RTVSPost2010Prop46
 90
       50
102
RTVSPost2010PropOp46
 70
     1
102
RTVSPost2010Prop47
 90
       50
102
RTVSPost2010PropOp47
 70
     1
102
RTVSPost2010Prop48
 90
       50
102
RTVSPost2010PropOp48
 70
     1
102
RTVSPost2010Prop49
280
     0
102
RTVSPost2010PropOp49
 70
     1
102
RTVSPost2010Prop50
 90
       50
102
RTVSPost2010PropOp50
 70
     1
102
RTVSPost2010Prop51ColorIndex
 90
      256
102
RTVSPost2010Prop51ColorRGB
 90
-16777216
102
RTVSPost2010PropOp51
 70
     0
102
RTVSPost2010Prop52
140
1.0
102
RTVSPost2010PropOp52
 70
     0
102
RTVSPost2010Prop53
 90
        2
102
RTVSPost2010PropOp53
 70
     1
102
RTVSPost2010Prop54
  1
strokes_ogs.tif
102
RTVSPost2010PropOp54
 70
     1
102
RTVSPost2010Prop55
280
     0
102
RTVSPost2010PropOp55
 70
     1
102
RTVSPost2010Prop56
140
1.0
102
RTVSPost2010PropOp56
 70
     1
102
RTVSPost2010Prop57
140
1.0
102
RTVSPost2010PropOp57
 70
     1
  0
XRECORD
  5
409
102
{ACAD_REACTORS
330
408
102
}
330
408
100
AcDbXrecord
280
     1
102
RTVSPost2010Prop28
280
     0
102
RTVSPost2010PropOp28
 70
     1
102
RTVSPost2010Prop29
280
     1
102
RTVSPost2010PropOp29
 70
     1
102
RTVSPost2010Prop30
280
     1
102
RTVSPost2010PropOp30
 70
     1
102
RTVSPost2010Prop31
280
     0
102
RTVSPost2010PropOp31
 70
     1
102
RTVSPost2010Prop32
280
     0
102
RTVSPost2010PropOp32
 70
     1
102
RTVSPost2010Prop33
280
     0
102
RTVSPost2010PropOp33
 70
     1
102
RTVSPost2010Prop34
280
     0
102
RTVSPost2010PropOp34
 70
     1
102
RTVSPost2010Prop35
280
     0
102
RTVSPost2010PropOp35
 70
     1
102
RTVSPost2010Prop36
280
     0
102
RTVSPost2010PropOp36
 70
     1
102
RTVSPost2010Prop37
 90
       50
102
RTVSPost2010PropOp37
 70
     1
102
RTVSPost2010Prop38
140
0.0
102
RTVSPost2010PropOp38
 70
     1
102
RTVSPost2010Prop39
140
1.0
102
RTVSPost2010PropOp39
 70
     1
102
RTVSPost2010Prop40
 90
        0
102
RTVSPost2010PropOp40
 70
     1
102
RTVSPost2010Prop41ColorIndex
 90
       18
102
RTVSPost2010Prop41ColorRGB
 90
        0
102
RTVSPost2010PropOp41
 70
     1
102
RTVSPost2010Prop42
 90
       50
102
RTVSPost2010PropOp42
 70
     1
102
RTVSPost2010Prop43
 90
        3
102
RTVSPost2010PropOp43
 70
     1
102
RTVSPost2010Prop44ColorIndex
 90
        5
102
RTVSPost2010Prop44ColorRGB
 90
      255
102
RTVSPost2010PropOp44
 70
     1
102
RTVSPost2010Prop45
280
     0
102
RTVSPost2010PropOp45
 70
     1
102
RTVSPost2010Prop46
 90
       50
102
RTVSPost2010PropOp46
 70
     1
102
RTVSPost2010Prop47
 90
       50
102
RTVSPost2010PropOp47
 70
     1
102
RTVSPost2010Prop48
 90
       50
102
RTVSPost2010PropOp48
 70
     1
102
RTVSPost2010Prop49
280
     0
102
RTVSPost2010PropOp49
 70
     1
102
RTVSPost2010Prop50
 90
       50
102
RTVSPost2010PropOp50
 70
     1
102
RTVSPost2010Prop51ColorIndex
 90
      256
102
RTVSPost2010Prop51ColorRGB
 90
-16777216
102
RTVSPost2010PropOp51
 70
     0
102
RTVSPost2010Prop52
140
1.0
102
RTVSPost2010PropOp52
 70
     0
102
RTVSPost2010Prop53
 90
        2
102
RTVSPost2010PropOp53
 70
     1
102
RTVSPost2010Prop54
  1
strokes_ogs.tif
102
RTVSPost2010PropOp54
 70
     1
102
RTVSPost2010Prop55
280
     0
102
RTVSPost2010PropOp55
 70
     1
102
RTVSPost2010Prop56
140
1.0
102
RTVSPost2010PropOp56
 70
     1
102
RTVSPost2010Prop57
140
1.0
102
RTVSPost2010PropOp57
 70
     1
  0
XRECORD
  5
407
102
{ACAD_REACTORS
330
406
102
}
330
406
100
AcDbXrecord
280
     1
102
RTVSPost2010Prop28
280
     0
102
RTVSPost2010PropOp28
 70
     1
102
RTVSPost2010Prop29
280
     1
102
RTVSPost2010PropOp29
 70
     1
102
RTVSPost2010Prop30
280
     1
102
RTVSPost2010PropOp30
 70
     1
102
RTVSPost2010Prop31
280
     0
102
RTVSPost2010PropOp31
 70
     1
102
RTVSPost2010Prop32
280
     0
102
RTVSPost2010PropOp32
 70
     1
102
RTVSPost2010Prop33
280
     0
102
RTVSPost2010PropOp33
 70
     1
102
RTVSPost2010Prop34
280
     0
102
RTVSPost2010PropOp34
 70
     1
102
RTVSPost2010Prop35
280
     0
102
RTVSPost2010PropOp35
 70
     1
102
RTVSPost2010Prop36
280
     0
102
RTVSPost2010PropOp36
 70
     1
102
RTVSPost2010Prop37
 90
       50
102
RTVSPost2010PropOp37
 70
     1
102
RTVSPost2010Prop38
140
0.0
102
RTVSPost2010PropOp38
 70
     1
102
RTVSPost2010Prop39
140
1.0
102
RTVSPost2010PropOp39
 70
     1
102
RTVSPost2010Prop40
 90
        0
102
RTVSPost2010PropOp40
 70
     1
102
RTVSPost2010Prop41ColorIndex
 90
       18
102
RTVSPost2010Prop41ColorRGB
 90
        0
102
RTVSPost2010PropOp41
 70
     1
102
RTVSPost2010Prop42
 90
       50
102
RTVSPost2010PropOp42
 70
     1
102
RTVSPost2010Prop43
 90
        3
102
RTVSPost2010PropOp43
 70
     1
102
RTVSPost2010Prop44ColorIndex
 90
        5
102
RTVSPost2010Prop44ColorRGB
 90
      255
102
RTVSPost2010PropOp44
 70
     1
102
RTVSPost2010Prop45
280
     0
102
RTVSPost2010PropOp45
 70
     1
102
RTVSPost2010Prop46
 90
       50
102
RTVSPost2010PropOp46
 70
     1
102
RTVSPost2010Prop47
 90
       50
102
RTVSPost2010PropOp47
 70
     1
102
RTVSPost2010Prop48
 90
       50
102
RTVSPost2010PropOp48
 70
     1
102
RTVSPost2010Prop49
280
     0
102
RTVSPost2010PropOp49
 70
     1
102
RTVSPost2010Prop50
 90
       50
102
RTVSPost2010PropOp50
 70
     1
102
RTVSPost2010Prop51ColorIndex
 90
      256
102
RTVSPost2010Prop51ColorRGB
 90
-16777216
102
RTVSPost2010PropOp51
 70
     0
102
RTVSPost2010Prop52
140
1.0
102
RTVSPost2010PropOp52
 70
     0
102
RTVSPost2010Prop53
 90
        2
102
RTVSPost2010PropOp53
 70
     1
102
RTVSPost2010Prop54
  1
strokes_ogs.tif
102
RTVSPost2010PropOp54
 70
     1
102
RTVSPost2010Prop55
280
     0
102
RTVSPost2010PropOp55
 70
     1
102
RTVSPost2010Prop56
140
1.0
102
RTVSPost2010PropOp56
 70
     1
102
RTVSPost2010Prop57
140
1.0
102
RTVSPost2010PropOp57
 70
     1
  0
XRECORD
  5
401
102
{ACAD_REACTORS
330
400
102
}
330
400
100
AcDbXrecord
280
     1
102
RTVSPost2010Prop28
280
     0
102
RTVSPost2010PropOp28
 70
     1
102
RTVSPost2010Prop29
280
     1
102
RTVSPost2010PropOp29
 70
     1
102
RTVSPost2010Prop30
280
     1
102
RTVSPost2010PropOp30
 70
     1
102
RTVSPost2010Prop31
280
     0
102
RTVSPost2010PropOp31
 70
     1
102
RTVSPost2010Prop32
280
     0
102
RTVSPost2010PropOp32
 70
     1
102
RTVSPost2010Prop33
280
     0
102
RTVSPost2010PropOp33
 70
     1
102
RTVSPost2010Prop34
280
     0
102
RTVSPost2010PropOp34
 70
     1
102
RTVSPost2010Prop35
280
     0
102
RTVSPost2010PropOp35
 70
     1
102
RTVSPost2010Prop36
280
     0
102
RTVSPost2010PropOp36
 70
     1
102
RTVSPost2010Prop37
 90
       50
102
RTVSPost2010PropOp37
 70
     1
102
RTVSPost2010Prop38
140
0.0
102
RTVSPost2010PropOp38
 70
     1
102
RTVSPost2010Prop39
140
1.0
102
RTVSPost2010PropOp39
 70
     1
102
RTVSPost2010Prop40
 90
        0
102
RTVSPost2010PropOp40
 70
     1
102
RTVSPost2010Prop41ColorIndex
 90
       18
102
RTVSPost2010Prop41ColorRGB
 90
        0
102
RTVSPost2010PropOp41
 70
     1
102
RTVSPost2010Prop42
 90
       50
102
RTVSPost2010PropOp42
 70
     1
102
RTVSPost2010Prop43
 90
        3
102
RTVSPost2010PropOp43
 70
     1
102
RTVSPost2010Prop44ColorIndex
 90
        5
102
RTVSPost2010Prop44ColorRGB
 90
      255
102
RTVSPost2010PropOp44
 70
     1
102
RTVSPost2010Prop45
280
     0
102
RTVSPost2010PropOp45
 70
     1
102
RTVSPost2010Prop46
 90
       50
102
RTVSPost2010PropOp46
 70
     1
102
RTVSPost2010Prop47
 90
       50
102
RTVSPost2010PropOp47
 70
     1
102
RTVSPost2010Prop48
 90
       50
102
RTVSPost2010PropOp48
 70
     1
102
RTVSPost2010Prop49
280
     0
102
RTVSPost2010PropOp49
 70
     1
102
RTVSPost2010Prop50
 90
       50
102
RTVSPost2010PropOp50
 70
     1
102
RTVSPost2010Prop51ColorIndex
 90
      256
102
RTVSPost2010Prop51ColorRGB
 90
-16777216
102
RTVSPost2010PropOp51
 70
     0
102
RTVSPost2010Prop52
140
1.0
102
RTVSPost2010PropOp52
 70
     0
102
RTVSPost2010Prop53
 90
        2
102
RTVSPost2010PropOp53
 70
     1
102
RTVSPost2010Prop54
  1
strokes_ogs.tif
102
RTVSPost2010PropOp54
 70
     1
102
RTVSPost2010Prop55
280
     0
102
RTVSPost2010PropOp55
 70
     1
102
RTVSPost2010Prop56
140
1.0
102
RTVSPost2010PropOp56
 70
     1
102
RTVSPost2010Prop57
140
1.0
102
RTVSPost2010PropOp57
 70
     1
  0
XRECORD
  5
403
102
{ACAD_REACTORS
330
402
102
}
330
402
100
AcDbXrecord
280
     1
102
RTVSPost2010Prop28
280
     0
102
RTVSPost2010PropOp28
 70
     1
102
RTVSPost2010Prop29
280
     1
102
RTVSPost2010PropOp29
 70
     1
102
RTVSPost2010Prop30
280
     1
102
RTVSPost2010PropOp30
 70
     1
102
RTVSPost2010Prop31
280
     0
102
RTVSPost2010PropOp31
 70
     1
102
RTVSPost2010Prop32
280
     0
102
RTVSPost2010PropOp32
 70
     1
102
RTVSPost2010Prop33
280
     0
102
RTVSPost2010PropOp33
 70
     1
102
RTVSPost2010Prop34
280
     0
102
RTVSPost2010PropOp34
 70
     1
102
RTVSPost2010Prop35
280
     0
102
RTVSPost2010PropOp35
 70
     1
102
RTVSPost2010Prop36
280
     0
102
RTVSPost2010PropOp36
 70
     1
102
RTVSPost2010Prop37
 90
       50
102
RTVSPost2010PropOp37
 70
     1
102
RTVSPost2010Prop38
140
0.0
102
RTVSPost2010PropOp38
 70
     1
102
RTVSPost2010Prop39
140
1.0
102
RTVSPost2010PropOp39
 70
     1
102
RTVSPost2010Prop40
 90
        0
102
RTVSPost2010PropOp40
 70
     1
102
RTVSPost2010Prop41ColorIndex
 90
       18
102
RTVSPost2010Prop41ColorRGB
 90
        0
102
RTVSPost2010PropOp41
 70
     1
102
RTVSPost2010Prop42
 90
       50
102
RTVSPost2010PropOp42
 70
     1
102
RTVSPost2010Prop43
 90
        3
102
RTVSPost2010PropOp43
 70
     1
102
RTVSPost2010Prop44ColorIndex
 90
        5
102
RTVSPost2010Prop44ColorRGB
 90
      255
102
RTVSPost2010PropOp44
 70
     1
102
RTVSPost2010Prop45
280
     0
102
RTVSPost2010PropOp45
 70
     1
102
RTVSPost2010Prop46
 90
       50
102
RTVSPost2010PropOp46
 70
     1
102
RTVSPost2010Prop47
 90
       50
102
RTVSPost2010PropOp47
 70
     1
102
RTVSPost2010Prop48
 90
       50
102
RTVSPost2010PropOp48
 70
     1
102
RTVSPost2010Prop49
280
     0
102
RTVSPost2010PropOp49
 70
     1
102
RTVSPost2010Prop50
 90
       50
102
RTVSPost2010PropOp50
 70
     1
102
RTVSPost2010Prop51ColorIndex
 90
      256
102
RTVSPost2010Prop51ColorRGB
 90
-16777216
102
RTVSPost2010PropOp51
 70
     0
102
RTVSPost2010Prop52
140
1.0
102
RTVSPost2010PropOp52
 70
     0
102
RTVSPost2010Prop53
 90
        2
102
RTVSPost2010PropOp53
 70
     1
102
RTVSPost2010Prop54
  1
strokes_ogs.tif
102
RTVSPost2010PropOp54
 70
     1
102
RTVSPost2010Prop55
280
     0
102
RTVSPost2010PropOp55
 70
     1
102
RTVSPost2010Prop56
140
1.0
102
RTVSPost2010PropOp56
 70
     1
102
RTVSPost2010Prop57
140
1.0
102
RTVSPost2010PropOp57
 70
     1
  0
XRECORD
  5
3F5
102
{ACAD_REACTORS
330
3F4
102
}
330
3F4
100
AcDbXrecord
280
     1
102
RTVSPost2010Prop28
280
     0
102
RTVSPost2010PropOp28
 70
     1
102
RTVSPost2010Prop29
280
     1
102
RTVSPost2010PropOp29
 70
     1
102
RTVSPost2010Prop30
280
     1
102
RTVSPost2010PropOp30
 70
     1
102
RTVSPost2010Prop31
280
     0
102
RTVSPost2010PropOp31
 70
     1
102
RTVSPost2010Prop32
280
     0
102
RTVSPost2010PropOp32
 70
     1
102
RTVSPost2010Prop33
280
     0
102
RTVSPost2010PropOp33
 70
     1
102
RTVSPost2010Prop34
280
     0
102
RTVSPost2010PropOp34
 70
     1
102
RTVSPost2010Prop35
280
     0
102
RTVSPost2010PropOp35
 70
     1
102
RTVSPost2010Prop36
280
     0
102
RTVSPost2010PropOp36
 70
     1
102
RTVSPost2010Prop37
 90
       50
102
RTVSPost2010PropOp37
 70
     1
102
RTVSPost2010Prop38
140
0.0
102
RTVSPost2010PropOp38
 70
     1
102
RTVSPost2010Prop39
140
1.0
102
RTVSPost2010PropOp39
 70
     1
102
RTVSPost2010Prop40
 90
        0
102
RTVSPost2010PropOp40
 70
     1
102
RTVSPost2010Prop41ColorIndex
 90
       18
102
RTVSPost2010Prop41ColorRGB
 90
        0
102
RTVSPost2010PropOp41
 70
     1
102
RTVSPost2010Prop42
 90
       50
102
RTVSPost2010PropOp42
 70
     1
102
RTVSPost2010Prop43
 90
        3
102
RTVSPost2010PropOp43
 70
     1
102
RTVSPost2010Prop44ColorIndex
 90
        5
102
RTVSPost2010Prop44ColorRGB
 90
      255
102
RTVSPost2010PropOp44
 70
     1
102
RTVSPost2010Prop45
280
     0
102
RTVSPost2010PropOp45
 70
     1
102
RTVSPost2010Prop46
 90
       50
102
RTVSPost2010PropOp46
 70
     1
102
RTVSPost2010Prop47
 90
       50
102
RTVSPost2010PropOp47
 70
     1
102
RTVSPost2010Prop48
 90
       50
102
RTVSPost2010PropOp48
 70
     1
102
RTVSPost2010Prop49
280
     0
102
RTVSPost2010PropOp49
 70
     1
102
RTVSPost2010Prop50
 90
       50
102
RTVSPost2010PropOp50
 70
     1
102
RTVSPost2010Prop51ColorIndex
 90
      256
102
RTVSPost2010Prop51ColorRGB
 90
-16777216
102
RTVSPost2010PropOp51
 70
     0
102
RTVSPost2010Prop52
140
1.0
102
RTVSPost2010PropOp52
 70
     0
102
RTVSPost2010Prop53
 90
        2
102
RTVSPost2010PropOp53
 70
     1
102
RTVSPost2010Prop54
  1
strokes_ogs.tif
102
RTVSPost2010PropOp54
 70
     1
102
RTVSPost2010Prop55
280
     0
102
RTVSPost2010PropOp55
 70
     1
102
RTVSPost2010Prop56
140
1.0
102
RTVSPost2010PropOp56
 70
     1
102
RTVSPost2010Prop57
140
1.0
102
RTVSPost2010PropOp57
 70
     1
  0
XRECORD
  5
3FD
102
{ACAD_REACTORS
330
3FC
102
}
330
3FC
100
AcDbXrecord
280
     1
102
RTVSPost2010Prop28
280
     0
102
RTVSPost2010PropOp28
 70
     1
102
RTVSPost2010Prop29
280
     1
102
RTVSPost2010PropOp29
 70
     1
102
RTVSPost2010Prop30
280
     1
102
RTVSPost2010PropOp30
 70
     1
102
RTVSPost2010Prop31
280
     0
102
RTVSPost2010PropOp31
 70
     1
102
RTVSPost2010Prop32
280
     0
102
RTVSPost2010PropOp32
 70
     1
102
RTVSPost2010Prop33
280
     0
102
RTVSPost2010PropOp33
 70
     1
102
RTVSPost2010Prop34
280
     0
102
RTVSPost2010PropOp34
 70
     1
102
RTVSPost2010Prop35
280
     0
102
RTVSPost2010PropOp35
 70
     1
102
RTVSPost2010Prop36
280
     0
102
RTVSPost2010PropOp36
 70
     1
102
RTVSPost2010Prop37
 90
       50
102
RTVSPost2010PropOp37
 70
     1
102
RTVSPost2010Prop38
140
0.0
102
RTVSPost2010PropOp38
 70
     1
102
RTVSPost2010Prop39
140
1.0
102
RTVSPost2010PropOp39
 70
     1
102
RTVSPost2010Prop40
 90
        0
102
RTVSPost2010PropOp40
 70
     1
102
RTVSPost2010Prop41ColorIndex
 90
       18
102
RTVSPost2010Prop41ColorRGB
 90
        0
102
RTVSPost2010PropOp41
 70
     1
102
RTVSPost2010Prop42
 90
       50
102
RTVSPost2010PropOp42
 70
     1
102
RTVSPost2010Prop43
 90
        3
102
RTVSPost2010PropOp43
 70
     1
102
RTVSPost2010Prop44ColorIndex
 90
        5
102
RTVSPost2010Prop44ColorRGB
 90
      255
102
RTVSPost2010PropOp44
 70
     1
102
RTVSPost2010Prop45
280
     0
102
RTVSPost2010PropOp45
 70
     1
102
RTVSPost2010Prop46
 90
       50
102
RTVSPost2010PropOp46
 70
     1
102
RTVSPost2010Prop47
 90
       50
102
RTVSPost2010PropOp47
 70
     1
102
RTVSPost2010Prop48
 90
       50
102
RTVSPost2010PropOp48
 70
     1
102
RTVSPost2010Prop49
280
     0
102
RTVSPost2010PropOp49
 70
     1
102
RTVSPost2010Prop50
 90
       50
102
RTVSPost2010PropOp50
 70
     1
102
RTVSPost2010Prop51ColorIndex
 90
      256
102
RTVSPost2010Prop51ColorRGB
 90
-16777216
102
RTVSPost2010PropOp51
 70
     0
102
RTVSPost2010Prop52
140
1.0
102
RTVSPost2010PropOp52
 70
     0
102
RTVSPost2010Prop53
 90
        2
102
RTVSPost2010PropOp53
 70
     1
102
RTVSPost2010Prop54
  1
strokes_ogs.tif
102
RTVSPost2010PropOp54
 70
     1
102
RTVSPost2010Prop55
280
     0
102
RTVSPost2010PropOp55
 70
     1
102
RTVSPost2010Prop56
140
1.0
102
RTVSPost2010PropOp56
 70
     1
102
RTVSPost2010Prop57
140
1.0
102
RTVSPost2010PropOp57
 70
     1
  0
XRECORD
  5
405
102
{ACAD_REACTORS
330
404
102
}
330
404
100
AcDbXrecord
280
     1
102
RTVSPost2010Prop28
280
     0
102
RTVSPost2010PropOp28
 70
     1
102
RTVSPost2010Prop29
280
     1
102
RTVSPost2010PropOp29
 70
     1
102
RTVSPost2010Prop30
280
     1
102
RTVSPost2010PropOp30
 70
     1
102
RTVSPost2010Prop31
280
     0
102
RTVSPost2010PropOp31
 70
     1
102
RTVSPost2010Prop32
280
     0
102
RTVSPost2010PropOp32
 70
     1
102
RTVSPost2010Prop33
280
     0
102
RTVSPost2010PropOp33
 70
     1
102
RTVSPost2010Prop34
280
     0
102
RTVSPost2010PropOp34
 70
     1
102
RTVSPost2010Prop35
280
     0
102
RTVSPost2010PropOp35
 70
     1
102
RTVSPost2010Prop36
280
     0
102
RTVSPost2010PropOp36
 70
     1
102
RTVSPost2010Prop37
 90
       50
102
RTVSPost2010PropOp37
 70
     1
102
RTVSPost2010Prop38
140
0.0
102
RTVSPost2010PropOp38
 70
     1
102
RTVSPost2010Prop39
140
1.0
102
RTVSPost2010PropOp39
 70
     1
102
RTVSPost2010Prop40
 90
        0
102
RTVSPost2010PropOp40
 70
     1
102
RTVSPost2010Prop41ColorIndex
 90
       18
102
RTVSPost2010Prop41ColorRGB
 90
        0
102
RTVSPost2010PropOp41
 70
     1
102
RTVSPost2010Prop42
 90
       50
102
RTVSPost2010PropOp42
 70
     1
102
RTVSPost2010Prop43
 90
        3
102
RTVSPost2010PropOp43
 70
     1
102
RTVSPost2010Prop44ColorIndex
 90
        5
102
RTVSPost2010Prop44ColorRGB
 90
      255
102
RTVSPost2010PropOp44
 70
     1
102
RTVSPost2010Prop45
280
     0
102
RTVSPost2010PropOp45
 70
     1
102
RTVSPost2010Prop46
 90
       50
102
RTVSPost2010PropOp46
 70
     1
102
RTVSPost2010Prop47
 90
       50
102
RTVSPost2010PropOp47
 70
     1
102
RTVSPost2010Prop48
 90
       50
102
RTVSPost2010PropOp48
 70
     1
102
RTVSPost2010Prop49
280
     0
102
RTVSPost2010PropOp49
 70
     1
102
RTVSPost2010Prop50
 90
       50
102
RTVSPost2010PropOp50
 70
     1
102
RTVSPost2010Prop51ColorIndex
 90
      256
102
RTVSPost2010Prop51ColorRGB
 90
-16777216
102
RTVSPost2010PropOp51
 70
     0
102
RTVSPost2010Prop52
140
1.0
102
RTVSPost2010PropOp52
 70
     0
102
RTVSPost2010Prop53
 90
        2
102
RTVSPost2010PropOp53
 70
     1
102
RTVSPost2010Prop54
  1
strokes_ogs.tif
102
RTVSPost2010PropOp54
 70
     1
102
RTVSPost2010Prop55
280
     0
102
RTVSPost2010PropOp55
 70
     1
102
RTVSPost2010Prop56
140
1.0
102
RTVSPost2010PropOp56
 70
     1
102
RTVSPost2010Prop57
140
1.0
102
RTVSPost2010PropOp57
 70
     1
  0
ENDSEC
  0
EOF
