  0
SECTION
  2
HEADER
  9
$ACADVER
  1
AC1024
  9
$ACADMAINTVER
 70
   226
  9
$DWGCODEPAGE
  3
ANSI_1252
  9
$LASTSAVEDBY
  1
RubenvandenEijkel
  9
$INSBASE
 10
0.0
 20
0.0
 30
0.0
  9
$EXTMIN
 10
-0.0320410123467809
 20
-0.0453151460337722
 30
-0.0320410123467809
  9
$EXTMAX
 10
1050.032045901794
 20
1485.045322061103
 30
0.0480664079636881
  9
$LIMMIN
 10
0.0
 20
0.0
  9
$LIMMAX
 10
1050.000000000004
 20
1485.0
  9
$ORTHOMODE
 70
     0
  9
$REGENMODE
 70
     1
  9
$FILLMODE
 70
     1
  9
$QTEXTMODE
 70
     0
  9
$MIRRTEXT
 70
     1
  9
$LTSCALE
 40
1.0
  9
$ATTMODE
 70
     1
  9
$TEXTSIZE
 40
0.2
  9
$TRACEWID
 40
0.05
  9
$TEXTSTYLE
  7
Standard
  9
$CLAYER
  8
0
  9
$CELTYPE
  6
ByLayer
  9
$CECOLOR
 62
   256
  9
$CELTSCALE
 40
1.0
  9
$DISPSILH
 70
     0
  9
$DIMSCALE
 40
1.0
  9
$DIMASZ
 40
0.18
  9
$DIMEXO
 40
0.0625
  9
$DIMDLI
 40
0.38
  9
$DIMRND
 40
0.0
  9
$DIMDLE
 40
0.0
  9
$DIMEXE
 40
0.18
  9
$DIMTP
 40
0.0
  9
$DIMTM
 40
0.0
  9
$DIMTXT
 40
0.18
  9
$DIMCEN
 40
0.09
  9
$DIMTSZ
 40
0.0
  9
$DIMTOL
 70
     0
  9
$DIMLIM
 70
     0
  9
$DIMTIH
 70
     1
  9
$DIMTOH
 70
     1
  9
$DIMSE1
 70
     0
  9
$DIMSE2
 70
     0
  9
$DIMTAD
 70
     0
  9
$DIMZIN
 70
     0
  9
$DIMBLK
  1

  9
$DIMASO
 70
     1
  9
$DIMSHO
 70
     1
  9
$DIMPOST
  1

  9
$DIMAPOST
  1

  9
$DIMALT
 70
     0
  9
$DIMALTD
 70
     2
  9
$DIMALTF
 40
25.4
  9
$DIMLFAC
 40
1.0
  9
$DIMTOFL
 70
     0
  9
$DIMTVP
 40
0.0
  9
$DIMTIX
 70
     0
  9
$DIMSOXD
 70
     0
  9
$DIMSAH
 70
     0
  9
$DIMBLK1
  1

  9
$DIMBLK2
  1

  9
$DIMSTYLE
  2
Standard
  9
$DIMCLRD
 70
     0
  9
$DIMCLRE
 70
     0
  9
$DIMCLRT
 70
     0
  9
$DIMTFAC
 40
1.0
  9
$DIMGAP
 40
0.09
  9
$DIMJUST
 70
     0
  9
$DIMSD1
 70
     0
  9
$DIMSD2
 70
     0
  9
$DIMTOLJ
 70
     1
  9
$DIMTZIN
 70
     0
  9
$DIMALTZ
 70
     0
  9
$DIMALTTZ
 70
     0
  9
$DIMUPT
 70
     0
  9
$DIMDEC
 70
     4
  9
$DIMTDEC
 70
     4
  9
$DIMALTU
 70
     2
  9
$DIMALTTD
 70
     2
  9
$DIMTXSTY
  7
Standard
  9
$DIMAUNIT
 70
     0
  9
$DIMADEC
 70
     0
  9
$DIMALTRND
 40
0.0
  9
$DIMAZIN
 70
     0
  9
$DIMDSEP
 70
    46
  9
$DIMATFIT
 70
     3
  9
$DIMFRAC
 70
     0
  9
$DIMLDRBLK
  1

  9
$DIMLUNIT
 70
     2
  9
$DIMLWD
 70
    -2
  9
$DIMLWE
 70
    -2
  9
$DIMTMOVE
 70
     0
  9
$DIMFXL
 40
1.0
  9
$DIMFXLON
 70
     0
  9
$DIMJOGANG
 40
0.7853981633974483
  9
$DIMTFILL
 70
     0
  9
$DIMTFILLCLR
 70
     0
  9
$DIMARCSYM
 70
     0
  9
$DIMLTYPE
  6

  9
$DIMLTEX1
  6

  9
$DIMLTEX2
  6

  9
$DIMTXTDIRECTION
 70
     0
  9
$LUNITS
 70
     2
  9
$LUPREC
 70
     4
  9
$SKETCHINC
 40
0.1
  9
$FILLETRAD
 40
0.5
  9
$AUNITS
 70
     0
  9
$AUPREC
 70
     0
  9
$MENU
  1
.
  9
$ELEVATION
 40
0.0
  9
$PELEVATION
 40
0.0
  9
$THICKNESS
 40
0.0
  9
$LIMCHECK
 70
     0
  9
$CHAMFERA
 40
0.5
  9
$CHAMFERB
 40
0.5
  9
$CHAMFERC
 40
1.0
  9
$CHAMFERD
 40
0.0
  9
$SKPOLY
 70
     0
  9
$TDCREATE
 40
2458964.444942130
  9
$TDUCREATE
 40
2458964.361609896
  9
$TDUPDATE
 40
2458964.495405092
  9
$TDUUPDATE
 40
2458964.412071759
  9
$TDINDWG
 40
0.0205208449
  9
$TDUSRTIMER
 40
0.0205208449
  9
$USRTIMER
 70
     1
  9
$ANGBASE
 50
0.0
  9
$ANGDIR
 70
     0
  9
$PDMODE
 70
    65
  9
$PDSIZE
 40
0.0
  9
$PLINEWID
 40
0.0
  9
$SPLFRAME
 70
     0
  9
$SPLINETYPE
 70
     6
  9
$SPLINESEGS
 70
     8
  9
$HANDSEED
  5
35A
  9
$SURFTAB1
 70
     6
  9
$SURFTAB2
 70
     6
  9
$SURFTYPE
 70
     6
  9
$SURFU
 70
     6
  9
$SURFV
 70
     6
  9
$UCSBASE
  2

  9
$UCSNAME
  2

  9
$UCSORG
 10
0.0
 20
0.0
 30
0.0
  9
$UCSXDIR
 10
1.0
 20
0.0
 30
0.0
  9
$UCSYDIR
 10
0.0
 20
1.0
 30
0.0
  9
$UCSORTHOREF
  2

  9
$UCSORTHOVIEW
 70
     0
  9
$UCSORGTOP
 10
0.0
 20
0.0
 30
0.0
  9
$UCSORGBOTTOM
 10
0.0
 20
0.0
 30
0.0
  9
$UCSORGLEFT
 10
0.0
 20
0.0
 30
0.0
  9
$UCSORGRIGHT
 10
0.0
 20
0.0
 30
0.0
  9
$UCSORGFRONT
 10
0.0
 20
0.0
 30
0.0
  9
$UCSORGBACK
 10
0.0
 20
0.0
 30
0.0
  9
$PUCSBASE
  2

  9
$PUCSNAME
  2

  9
$PUCSORG
 10
0.0
 20
0.0
 30
0.0
  9
$PUCSXDIR
 10
1.0
 20
0.0
 30
0.0
  9
$PUCSYDIR
 10
0.0
 20
1.0
 30
0.0
  9
$PUCSORTHOREF
  2

  9
$PUCSORTHOVIEW
 70
     0
  9
$PUCSORGTOP
 10
0.0
 20
0.0
 30
0.0
  9
$PUCSORGBOTTOM
 10
0.0
 20
0.0
 30
0.0
  9
$PUCSORGLEFT
 10
0.0
 20
0.0
 30
0.0
  9
$PUCSORGRIGHT
 10
0.0
 20
0.0
 30
0.0
  9
$PUCSORGFRONT
 10
0.0
 20
0.0
 30
0.0
  9
$PUCSORGBACK
 10
0.0
 20
0.0
 30
0.0
  9
$USERI1
 70
     0
  9
$USERI2
 70
     0
  9
$USERI3
 70
     0
  9
$USERI4
 70
     0
  9
$USERI5
 70
     0
  9
$USERR1
 40
0.0
  9
$USERR2
 40
0.0
  9
$USERR3
 40
0.0
  9
$USERR4
 40
0.0
  9
$USERR5
 40
0.0
  9
$WORLDVIEW
 70
     1
  9
$SHADEDGE
 70
     3
  9
$SHADEDIF
 70
    70
  9
$TILEMODE
 70
     1
  9
$MAXACTVP
 70
    64
  9
$PINSBASE
 10
0.0
 20
0.0
 30
0.0
  9
$PLIMCHECK
 70
     0
  9
$PEXTMIN
 10
1.000000000000000E+20
 20
1.000000000000000E+20
 30
1.000000000000000E+20
  9
$PEXTMAX
 10
-1.000000000000000E+20
 20
-1.000000000000000E+20
 30
-1.000000000000000E+20
  9
$PLIMMIN
 10
0.0
 20
0.0
  9
$PLIMMAX
 10
12.0
 20
9.0
  9
$UNITMODE
 70
     0
  9
$VISRETAIN
 70
     1
  9
$PLINEGEN
 70
     0
  9
$PSLTSCALE
 70
     1
  9
$TREEDEPTH
 70
  3020
  9
$CMLSTYLE
  2
Standard
  9
$CMLJUST
 70
     0
  9
$CMLSCALE
 40
1.0
  9
$PROXYGRAPHICS
 70
     1
  9
$MEASUREMENT
 70
     1
  9
$CELWEIGHT
370
    -1
  9
$ENDCAPS
280
     0
  9
$JOINSTYLE
280
     0
  9
$LWDISPLAY
290
     0
  9
$INSUNITS
 70
     4
  9
$HYPERLINKBASE
  1

  9
$STYLESHEET
  1

  9
$XEDIT
290
     1
  9
$CEPSNTYPE
380
     0
  9
$PSTYLEMODE
290
     1
  9
$FINGERPRINTGUID
  2
{F6370D89-EA44-4810-8207-B47B022E36C2}
  9
$VERSIONGUID
  2
{B1FAFA46-16D8-5044-9118-4808BEAF68F5}
  9
$EXTNAMES
290
     1
  9
$PSVPSCALE
 40
0.0
  9
$OLESTARTUP
290
     0
  9
$SORTENTS
280
   127
  9
$INDEXCTL
280
     0
  9
$HIDETEXT
280
     1
  9
$XCLIPFRAME
280
     2
  9
$HALOGAP
280
     0
  9
$OBSCOLOR
 70
   257
  9
$OBSLTYPE
280
     0
  9
$INTERSECTIONDISPLAY
280
     0
  9
$INTERSECTIONCOLOR
 70
   257
  9
$DIMASSOC
280
     2
  9
$PROJECTNAME
  1

  9
$CAMERADISPLAY
290
     0
  9
$LENSLENGTH
 40
50.0
  9
$CAMERAHEIGHT
 40
0.0
  9
$STEPSPERSEC
 40
2.0
  9
$STEPSIZE
 40
6.0
  9
$3DDWFPREC
 40
2.0
  9
$PSOLWIDTH
 40
0.25
  9
$PSOLHEIGHT
 40
4.0
  9
$LOFTANG1
 40
1.570796326794896
  9
$LOFTANG2
 40
1.570796326794896
  9
$LOFTMAG1
 40
0.0
  9
$LOFTMAG2
 40
0.0
  9
$LOFTPARAM
 70
     7
  9
$LOFTNORMALS
280
     1
  9
$LATITUDE
 40
37.795
  9
$LONGITUDE
 40
-122.394
  9
$NORTHDIRECTION
 40
0.0
  9
$TIMEZONE
 70
 -8000
  9
$LIGHTGLYPHDISPLAY
280
     1
  9
$TILEMODELIGHTSYNCH
280
     1
  9
$CMATERIAL
347
3C
  9
$SOLIDHIST
280
     1
  9
$SHOWHIST
280
     1
  9
$DWFFRAME
280
     2
  9
$DGNFRAME
280
     2
  9
$REALWORLDSCALE
290
     1
  9
$INTERFERECOLOR
 62
   256
  9
$INTERFEREOBJVS
345
33
  9
$INTERFEREVPVS
346
171
  9
$CSHADOW
280
     0
  9
$SHADOWPLANELOCATION
 40
0.0
  0
ENDSEC
  0
SECTION
  2
CLASSES
  0
CLASS
  1
ACDBDICTIONARYWDFLT
  2
AcDbDictionaryWithDefault
  3
ObjectDBX Classes
 90
        0
 91
        1
280
     0
281
     0
  0
CLASS
  1
VISUALSTYLE
  2
AcDbVisualStyle
  3
ObjectDBX Classes
 90
     4095
 91
       26
280
     0
281
     0
  0
CLASS
  1
MATERIAL
  2
AcDbMaterial
  3
ObjectDBX Classes
 90
     1153
 91
        3
280
     0
281
     0
  0
CLASS
  1
SCALE
  2
AcDbScale
  3
ObjectDBX Classes
 90
     1153
 91
       33
280
     0
281
     0
  0
CLASS
  1
SORTENTSTABLE
  2
AcDbSortentsTable
  3
ObjectDBX Classes
 90
        0
 91
        1
280
     0
281
     0
  0
CLASS
  1
DICTIONARYVAR
  2
AcDbDictionaryVar
  3
ObjectDBX Classes
 90
        0
 91
       13
280
     0
281
     0
  0
CLASS
  1
TABLESTYLE
  2
AcDbTableStyle
  3
ObjectDBX Classes
 90
     4095
 91
        1
280
     0
281
     0
  0
CLASS
  1
MLEADERSTYLE
  2
AcDbMLeaderStyle
  3
ACDB_MLEADERSTYLE_CLASS
 90
     4095
 91
        1
280
     0
281
     0
  0
CLASS
  1
ACDBSECTIONVIEWSTYLE
  2
AcDbSectionViewStyle
  3
ObjectDBX Classes
 90
     1025
 91
        1
280
     0
281
     0
  0
CLASS
  1
ACDBDETAILVIEWSTYLE
  2
AcDbDetailViewStyle
  3
ObjectDBX Classes
 90
     1025
 91
        1
280
     0
281
     0
  0
CLASS
  1
CELLSTYLEMAP
  2
AcDbCellStyleMap
  3
ObjectDBX Classes
 90
     1152
 91
        2
280
     0
281
     0
  0
ENDSEC
  0
SECTION
  2
TABLES
  0
TABLE
  2
VPORT
  5
8
330
0
100
AcDbSymbolTable
 70
     1
  0
VPORT
  5
29
330
8
100
AcDbSymbolTableRecord
100
AcDbViewportTableRecord
  2
*Active
 70
     0
 10
0.0
 20
0.0
 11
1.0
 21
1.0
 12
525.0000024447236
 22
742.5000034575348
 13
0.0
 23
0.0
 14
0.5
 24
0.5
 15
0.5
 25
0.5
 16
0.0
 26
0.0
 36
1.0
 17
0.0
 27
0.0
 37
0.0
 40
1495.723744394778
 41
1.806451612903225
 42
50.0
 43
0.0
 44
0.0
 50
0.0
 51
0.0
 71
     0
 72
   100
 73
     1
 74
     3
 75
     0
 76
     0
 77
     0
 78
     0
281
     0
 65
     1
110
0.0
120
0.0
130
0.0
111
1.0
121
0.0
131
0.0
112
0.0
122
1.0
132
0.0
 79
     0
146
0.0
348
2F
 60
     3
 61
     5
292
     1
282
     1
141
0.0
142
0.0
 63
   250
1001
ACAD_NAV_VCDISPLAY
1070
     3
  0
ENDTAB
  0
TABLE
  2
LTYPE
  5
5
330
0
100
AcDbSymbolTable
 70
     5
  0
LTYPE
  5
14
330
5
100
AcDbSymbolTableRecord
100
AcDbLinetypeTableRecord
  2
ByBlock
 70
     0
  3

 72
    65
 73
     0
 40
0.0
  0
LTYPE
  5
15
330
5
100
AcDbSymbolTableRecord
100
AcDbLinetypeTableRecord
  2
ByLayer
 70
     0
  3

 72
    65
 73
     0
 40
0.0
  0
LTYPE
  5
16
330
5
100
AcDbSymbolTableRecord
100
AcDbLinetypeTableRecord
  2
Continuous
 70
     0
  3
Solid line
 72
    65
 73
     0
 40
0.0
  0
LTYPE
  5
41
330
5
100
AcDbSymbolTableRecord
100
AcDbLinetypeTableRecord
  2
PUNKT2_S9
 70
     0
  3
Eng Punktiert
 72
    65
 73
     2
 40
5.0
 49
0.0
 74
     0
 49
-5.0
 74
     0
  0
LTYPE
  5
42
330
5
100
AcDbSymbolTableRecord
100
AcDbLinetypeTableRecord
  2
STRICHPUNKT2_S5
 70
     0
  3
Lang eng gestrichelt bzw. punktiert
 72
    65
 73
     4
 40
55.0
 49
40.0
 74
     0
 49
-5.0
 74
     0
 49
5.0
 74
     0
 49
-5.0
 74
     0
  0
LTYPE
  5
43
330
5
100
AcDbSymbolTableRecord
100
AcDbLinetypeTableRecord
  2
VERDECKT2_S2
 70
     0
  3
Kurzgestrichelt
 72
    65
 73
     2
 40
13.5
 49
10.0
 74
     0
 49
-3.5
 74
     0
  0
ENDTAB
  0
TABLE
  2
LAYER
  5
2
102
{ACAD_XDICTIONARY
360
277
102
}
330
0
100
AcDbSymbolTable
 70
    10
  0
LAYER
  5
10
330
2
100
AcDbSymbolTableRecord
100
AcDbLayerTableRecord
  2
0
 70
     0
 62
     7
  6
Continuous
370
    -3
390
F
347
3E
  0
LAYER
  5
44
330
2
100
AcDbSymbolTableRecord
100
AcDbLayerTableRecord
  2
AANHAALLIJN
 70
     0
 62
     7
  6
Continuous
370
    18
390
F
347
3E
1001
AcAecLayerStandard
1000

1000
000101, on
  0
LAYER
  5
46
330
2
100
AcDbSymbolTableRecord
100
AcDbLayerTableRecord
  2
AFBREEKLIJNEN
 70
     0
 62
     7
  6
Continuous
370
    35
390
F
347
3E
1001
AcAecLayerStandard
1000

1000
000201, on
  0
LAYER
  5
47
330
2
100
AcDbSymbolTableRecord
100
AcDbLayerTableRecord
  2
BAKSTEEN
 70
     0
 62
    30
  6
Continuous
370
    70
390
F
347
3E
1001
AcAecLayerStandard
1000

1000
21121, on
  0
LAYER
  5
48
330
2
100
AcDbSymbolTableRecord
100
AcDbLayerTableRecord
  2
DILALATIEVOEG EN AFDICHTING
 70
     0
 62
     5
  6
Continuous
370
    35
390
F
347
3E
1001
AcAecLayerStandard
1000

1000
211031, on
  0
LAYER
  5
49
330
2
100
AcDbSymbolTableRecord
100
AcDbLayerTableRecord
  2
KALKZANDSTEEN
 70
     0
 62
     2
  6
Continuous
370
   100
390
F
347
3E
1001
AcAecLayerStandard
1000

1000
22223, on
  0
LAYER
  5
4A
330
2
100
AcDbSymbolTableRecord
100
AcDbLayerTableRecord
  2
Maatlijnen 1_5
 70
     0
 62
     7
  6
Continuous
370
    18
390
F
347
3E
1001
AcAecLayerStandard
1000

1000
ML_5, on
  0
LAYER
  5
4B
330
2
100
AcDbSymbolTableRecord
100
AcDbLayerTableRecord
  2
POLYISOCYANURAAT (PIR)
 70
     0
 62
     5
  6
Continuous
370
    35
390
F
347
3E
1001
AcAecLayerStandard
1000

1000
223116, on
  0
LAYER
  5
4C
330
2
100
AcDbSymbolTableRecord
100
AcDbLayerTableRecord
  2
STEENWOL
 70
     0
 62
     5
  6
Continuous
370
    35
390
F
347
3E
1001
AcAecLayerStandard
1000

1000
223111, on
  0
LAYER
  5
EB
330
2
100
AcDbSymbolTableRecord
100
AcDbLayerTableRecord
  2
DEFPOINTS
 70
     0
 62
     7
  6
Continuous
290
     0
370
    -3
390
F
347
3E
  0
ENDTAB
  0
TABLE
  2
STYLE
  5
3
330
0
100
AcDbSymbolTable
 70
     4
  0
STYLE
  5
11
330
3
100
AcDbSymbolTableRecord
100
AcDbTextStyleTableRecord
  2
Standard
 70
     0
 40
0.0
 41
1.0
 50
0.0
 71
     0
 42
0.2
  3
txt
  4

  0
STYLE
  5
3F
330
3
100
AcDbSymbolTableRecord
100
AcDbTextStyleTableRecord
  2
ARIAL
 70
     0
 40
0.0
 41
1.0
 50
0.0
 71
     0
 42
0.0
  3
ARIAL.TTF
  4

1001
ACAD
1000
Arial
1071
       34
  0
STYLE
  5
40
330
3
100
AcDbSymbolTableRecord
100
AcDbTextStyleTableRecord
  2
TAHOMA
 70
     0
 40
0.0
 41
1.0
 50
0.0
 71
     0
 42
0.0
  3
TAHOMA.TTF
  4

1001
ACAD
1000
Tahoma
1071
       34
  0
STYLE
  5
4D
330
3
100
AcDbSymbolTableRecord
100
AcDbTextStyleTableRecord
  2
Trebuchet MS
 70
     0
 40
0.0
 41
1.0
 50
0.0
 71
     0
 42
0.0
  3
Trebuchet MS
  4

1001
ACAD
1000
Trebuchet MS
1071
        0
  0
ENDTAB
  0
TABLE
  2
VIEW
  5
6
330
0
100
AcDbSymbolTable
 70
     2
  0
ENDTAB
  0
TABLE
  2
UCS
  5
7
330
0
100
AcDbSymbolTable
 70
     0
  0
ENDTAB
  0
TABLE
  2
APPID
  5
9
330
0
100
AcDbSymbolTable
 70
     5
  0
APPID
  5
12
330
9
100
AcDbSymbolTableRecord
100
AcDbRegAppTableRecord
  2
ACAD
 70
     0
  0
APPID
  5
45
330
9
100
AcDbSymbolTableRecord
100
AcDbRegAppTableRecord
  2
AcAecLayerStandard
 70
     0
  0
APPID
  5
A7
330
9
100
AcDbSymbolTableRecord
100
AcDbRegAppTableRecord
  2
NEM_ODX
 70
     0
  0
APPID
  5
18F
330
9
100
AcDbSymbolTableRecord
100
AcDbRegAppTableRecord
  2
ACAD_NAV_VCDISPLAY
 70
     0
  0
APPID
  5
272
330
9
100
AcDbSymbolTableRecord
100
AcDbRegAppTableRecord
  2
ACAD_EXEMPT_FROM_CAD_STANDARDS
 70
     0
  0
ENDTAB
  0
TABLE
  2
DIMSTYLE
  5
A
330
0
100
AcDbSymbolTable
 70
     3
100
AcDbDimStyleTable
 71
     1
340
108
  0
DIMSTYLE
105
27
330
A
100
AcDbSymbolTableRecord
100
AcDbDimStyleTableRecord
  2
Standard
 70
     0
340
11
  0
DIMSTYLE
105
FC
330
A
100
AcDbSymbolTableRecord
100
AcDbDimStyleTableRecord
  2
_DIMSTYLE_2
 70
     0
  3
<>
 41
15.0
 42
0.001
 43
0.0
 44
0.0
 45
0.1
 73
     0
 74
     0
 75
     1
 76
     1
 77
     2
 78
    12
140
10.0
141
0.0
147
5.0
172
     1
173
     1
174
     1
176
    30
177
    30
178
    30
271
     0
272
     0
274
     0
278
     0
279
     2
283
     0
340
4D
343
EC
344
EC
371
     0
372
    18
  0
DIMSTYLE
105
108
102
{ACAD_REACTORS
330
161
330
156
330
14B
330
140
330
135
330
12A
330
11F
330
114
330
109
330
FD
102
}
330
A
100
AcDbSymbolTableRecord
100
AcDbDimStyleTableRecord
  2
_DIMSTYLE_3
 70
     0
  3
<>
 41
15.0
 42
0.001
 43
0.0
 44
0.0
 45
0.1
 73
     0
 74
     0
 75
     1
 76
     1
 77
     2
 78
    12
140
10.0
141
0.0
147
5.0
172
     1
173
     1
174
     1
176
    30
177
    30
178
    30
271
     0
272
     0
274
     0
278
     0
279
     2
283
     0
340
4D
343
EC
344
EC
371
     0
372
    18
  0
ENDTAB
  0
TABLE
  2
BLOCK_RECORD
  5
1
330
0
100
AcDbSymbolTable
 70
    15
  0
BLOCK_RECORD
  5
1F
102
{ACAD_XDICTIONARY
360
16A
102
}
330
1
100
AcDbSymbolTableRecord
100
AcDbBlockTableRecord
  2
*Model_Space
340
22
 70
     0
280
     1
281
     0
  0
BLOCK_RECORD
  5
1B
330
1
100
AcDbSymbolTableRecord
100
AcDbBlockTableRecord
  2
*Paper_Space
340
1E
 70
     0
280
     1
281
     0
  0
BLOCK_RECORD
  5
23
330
1
100
AcDbSymbolTableRecord
100
AcDbBlockTableRecord
  2
*Paper_Space0
340
26
 70
     0
280
     1
281
     0
  0
BLOCK_RECORD
  5
4E
330
1
100
AcDbSymbolTableRecord
100
AcDbBlockTableRecord
  2
NSY140
340
0
 70
     4
280
     1
281
     0
  0
BLOCK_RECORD
  5
54
330
1
100
AcDbSymbolTableRecord
100
AcDbBlockTableRecord
  2
NSY154
340
0
102
{BLKREFS
331
8E
331
8F
331
97
331
AE
331
AF
331
B0
331
B2
331
E5
102
}
 70
     4
280
     1
281
     0
  0
BLOCK_RECORD
  5
B6
330
1
100
AcDbSymbolTableRecord
100
AcDbBlockTableRecord
  2
COMPLEXOBJECT_0
340
0
102
{BLKREFS
331
E0
102
}
 70
     4
280
     1
281
     0
  0
BLOCK_RECORD
  5
EC
330
1
100
AcDbSymbolTableRecord
100
AcDbBlockTableRecord
  2
ALL_ML_STRICH
340
0
102
{BLKREFS
331
22A
331
22B
331
231
331
232
331
238
331
239
331
241
331
242
331
248
331
249
331
24F
331
250
331
256
331
257
331
25D
331
25E
331
266
331
267
331
26D
331
26E
102
}
 70
     4
280
     1
281
     0
  0
BLOCK_RECORD
  5
F2
330
1
100
AcDbSymbolTableRecord
100
AcDbBlockTableRecord
  2
*D5
340
0
 70
     4
280
     1
281
     0
  0
BLOCK_RECORD
  5
FE
330
1
100
AcDbSymbolTableRecord
100
AcDbBlockTableRecord
  2
*D6
340
0
 70
     4
280
     1
281
     0
  0
BLOCK_RECORD
  5
10A
330
1
100
AcDbSymbolTableRecord
100
AcDbBlockTableRecord
  2
*D7
340
0
 70
     4
280
     1
281
     0
  0
BLOCK_RECORD
  5
115
330
1
100
AcDbSymbolTableRecord
100
AcDbBlockTableRecord
  2
*D8
340
0
 70
     4
280
     1
281
     0
  0
BLOCK_RECORD
  5
120
330
1
100
AcDbSymbolTableRecord
100
AcDbBlockTableRecord
  2
*D9
340
0
 70
     4
280
     1
281
     0
  0
BLOCK_RECORD
  5
12B
330
1
100
AcDbSymbolTableRecord
100
AcDbBlockTableRecord
  2
*D10
340
0
 70
     4
280
     1
281
     0
  0
BLOCK_RECORD
  5
136
330
1
100
AcDbSymbolTableRecord
100
AcDbBlockTableRecord
  2
*D11
340
0
 70
     4
280
     1
281
     0
  0
BLOCK_RECORD
  5
141
330
1
100
AcDbSymbolTableRecord
100
AcDbBlockTableRecord
  2
*D12
340
0
 70
     4
280
     1
281
     0
  0
BLOCK_RECORD
  5
14C
330
1
100
AcDbSymbolTableRecord
100
AcDbBlockTableRecord
  2
*D13
340
0
 70
     4
280
     1
281
     0
  0
BLOCK_RECORD
  5
157
330
1
100
AcDbSymbolTableRecord
100
AcDbBlockTableRecord
  2
*D14
340
0
 70
     4
280
     1
281
     0
  0
ENDTAB
  0
ENDSEC
  0
SECTION
  2
BLOCKS
  0
BLOCK
  5
20
330
1F
100
AcDbEntity
  8
0
100
AcDbBlockBegin
  2
*Model_Space
 70
     0
 10
0.0
 20
0.0
 30
0.0
  3
*Model_Space
  1

  0
ENDBLK
  5
21
330
1F
100
AcDbEntity
  8
0
100
AcDbBlockEnd
  0
BLOCK
  5
1C
330
1B
100
AcDbEntity
 67
     1
  8
0
100
AcDbBlockBegin
  2
*Paper_Space
 70
     0
 10
0.0
 20
0.0
 30
0.0
  3
*Paper_Space
  1

  0
ENDBLK
  5
1D
330
1B
100
AcDbEntity
 67
     1
  8
0
100
AcDbBlockEnd
  0
BLOCK
  5
24
330
23
100
AcDbEntity
 67
     1
  8
0
100
AcDbBlockBegin
  2
*Paper_Space0
 70
     0
 10
0.0
 20
0.0
 30
0.0
  3
*Paper_Space0
  1

  0
ENDBLK
  5
25
330
23
100
AcDbEntity
 67
     1
  8
0
100
AcDbBlockEnd
  0
BLOCK
  5
4F
330
4E
100
AcDbEntity
  8
0
100
AcDbBlockBegin
  2
NSY140
 70
     0
 10
0.0
 20
0.0
 30
0.0
  3
NSY140
  1

  0
LINE
  5
51
330
4E
100
AcDbEntity
  8
0
  6
ByBlock
 62
     0
370
    -2
100
AcDbLine
 10
0.0
 20
-2.5
 30
0.0
 11
0.0
 21
2.5
 31
0.0
  0
LINE
  5
52
330
4E
100
AcDbEntity
  8
0
  6
ByBlock
 62
     0
370
    -2
100
AcDbLine
 10
-2.5
 20
0.0
 30
0.0
 11
2.5
 21
0.0
 31
0.0
  0
LINE
  5
53
330
4E
100
AcDbEntity
  8
0
  6
ByBlock
 62
     0
370
    -2
100
AcDbLine
 10
-1.499999999999999
 20
-1.499999999999999
 30
0.0
 11
1.499999999999999
 21
1.499999999999999
 31
0.0
  0
ENDBLK
  5
50
330
4E
100
AcDbEntity
  8
0
100
AcDbBlockEnd
  0
BLOCK
  5
55
330
54
100
AcDbEntity
  8
0
100
AcDbBlockBegin
  2
NSY154
 70
     0
 10
0.0
 20
0.0
 30
0.0
  3
NSY154
  1

  0
LINE
  5
57
330
54
100
AcDbEntity
  8
0
  6
ByBlock
 62
     0
370
    -2
100
AcDbLine
 10
-0.0000000000000002
 20
-2.625
 30
0.0
 11
0.0000000000000002
 21
2.625
 31
0.0
  0
CIRCLE
  5
58
330
54
100
AcDbEntity
  8
0
  6
ByBlock
 62
     0
370
    -2
100
AcDbCircle
 10
0.0
 20
0.0
 30
0.0
 40
2.625
  0
LINE
  5
59
330
54
100
AcDbEntity
  8
0
  6
ByBlock
 62
     0
370
    -2
100
AcDbLine
 10
-2.621249999999999
 20
0.0000000000000002
 30
0.0
 11
2.625
 21
-0.0000000000000002
 31
0.0
  0
ARC
  5
5A
330
54
100
AcDbEntity
  8
0
  6
ByBlock
 62
     0
370
    -2
100
AcDbCircle
 10
0.0
 20
0.0
 30
0.0
 40
0.375
100
AcDbArc
 50
0.0
 51
90.0
  0
ARC
  5
5B
330
54
100
AcDbEntity
  8
0
  6
ByBlock
 62
     0
370
    -2
100
AcDbCircle
 10
0.0
 20
0.0
 30
0.0
 40
0.75
100
AcDbArc
 50
0.0
 51
90.0
  0
ARC
  5
5C
330
54
100
AcDbEntity
  8
0
  6
ByBlock
 62
     0
370
    -2
100
AcDbCircle
 10
0.0
 20
0.0
 30
0.0
 40
1.125
100
AcDbArc
 50
0.0
 51
90.0
  0
ARC
  5
5D
330
54
100
AcDbEntity
  8
0
  6
ByBlock
 62
     0
370
    -2
100
AcDbCircle
 10
0.0
 20
0.0
 30
0.0
 40
1.875
100
AcDbArc
 50
0.0
 51
90.0
  0
ARC
  5
5E
330
54
100
AcDbEntity
  8
0
  6
ByBlock
 62
     0
370
    -2
100
AcDbCircle
 10
0.0
 20
0.0
 30
0.0
 40
1.5
100
AcDbArc
 50
0.0
 51
90.0
  0
ARC
  5
5F
330
54
100
AcDbEntity
  8
0
  6
ByBlock
 62
     0
370
    -2
100
AcDbCircle
 10
0.0
 20
0.0
 30
0.0
 40
2.25
100
AcDbArc
 50
0.0
 51
90.0
  0
ARC
  5
60
330
54
100
AcDbEntity
  8
0
  6
ByBlock
 62
     0
370
    -2
100
AcDbCircle
 10
0.0
 20
0.0
 30
0.0
 40
0.375
100
AcDbArc
 50
180.0
 51
270.0
  0
ARC
  5
61
330
54
100
AcDbEntity
  8
0
  6
ByBlock
 62
     0
370
    -2
100
AcDbCircle
 10
0.0
 20
0.0
 30
0.0
 40
0.75
100
AcDbArc
 50
180.0
 51
270.0
  0
ARC
  5
62
330
54
100
AcDbEntity
  8
0
  6
ByBlock
 62
     0
370
    -2
100
AcDbCircle
 10
0.0
 20
0.0
 30
0.0
 40
1.125
100
AcDbArc
 50
180.0
 51
270.0
  0
ARC
  5
63
330
54
100
AcDbEntity
  8
0
  6
ByBlock
 62
     0
370
    -2
100
AcDbCircle
 10
0.0
 20
0.0
 30
0.0
 40
1.875
100
AcDbArc
 50
180.0
 51
270.0
  0
ARC
  5
64
330
54
100
AcDbEntity
  8
0
  6
ByBlock
 62
     0
370
    -2
100
AcDbCircle
 10
0.0
 20
0.0
 30
0.0
 40
1.5
100
AcDbArc
 50
180.0
 51
270.0
  0
ARC
  5
65
330
54
100
AcDbEntity
  8
0
  6
ByBlock
 62
     0
370
    -2
100
AcDbCircle
 10
0.0
 20
0.0
 30
0.0
 40
2.25
100
AcDbArc
 50
180.0
 51
270.0
  0
LINE
  5
66
330
54
100
AcDbEntity
  8
0
  6
ByBlock
 62
     0
370
    -2
100
AcDbLine
 10
-0.0000000000000002
 20
-3.75
 30
0.0
 11
0.0000000000000002
 21
3.75
 31
0.0
  0
LINE
  5
67
330
54
100
AcDbEntity
  8
0
  6
ByBlock
 62
     0
370
    -2
100
AcDbLine
 10
-3.75
 20
0.0000000000000002
 30
0.0
 11
3.75
 21
-0.0000000000000002
 31
0.0
  0
ENDBLK
  5
56
330
54
100
AcDbEntity
  8
0
100
AcDbBlockEnd
  0
BLOCK
  5
B7
330
B6
100
AcDbEntity
  8
0
100
AcDbBlockBegin
  2
COMPLEXOBJECT_0
 70
     0
 10
0.0
 20
0.0
 30
0.0
  3
COMPLEXOBJECT_0
  1

  0
LINE
  5
B9
330
B6
100
AcDbEntity
  8
DILALATIEVOEG EN AFDICHTING
  6
Continuous
 62
    30
370
    18
100
AcDbLine
 10
683.0437295023459
 20
731.3348239434739
 30
0.0
 11
661.2937295023459
 21
731.3348239434739
 31
0.0
  0
ARC
  5
BA
330
B6
100
AcDbEntity
  8
DILALATIEVOEG EN AFDICHTING
  6
Continuous
 62
    30
370
    18
100
AcDbCircle
 10
657.793729502346
 20
731.3348239434739
 30
0.0
 40
3.5
100
AcDbArc
 50
180.0
 51
0.0
  0
LINE
  5
BB
330
B6
100
AcDbEntity
  8
DILALATIEVOEG EN AFDICHTING
  6
Continuous
 62
    30
370
    18
100
AcDbLine
 10
654.293729502346
 20
731.3348239434739
 30
0.0
 11
632.5437295023459
 21
731.3348239434739
 31
0.0
  0
ARC
  5
BC
330
B6
100
AcDbEntity
  8
DILALATIEVOEG EN AFDICHTING
  6
Continuous
 62
    30
370
    18
100
AcDbCircle
 10
629.0437295023459
 20
731.3348239434739
 30
0.0
 40
3.5
100
AcDbArc
 50
180.0
 51
0.0
  0
LINE
  5
BD
330
B6
100
AcDbEntity
  8
DILALATIEVOEG EN AFDICHTING
  6
Continuous
 62
    30
370
    18
100
AcDbLine
 10
625.5437295023459
 20
731.3348239434739
 30
0.0
 11
603.793729502346
 21
731.3348239434739
 31
0.0
  0
ARC
  5
BE
330
B6
100
AcDbEntity
  8
DILALATIEVOEG EN AFDICHTING
  6
Continuous
 62
    30
370
    18
100
AcDbCircle
 10
600.293729502346
 20
731.3348239434739
 30
0.0
 40
3.5
100
AcDbArc
 50
180.0
 51
0.0
  0
ARC
  5
BF
330
B6
100
AcDbEntity
  8
DILALATIEVOEG EN AFDICHTING
  6
Continuous
 62
    30
370
    18
100
AcDbCircle
 10
542.7937295023459
 20
731.3348239434739
 30
0.0
 40
3.5
100
AcDbArc
 50
180.0
 51
0.0
  0
LINE
  5
C0
330
B6
100
AcDbEntity
  8
DILALATIEVOEG EN AFDICHTING
  6
Continuous
 62
    30
370
    18
100
AcDbLine
 10
539.2937295023459
 20
731.3348239434739
 30
0.0
 11
517.5437295023459
 21
731.3348239434739
 31
0.0
  0
ARC
  5
C1
330
B6
100
AcDbEntity
  8
DILALATIEVOEG EN AFDICHTING
  6
Continuous
 62
    30
370
    18
100
AcDbCircle
 10
514.0437295023459
 20
731.3348239434739
 30
0.0
 40
3.5
100
AcDbArc
 50
180.0
 51
0.0
  0
LINE
  5
C2
330
B6
100
AcDbEntity
  8
DILALATIEVOEG EN AFDICHTING
  6
Continuous
 62
    30
370
    18
100
AcDbLine
 10
510.543729502346
 20
731.3348239434739
 30
0.0
 11
488.7937295023459
 21
731.3348239434739
 31
0.0
  0
ARC
  5
C3
330
B6
100
AcDbEntity
  8
DILALATIEVOEG EN AFDICHTING
  6
Continuous
 62
    30
370
    18
100
AcDbCircle
 10
485.2937295023459
 20
731.3348239434739
 30
0.0
 40
3.5
100
AcDbArc
 50
180.0
 51
0.0
  0
LWPOLYLINE
  5
C4
330
B6
100
AcDbEntity
  8
DILALATIEVOEG EN AFDICHTING
  6
Continuous
 62
    30
370
    18
100
AcDbPolyline
 90
        4
 70
     0
 43
0.0
 10
481.7937295023459
 20
731.3348239434739
 10
470.9187295023459
 20
731.3348239434739
 10
470.9187295023459
 20
709.3348239434739
 10
481.7937295023459
 20
709.3348239434739
  0
ARC
  5
C5
330
B6
100
AcDbEntity
  8
DILALATIEVOEG EN AFDICHTING
  6
Continuous
 62
    30
370
    18
100
AcDbCircle
 10
485.2937295023459
 20
709.3348239434739
 30
0.0
 40
3.5
100
AcDbArc
 50
0.0
 51
180.0
  0
LINE
  5
C6
330
B6
100
AcDbEntity
  8
DILALATIEVOEG EN AFDICHTING
  6
Continuous
 62
    30
370
    18
100
AcDbLine
 10
488.7937295023459
 20
709.3348239434739
 30
0.0
 11
510.543729502346
 21
709.3348239434739
 31
0.0
  0
ARC
  5
C7
330
B6
100
AcDbEntity
  8
DILALATIEVOEG EN AFDICHTING
  6
Continuous
 62
    30
370
    18
100
AcDbCircle
 10
514.0437295023459
 20
709.3348239434739
 30
0.0
 40
3.5
100
AcDbArc
 50
0.0
 51
180.0
  0
LINE
  5
C8
330
B6
100
AcDbEntity
  8
DILALATIEVOEG EN AFDICHTING
  6
Continuous
 62
    30
370
    18
100
AcDbLine
 10
517.5437295023459
 20
709.3348239434739
 30
0.0
 11
539.2937295023459
 21
709.3348239434739
 31
0.0
  0
ARC
  5
C9
330
B6
100
AcDbEntity
  8
DILALATIEVOEG EN AFDICHTING
  6
Continuous
 62
    30
370
    18
100
AcDbCircle
 10
542.7937295023459
 20
709.3348239434739
 30
0.0
 40
3.5
100
AcDbArc
 50
0.0
 51
180.0
  0
ARC
  5
CA
330
B6
100
AcDbEntity
  8
DILALATIEVOEG EN AFDICHTING
  6
Continuous
 62
    30
370
    18
100
AcDbCircle
 10
600.293729502346
 20
709.3348239434739
 30
0.0
 40
3.5
100
AcDbArc
 50
0.0
 51
180.0
  0
LINE
  5
CB
330
B6
100
AcDbEntity
  8
DILALATIEVOEG EN AFDICHTING
  6
Continuous
 62
    30
370
    18
100
AcDbLine
 10
603.793729502346
 20
709.3348239434739
 30
0.0
 11
625.5437295023459
 21
709.3348239434739
 31
0.0
  0
ARC
  5
CC
330
B6
100
AcDbEntity
  8
DILALATIEVOEG EN AFDICHTING
  6
Continuous
 62
    30
370
    18
100
AcDbCircle
 10
629.0437295023459
 20
709.3348239434739
 30
0.0
 40
3.5
100
AcDbArc
 50
0.0
 51
180.0
  0
LINE
  5
CD
330
B6
100
AcDbEntity
  8
DILALATIEVOEG EN AFDICHTING
  6
Continuous
 62
    30
370
    18
100
AcDbLine
 10
632.5437295023459
 20
709.3348239434739
 30
0.0
 11
654.293729502346
 21
709.3348239434739
 31
0.0
  0
ARC
  5
CE
330
B6
100
AcDbEntity
  8
DILALATIEVOEG EN AFDICHTING
  6
Continuous
 62
    30
370
    18
100
AcDbCircle
 10
657.793729502346
 20
709.3348239434739
 30
0.0
 40
3.5
100
AcDbArc
 50
0.0
 51
180.0
  0
LINE
  5
CF
330
B6
100
AcDbEntity
  8
DILALATIEVOEG EN AFDICHTING
  6
Continuous
 62
    30
370
    18
100
AcDbLine
 10
661.2937295023459
 20
709.3348239434739
 30
0.0
 11
683.0437295023459
 21
709.3348239434739
 31
0.0
  0
ARC
  5
D0
330
B6
100
AcDbEntity
  8
DILALATIEVOEG EN AFDICHTING
  6
Continuous
 62
    30
370
    18
100
AcDbCircle
 10
686.5437295023459
 20
709.3348239434739
 30
0.0
 40
3.5
100
AcDbArc
 50
0.0
 51
180.0
  0
LWPOLYLINE
  5
D1
330
B6
100
AcDbEntity
  8
DILALATIEVOEG EN AFDICHTING
  6
Continuous
 62
    30
370
    18
100
AcDbPolyline
 90
        4
 70
     0
 43
0.0
 10
690.043729502346
 20
709.3348239434739
 10
700.9187295023459
 20
709.3348239434739
 10
700.9187295023459
 20
731.3348239434739
 10
690.043729502346
 20
731.3348239434739
  0
ARC
  5
D2
330
B6
100
AcDbEntity
  8
DILALATIEVOEG EN AFDICHTING
  6
Continuous
 62
    30
370
    18
100
AcDbCircle
 10
686.5437295023459
 20
731.3348239434739
 30
0.0
 40
3.5
100
AcDbArc
 50
180.0
 51
0.0
  0
CIRCLE
  5
D3
330
B6
100
AcDbEntity
  8
DILALATIEVOEG EN AFDICHTING
  6
Continuous
 62
    30
370
    18
100
AcDbCircle
 10
528.418729502346
 20
720.3348239434738
 30
0.0
 40
3.5
  0
CIRCLE
  5
D4
330
B6
100
AcDbEntity
  8
DILALATIEVOEG EN AFDICHTING
  6
Continuous
 62
    30
370
    18
100
AcDbCircle
 10
499.6687295023459
 20
720.3348239434738
 30
0.0
 40
3.5
  0
CIRCLE
  5
D5
330
B6
100
AcDbEntity
  8
DILALATIEVOEG EN AFDICHTING
  6
Continuous
 62
    30
370
    18
100
AcDbCircle
 10
585.9187295023459
 20
720.3348239434738
 30
0.0
 40
3.5
  0
CIRCLE
  5
D6
330
B6
100
AcDbEntity
  8
DILALATIEVOEG EN AFDICHTING
  6
Continuous
 62
    30
370
    18
100
AcDbCircle
 10
557.1687295023459
 20
720.3348239434738
 30
0.0
 40
3.5
  0
CIRCLE
  5
D7
330
B6
100
AcDbEntity
  8
DILALATIEVOEG EN AFDICHTING
  6
Continuous
 62
    30
370
    18
100
AcDbCircle
 10
643.4187295023459
 20
720.3348239434738
 30
0.0
 40
3.5
  0
CIRCLE
  5
D8
330
B6
100
AcDbEntity
  8
DILALATIEVOEG EN AFDICHTING
  6
Continuous
 62
    30
370
    18
100
AcDbCircle
 10
614.6687295023459
 20
720.3348239434738
 30
0.0
 40
3.5
  0
CIRCLE
  5
D9
330
B6
100
AcDbEntity
  8
DILALATIEVOEG EN AFDICHTING
  6
Continuous
 62
    30
370
    18
100
AcDbCircle
 10
672.168729502346
 20
720.3348239434738
 30
0.0
 40
3.5
  0
ARC
  5
DA
330
B6
100
AcDbEntity
  8
DILALATIEVOEG EN AFDICHTING
  6
Continuous
 62
    30
370
    18
100
AcDbCircle
 10
571.5437295023459
 20
731.3348239434739
 30
0.0
 40
3.5
100
AcDbArc
 50
180.0
 51
0.0
  0
ARC
  5
DB
330
B6
100
AcDbEntity
  8
DILALATIEVOEG EN AFDICHTING
  6
Continuous
 62
    30
370
    18
100
AcDbCircle
 10
571.5437295023459
 20
709.3348239434739
 30
0.0
 40
3.5
100
AcDbArc
 50
0.0
 51
180.0
  0
LINE
  5
DC
330
B6
100
AcDbEntity
  8
DILALATIEVOEG EN AFDICHTING
  6
Continuous
 62
    30
370
    18
100
AcDbLine
 10
596.7937295023459
 20
731.3348239434739
 30
0.0
 11
575.0437295023459
 21
731.3348239434739
 31
0.0
  0
LINE
  5
DD
330
B6
100
AcDbEntity
  8
DILALATIEVOEG EN AFDICHTING
  6
Continuous
 62
    30
370
    18
100
AcDbLine
 10
568.0437295023459
 20
731.3348239434739
 30
0.0
 11
546.293729502346
 21
731.3348239434739
 31
0.0
  0
LINE
  5
DE
330
B6
100
AcDbEntity
  8
DILALATIEVOEG EN AFDICHTING
  6
Continuous
 62
    30
370
    18
100
AcDbLine
 10
546.293729502346
 20
709.3348239434739
 30
0.0
 11
568.0437295023459
 21
709.3348239434739
 31
0.0
  0
LINE
  5
DF
330
B6
100
AcDbEntity
  8
DILALATIEVOEG EN AFDICHTING
  6
Continuous
 62
    30
370
    18
100
AcDbLine
 10
575.0437295023459
 20
709.3348239434739
 30
0.0
 11
596.7937295023459
 21
709.3348239434739
 31
0.0
  0
ENDBLK
  5
B8
330
B6
100
AcDbEntity
  8
0
100
AcDbBlockEnd
  0
BLOCK
  5
ED
330
EC
100
AcDbEntity
  8
0
100
AcDbBlockBegin
  2
ALL_ML_STRICH
 70
     0
 10
0.0
 20
0.0
 30
0.0
  3
ALL_ML_STRICH
  1

  0
LINE
  5
EF
330
EC
100
AcDbEntity
  8
0
  6
ByBlock
 62
     0
370
    -2
100
AcDbLine
 10
-1.0
 20
0.0
 30
0.0
 11
0.5
 21
0.0
 31
0.0
  0
LINE
  5
F0
330
EC
100
AcDbEntity
  8
0
  6
ByBlock
 62
     0
370
    -2
100
AcDbLine
 10
0.0
 20
-0.5
 30
0.0
 11
0.0
 21
0.5
 31
0.0
  0
LINE
  5
F1
330
EC
100
AcDbEntity
  8
0
  6
ByBlock
 62
     0
370
    -2
100
AcDbLine
 10
-0.3
 20
-0.3
 30
0.0
 11
0.3
 21
0.3
 31
0.0
  0
ENDBLK
  5
EE
330
EC
100
AcDbEntity
  8
0
100
AcDbBlockEnd
  0
BLOCK
  5
F3
330
F2
100
AcDbEntity
  8
0
100
AcDbBlockBegin
  2
*D5
 70
     1
 10
0.0
 20
0.0
 30
0.0
  3
*D5
  1

  0
LINE
  5
26B
330
F2
100
AcDbEntity
  8
Maatlijnen 1_5
  6
Continuous
 62
    30
440
 16777216
370
     0
100
AcDbLine
 10
181.0270504614091
 20
1094.340109713947
 30
0.0
 11
251.0270504614091
 21
1094.340109713947
 31
0.0
  0
MTEXT
  5
26C
330
F2
100
AcDbEntity
  8
Maatlijnen 1_5
  6
Continuous
 62
    30
440
 16777216
370
    18
100
AcDbMText
 10
215.7386545569722
 20
1104.476628485278
 30
0.0
 40
10.0
 41
21.0
 46
0.0
 71
     5
 72
     1
  1
100
  7
Trebuchet MS
 73
     1
 44
1.0
  0
INSERT
  5
26D
330
F2
100
AcDbEntity
  8
Maatlijnen 1_5
  6
Continuous
 62
    30
440
 16777216
370
     0
100
AcDbBlockReference
  2
ALL_ML_STRICH
 10
166.0270504614091
 20
1094.340109713947
 30
0.0
 41
15.0
 42
15.0
 43
15.0
 50
180.0
  0
INSERT
  5
26E
330
F2
100
AcDbEntity
  8
Maatlijnen 1_5
  6
Continuous
 62
    30
440
 16777216
370
     0
100
AcDbBlockReference
  2
ALL_ML_STRICH
 10
266.0270504614091
 20
1094.340109713947
 30
0.0
 41
15.0
 42
15.0
 43
15.0
  0
POINT
  5
26F
330
F2
100
AcDbEntity
  8
DEFPOINTS
  6
Continuous
 62
     0
440
 16777216
100
AcDbPoint
 10
166.0270504614091
 20
1069.341109713946
 30
0.0
  0
POINT
  5
270
330
F2
100
AcDbEntity
  8
DEFPOINTS
  6
Continuous
 62
     0
440
 16777216
100
AcDbPoint
 10
266.0270504614091
 20
1069.341109713946
 30
0.0
  0
POINT
  5
271
330
F2
100
AcDbEntity
  8
DEFPOINTS
  6
Continuous
 62
     0
440
 16777216
100
AcDbPoint
 10
266.0270504614091
 20
1094.340109713947
 30
0.0
  0
ENDBLK
  5
F4
330
F2
100
AcDbEntity
  8
0
100
AcDbBlockEnd
  0
BLOCK
  5
FF
330
FE
100
AcDbEntity
  8
0
100
AcDbBlockBegin
  2
*D6
 70
     1
 10
0.0
 20
0.0
 30
0.0
  3
*D6
  1

  0
LINE
  5
262
330
FE
100
AcDbEntity
  8
Maatlijnen 1_5
  6
Continuous
 62
    30
440
 16777216
370
     0
100
AcDbLine
 10
251.0270504614091
 20
1094.340109713947
 30
0.0
 11
236.0270504614091
 21
1094.340109713947
 31
0.0
  0
LINE
  5
263
330
FE
100
AcDbEntity
  8
Maatlijnen 1_5
  6
Continuous
 62
    30
440
 16777216
370
     0
100
AcDbLine
 10
321.0270504613836
 20
1094.340109713947
 30
0.0
 11
336.0270504613836
 21
1094.340109713947
 31
0.0
  0
MTEXT
  5
264
330
FE
100
AcDbEntity
  8
Maatlijnen 1_5
  6
Continuous
 62
    30
440
 16777216
370
    18
100
AcDbMText
 10
285.9041835671984
 20
1104.476628485278
 30
0.0
 40
10.0
 41
14.0
 46
0.0
 71
     5
 72
     1
  1
40
  7
Trebuchet MS
 73
     1
 44
1.0
  0
LINE
  5
265
330
FE
100
AcDbEntity
  8
Maatlijnen 1_5
  6
Continuous
 62
    30
440
 16777216
370
     0
100
AcDbLine
 10
266.0270504614091
 20
1094.340109713947
 30
0.0
 11
306.0270504613836
 21
1094.340109713947
 31
0.0
  0
INSERT
  5
266
330
FE
100
AcDbEntity
  8
Maatlijnen 1_5
  6
Continuous
 62
    30
440
 16777216
370
     0
100
AcDbBlockReference
  2
ALL_ML_STRICH
 10
266.0270504614091
 20
1094.340109713947
 30
0.0
 41
15.0
 42
15.0
 43
15.0
  0
INSERT
  5
267
330
FE
100
AcDbEntity
  8
Maatlijnen 1_5
  6
Continuous
 62
    30
440
 16777216
370
     0
100
AcDbBlockReference
  2
ALL_ML_STRICH
 10
306.0270504613836
 20
1094.340109713947
 30
0.0
 41
15.0
 42
15.0
 43
15.0
 50
180.0
  0
POINT
  5
268
330
FE
100
AcDbEntity
  8
DEFPOINTS
  6
Continuous
 62
     0
440
 16777216
100
AcDbPoint
 10
266.0270504614091
 20
1069.341109713946
 30
0.0
  0
POINT
  5
269
330
FE
100
AcDbEntity
  8
DEFPOINTS
  6
Continuous
 62
     0
440
 16777216
100
AcDbPoint
 10
306.0270504613836
 20
1069.341109713946
 30
0.0
  0
POINT
  5
26A
330
FE
100
AcDbEntity
  8
DEFPOINTS
  6
Continuous
 62
     0
440
 16777216
100
AcDbPoint
 10
306.0270504613836
 20
1094.340109713947
 30
0.0
  0
ENDBLK
  5
100
330
FE
100
AcDbEntity
  8
0
100
AcDbBlockEnd
  0
BLOCK
  5
10B
330
10A
100
AcDbEntity
  8
0
100
AcDbBlockBegin
  2
*D7
 70
     1
 10
0.0
 20
0.0
 30
0.0
  3
*D7
  1

  0
LINE
  5
25B
330
10A
100
AcDbEntity
  8
Maatlijnen 1_5
  6
Continuous
 62
    30
440
 16777216
370
     0
100
AcDbLine
 10
321.0270504613836
 20
1094.340109713947
 30
0.0
 11
426.0270504613975
 21
1094.340109713947
 31
0.0
  0
MTEXT
  5
25C
330
10A
100
AcDbEntity
  8
Maatlijnen 1_5
  6
Continuous
 62
    30
440
 16777216
370
    18
100
AcDbMText
 10
373.4161289596841
 20
1104.476628485278
 30
0.0
 40
10.0
 41
21.0
 46
0.0
 71
     5
 72
     1
  1
135
  7
Trebuchet MS
 73
     1
 44
1.0
  0
INSERT
  5
25D
330
10A
100
AcDbEntity
  8
Maatlijnen 1_5
  6
Continuous
 62
    30
440
 16777216
370
     0
100
AcDbBlockReference
  2
ALL_ML_STRICH
 10
306.0270504613836
 20
1094.340109713947
 30
0.0
 41
15.0
 42
15.0
 43
15.0
 50
180.0
  0
INSERT
  5
25E
330
10A
100
AcDbEntity
  8
Maatlijnen 1_5
  6
Continuous
 62
    30
440
 16777216
370
     0
100
AcDbBlockReference
  2
ALL_ML_STRICH
 10
441.0270504613976
 20
1094.340109713947
 30
0.0
 41
15.0
 42
15.0
 43
15.0
  0
POINT
  5
25F
330
10A
100
AcDbEntity
  8
DEFPOINTS
  6
Continuous
 62
     0
440
 16777216
100
AcDbPoint
 10
306.0270504613836
 20
1069.341109713946
 30
0.0
  0
POINT
  5
260
330
10A
100
AcDbEntity
  8
DEFPOINTS
  6
Continuous
 62
     0
440
 16777216
100
AcDbPoint
 10
441.0270504613976
 20
1069.341109713946
 30
0.0
  0
POINT
  5
261
330
10A
100
AcDbEntity
  8
DEFPOINTS
  6
Continuous
 62
     0
440
 16777216
100
AcDbPoint
 10
441.0270504613976
 20
1094.340109713947
 30
0.0
  0
ENDBLK
  5
10C
330
10A
100
AcDbEntity
  8
0
100
AcDbBlockEnd
  0
BLOCK
  5
116
330
115
100
AcDbEntity
  8
0
100
AcDbBlockBegin
  2
*D8
 70
     1
 10
0.0
 20
0.0
 30
0.0
  3
*D8
  1

  0
LINE
  5
254
330
115
100
AcDbEntity
  8
Maatlijnen 1_5
  6
Continuous
 62
    30
440
 16777216
370
     0
100
AcDbLine
 10
456.0270504613976
 20
1094.340109713947
 30
0.0
 11
546.0270504613975
 21
1094.340109713947
 31
0.0
  0
MTEXT
  5
255
330
115
100
AcDbEntity
  8
Maatlijnen 1_5
  6
Continuous
 62
    30
440
 16777216
370
    18
100
AcDbMText
 10
500.7386545569606
 20
1104.476628485278
 30
0.0
 40
10.0
 41
21.0
 46
0.0
 71
     5
 72
     1
  1
120
  7
Trebuchet MS
 73
     1
 44
1.0
  0
INSERT
  5
256
330
115
100
AcDbEntity
  8
Maatlijnen 1_5
  6
Continuous
 62
    30
440
 16777216
370
     0
100
AcDbBlockReference
  2
ALL_ML_STRICH
 10
441.0270504613976
 20
1094.340109713947
 30
0.0
 41
15.0
 42
15.0
 43
15.0
 50
180.0
  0
INSERT
  5
257
330
115
100
AcDbEntity
  8
Maatlijnen 1_5
  6
Continuous
 62
    30
440
 16777216
370
     0
100
AcDbBlockReference
  2
ALL_ML_STRICH
 10
561.0270504613975
 20
1094.340109713947
 30
0.0
 41
15.0
 42
15.0
 43
15.0
  0
POINT
  5
258
330
115
100
AcDbEntity
  8
DEFPOINTS
  6
Continuous
 62
     0
440
 16777216
100
AcDbPoint
 10
441.0270504613976
 20
1069.341109713946
 30
0.0
  0
POINT
  5
259
330
115
100
AcDbEntity
  8
DEFPOINTS
  6
Continuous
 62
     0
440
 16777216
100
AcDbPoint
 10
561.0270504613975
 20
1069.341109713947
 30
0.0
  0
POINT
  5
25A
330
115
100
AcDbEntity
  8
DEFPOINTS
  6
Continuous
 62
     0
440
 16777216
100
AcDbPoint
 10
561.0270504613975
 20
1094.340109713947
 30
0.0
  0
ENDBLK
  5
117
330
115
100
AcDbEntity
  8
0
100
AcDbBlockEnd
  0
BLOCK
  5
121
330
120
100
AcDbEntity
  8
0
100
AcDbBlockBegin
  2
*D9
 70
     1
 10
0.0
 20
0.0
 30
0.0
  3
*D9
  1

  0
LINE
  5
24D
330
120
100
AcDbEntity
  8
Maatlijnen 1_5
  6
Continuous
 62
    30
440
 16777216
370
     0
100
AcDbLine
 10
181.0270504614091
 20
1124.340109713946
 30
0.0
 11
546.0270504613975
 21
1124.340109713946
 31
0.0
  0
MTEXT
  5
24E
330
120
100
AcDbEntity
  8
Maatlijnen 1_5
  6
Continuous
 62
    30
440
 16777216
370
    18
100
AcDbMText
 10
363.4161289596968
 20
1134.51075817811
 30
0.0
 40
10.0
 41
21.0
 46
0.0
 71
     5
 72
     1
  1
395
  7
Trebuchet MS
 73
     1
 44
1.0
  0
INSERT
  5
24F
330
120
100
AcDbEntity
  8
Maatlijnen 1_5
  6
Continuous
 62
    30
440
 16777216
370
     0
100
AcDbBlockReference
  2
ALL_ML_STRICH
 10
166.0270504614091
 20
1124.340109713946
 30
0.0
 41
15.0
 42
15.0
 43
15.0
 50
180.0
  0
INSERT
  5
250
330
120
100
AcDbEntity
  8
Maatlijnen 1_5
  6
Continuous
 62
    30
440
 16777216
370
     0
100
AcDbBlockReference
  2
ALL_ML_STRICH
 10
561.0270504613975
 20
1124.340109713946
 30
0.0
 41
15.0
 42
15.0
 43
15.0
  0
POINT
  5
251
330
120
100
AcDbEntity
  8
DEFPOINTS
  6
Continuous
 62
     0
440
 16777216
100
AcDbPoint
 10
166.0270504614091
 20
1069.341109713946
 30
0.0
  0
POINT
  5
252
330
120
100
AcDbEntity
  8
DEFPOINTS
  6
Continuous
 62
     0
440
 16777216
100
AcDbPoint
 10
561.0270504613975
 20
1069.341109713947
 30
0.0
  0
POINT
  5
253
330
120
100
AcDbEntity
  8
DEFPOINTS
  6
Continuous
 62
     0
440
 16777216
100
AcDbPoint
 10
561.0270504613975
 20
1124.340109713946
 30
0.0
  0
ENDBLK
  5
122
330
120
100
AcDbEntity
  8
0
100
AcDbBlockEnd
  0
BLOCK
  5
12C
330
12B
100
AcDbEntity
  8
0
100
AcDbBlockBegin
  2
*D10
 70
     1
 10
0.0
 20
0.0
 30
0.0
  3
*D10
  1

  0
LINE
  5
246
330
12B
100
AcDbEntity
  8
Maatlijnen 1_5
  6
Continuous
 62
    30
440
 16777216
370
     0
100
AcDbLine
 10
851.0270504614167
 20
429.3401097139506
 30
0.0
 11
851.0270504614167
 21
499.3401097139469
 31
0.0
  0
MTEXT
  5
247
330
12B
100
AcDbEntity
  8
Maatlijnen 1_5
  6
Continuous
 62
    30
440
 16777216
370
    18
100
AcDbMText
 10
840.8905316900852
 20
464.0517138095116
 30
0.0
 40
10.0
 41
21.0
 46
0.0
 71
     5
 72
     1
  1
100
  7
Trebuchet MS
 11
0.0000000000000001
 21
1.0
 31
0.0
 73
     1
 44
1.0
  0
INSERT
  5
248
330
12B
100
AcDbEntity
  8
Maatlijnen 1_5
  6
Continuous
 62
    30
440
 16777216
370
     0
100
AcDbBlockReference
  2
ALL_ML_STRICH
 10
851.0270504614167
 20
414.3401097139506
 30
0.0
 41
15.0
 42
15.0
 43
15.0
 50
270.0
  0
INSERT
  5
249
330
12B
100
AcDbEntity
  8
Maatlijnen 1_5
  6
Continuous
 62
    30
440
 16777216
370
     0
100
AcDbBlockReference
  2
ALL_ML_STRICH
 10
851.0270504614167
 20
514.3401097139469
 30
0.0
 41
15.0
 42
15.0
 43
15.0
 50
90.0
  0
POINT
  5
24A
330
12B
100
AcDbEntity
  8
DEFPOINTS
  6
Continuous
 62
     0
440
 16777216
100
AcDbPoint
 10
826.0280504614096
 20
414.3401097139506
 30
0.0
  0
POINT
  5
24B
330
12B
100
AcDbEntity
  8
DEFPOINTS
  6
Continuous
 62
     0
440
 16777216
100
AcDbPoint
 10
826.0280504614096
 20
514.3401097139469
 30
0.0
  0
POINT
  5
24C
330
12B
100
AcDbEntity
  8
DEFPOINTS
  6
Continuous
 62
     0
440
 16777216
100
AcDbPoint
 10
851.0270504614167
 20
514.3401097139469
 30
0.0
  0
ENDBLK
  5
12D
330
12B
100
AcDbEntity
  8
0
100
AcDbBlockEnd
  0
BLOCK
  5
137
330
136
100
AcDbEntity
  8
0
100
AcDbBlockBegin
  2
*D11
 70
     1
 10
0.0
 20
0.0
 30
0.0
  3
*D11
  1

  0
LINE
  5
23D
330
136
100
AcDbEntity
  8
Maatlijnen 1_5
  6
Continuous
 62
    30
440
 16777216
370
     0
100
AcDbLine
 10
851.0270504614167
 20
499.3401097139469
 30
0.0
 11
851.0270504614167
 21
484.3401097139468
 31
0.0
  0
LINE
  5
23E
330
136
100
AcDbEntity
  8
Maatlijnen 1_5
  6
Continuous
 62
    30
440
 16777216
370
     0
100
AcDbLine
 10
851.0270504614167
 20
569.3401097096414
 30
0.0
 11
851.0270504614167
 21
584.3401097096414
 31
0.0
  0
MTEXT
  5
23F
330
136
100
AcDbEntity
  8
Maatlijnen 1_5
  6
Continuous
 62
    30
440
 16777216
370
    18
100
AcDbMText
 10
840.8905316900852
 20
534.217242817596
 30
0.0
 40
10.0
 41
14.0
 46
0.0
 71
     5
 72
     1
  1
40
  7
Trebuchet MS
 11
0.0000000000000001
 21
1.0
 31
0.0
 73
     1
 44
1.0
  0
LINE
  5
240
330
136
100
AcDbEntity
  8
Maatlijnen 1_5
  6
Continuous
 62
    30
440
 16777216
370
     0
100
AcDbLine
 10
851.0270504614167
 20
514.3401097139469
 30
0.0
 11
851.0270504614167
 21
554.3401097096413
 31
0.0
  0
INSERT
  5
241
330
136
100
AcDbEntity
  8
Maatlijnen 1_5
  6
Continuous
 62
    30
440
 16777216
370
     0
100
AcDbBlockReference
  2
ALL_ML_STRICH
 10
851.0270504614167
 20
514.3401097139469
 30
0.0
 41
15.0
 42
15.0
 43
15.0
 50
90.0
  0
INSERT
  5
242
330
136
100
AcDbEntity
  8
Maatlijnen 1_5
  6
Continuous
 62
    30
440
 16777216
370
     0
100
AcDbBlockReference
  2
ALL_ML_STRICH
 10
851.0270504614167
 20
554.3401097096413
 30
0.0
 41
15.0
 42
15.0
 43
15.0
 50
270.0
  0
POINT
  5
243
330
136
100
AcDbEntity
  8
DEFPOINTS
  6
Continuous
 62
     0
440
 16777216
100
AcDbPoint
 10
826.0280504614096
 20
514.3401097139469
 30
0.0
  0
POINT
  5
244
330
136
100
AcDbEntity
  8
DEFPOINTS
  6
Continuous
 62
     0
440
 16777216
100
AcDbPoint
 10
826.0280504614117
 20
554.3401097096413
 30
0.0
  0
POINT
  5
245
330
136
100
AcDbEntity
  8
DEFPOINTS
  6
Continuous
 62
     0
440
 16777216
100
AcDbPoint
 10
851.0270504614167
 20
554.3401097096413
 30
0.0
  0
ENDBLK
  5
138
330
136
100
AcDbEntity
  8
0
100
AcDbBlockEnd
  0
BLOCK
  5
142
330
141
100
AcDbEntity
  8
0
100
AcDbBlockBegin
  2
*D12
 70
     1
 10
0.0
 20
0.0
 30
0.0
  3
*D12
  1

  0
LINE
  5
236
330
141
100
AcDbEntity
  8
Maatlijnen 1_5
  6
Continuous
 62
    30
440
 16777216
370
     0
100
AcDbLine
 10
851.0270504614167
 20
569.3401097096414
 30
0.0
 11
851.0270504614167
 21
674.3401097139505
 31
0.0
  0
MTEXT
  5
237
330
141
100
AcDbEntity
  8
Maatlijnen 1_5
  6
Continuous
 62
    30
440
 16777216
370
    18
100
AcDbMText
 10
840.8905316900852
 20
621.7291882100893
 30
0.0
 40
10.0
 41
21.0
 46
0.0
 71
     5
 72
     1
  1
135
  7
Trebuchet MS
 11
0.0000000000000001
 21
1.0
 31
0.0
 73
     1
 44
1.0
  0
INSERT
  5
238
330
141
100
AcDbEntity
  8
Maatlijnen 1_5
  6
Continuous
 62
    30
440
 16777216
370
     0
100
AcDbBlockReference
  2
ALL_ML_STRICH
 10
851.0270504614167
 20
554.3401097096413
 30
0.0
 41
15.0
 42
15.0
 43
15.0
 50
270.0
  0
INSERT
  5
239
330
141
100
AcDbEntity
  8
Maatlijnen 1_5
  6
Continuous
 62
    30
440
 16777216
370
     0
100
AcDbBlockReference
  2
ALL_ML_STRICH
 10
851.0270504614167
 20
689.3401097139506
 30
0.0
 41
15.0
 42
15.0
 43
15.0
 50
90.0
  0
POINT
  5
23A
330
141
100
AcDbEntity
  8
DEFPOINTS
  6
Continuous
 62
     0
440
 16777216
100
AcDbPoint
 10
826.0280504614117
 20
554.3401097096413
 30
0.0
  0
POINT
  5
23B
330
141
100
AcDbEntity
  8
DEFPOINTS
  6
Continuous
 62
     0
440
 16777216
100
AcDbPoint
 10
826.0280504614131
 20
689.3401097139506
 30
0.0
  0
POINT
  5
23C
330
141
100
AcDbEntity
  8
DEFPOINTS
  6
Continuous
 62
     0
440
 16777216
100
AcDbPoint
 10
851.0270504614167
 20
689.3401097139506
 30
0.0
  0
ENDBLK
  5
143
330
141
100
AcDbEntity
  8
0
100
AcDbBlockEnd
  0
BLOCK
  5
14D
330
14C
100
AcDbEntity
  8
0
100
AcDbBlockBegin
  2
*D13
 70
     1
 10
0.0
 20
0.0
 30
0.0
  3
*D13
  1

  0
LINE
  5
22F
330
14C
100
AcDbEntity
  8
Maatlijnen 1_5
  6
Continuous
 62
    30
440
 16777216
370
     0
100
AcDbLine
 10
851.0270504614169
 20
704.3401097139506
 30
0.0
 11
851.0270504614167
 21
774.3401097139508
 31
0.0
  0
MTEXT
  5
230
330
14C
100
AcDbEntity
  8
Maatlijnen 1_5
  6
Continuous
 62
    30
440
 16777216
370
    18
100
AcDbMText
 10
840.8905316900852
 20
739.0517138095135
 30
0.0
 40
10.0
 41
21.0
 46
0.0
 71
     5
 72
     1
  1
100
  7
Trebuchet MS
 11
0.0000000000000001
 21
1.0
 31
0.0
 73
     1
 44
1.0
  0
INSERT
  5
231
330
14C
100
AcDbEntity
  8
Maatlijnen 1_5
  6
Continuous
 62
    30
440
 16777216
370
     0
100
AcDbBlockReference
  2
ALL_ML_STRICH
 10
851.0270504614169
 20
689.3401097139506
 30
0.0
 41
15.0
 42
15.0
 43
15.0
 50
270.0
  0
INSERT
  5
232
330
14C
100
AcDbEntity
  8
Maatlijnen 1_5
  6
Continuous
 62
    30
440
 16777216
370
     0
100
AcDbBlockReference
  2
ALL_ML_STRICH
 10
851.0270504614167
 20
789.3401097139508
 30
0.0
 41
15.0
 42
15.0
 43
15.0
 50
90.0
  0
POINT
  5
233
330
14C
100
AcDbEntity
  8
DEFPOINTS
  6
Continuous
 62
     0
440
 16777216
100
AcDbPoint
 10
826.0280504614131
 20
689.3401097139506
 30
0.0
  0
POINT
  5
234
330
14C
100
AcDbEntity
  8
DEFPOINTS
  6
Continuous
 62
     0
440
 16777216
100
AcDbPoint
 10
826.0280504614168
 20
789.3401097139508
 30
0.0
  0
POINT
  5
235
330
14C
100
AcDbEntity
  8
DEFPOINTS
  6
Continuous
 62
     0
440
 16777216
100
AcDbPoint
 10
851.0270504614167
 20
789.3401097139508
 30
0.0
  0
ENDBLK
  5
14E
330
14C
100
AcDbEntity
  8
0
100
AcDbBlockEnd
  0
BLOCK
  5
158
330
157
100
AcDbEntity
  8
0
100
AcDbBlockBegin
  2
*D14
 70
     1
 10
0.0
 20
0.0
 30
0.0
  3
*D14
  1

  0
LINE
  5
228
330
157
100
AcDbEntity
  8
Maatlijnen 1_5
  6
Continuous
 62
    30
440
 16777216
370
     0
100
AcDbLine
 10
881.027050461415
 20
429.3401097139506
 30
0.0
 11
881.027050461415
 21
774.3401097139508
 31
0.0
  0
MTEXT
  5
229
330
157
100
AcDbEntity
  8
Maatlijnen 1_5
  6
Continuous
 62
    30
440
 16777216
370
    18
100
AcDbMText
 10
870.8905316900834
 20
601.7291882122439
 30
0.0
 40
10.0
 41
21.0
 46
0.0
 71
     5
 72
     1
  1
375
  7
Trebuchet MS
 11
0.0000000000000001
 21
1.0
 31
0.0
 73
     1
 44
1.0
  0
INSERT
  5
22A
330
157
100
AcDbEntity
  8
Maatlijnen 1_5
  6
Continuous
 62
    30
440
 16777216
370
     0
100
AcDbBlockReference
  2
ALL_ML_STRICH
 10
881.027050461415
 20
414.3401097139506
 30
0.0
 41
15.0
 42
15.0
 43
15.0
 50
270.0
  0
INSERT
  5
22B
330
157
100
AcDbEntity
  8
Maatlijnen 1_5
  6
Continuous
 62
    30
440
 16777216
370
     0
100
AcDbBlockReference
  2
ALL_ML_STRICH
 10
881.027050461415
 20
789.3401097139508
 30
0.0
 41
15.0
 42
15.0
 43
15.0
 50
90.0
  0
POINT
  5
22C
330
157
100
AcDbEntity
  8
DEFPOINTS
  6
Continuous
 62
     0
440
 16777216
100
AcDbPoint
 10
826.0280504614096
 20
414.3401097139506
 30
0.0
  0
POINT
  5
22D
330
157
100
AcDbEntity
  8
DEFPOINTS
  6
Continuous
 62
     0
440
 16777216
100
AcDbPoint
 10
826.0280504614168
 20
789.3401097139508
 30
0.0
  0
POINT
  5
22E
330
157
100
AcDbEntity
  8
DEFPOINTS
  6
Continuous
 62
     0
440
 16777216
100
AcDbPoint
 10
881.027050461415
 20
789.3401097139508
 30
0.0
  0
ENDBLK
  5
159
330
157
100
AcDbEntity
  8
0
100
AcDbBlockEnd
  0
ENDSEC
  0
SECTION
  2
ENTITIES
  0
LWPOLYLINE
  5
68
330
1F
100
AcDbEntity
  8
AANHAALLIJN
  6
Continuous
 62
     7
370
    25
100
AcDbPolyline
 90
        5
 70
     0
 43
0.0
 10
1050.0
 20
0.0
 10
0.0
 20
0.0
 10
0.0
 20
1485.0
 10
1050.0
 20
1485.0
 10
1050.000000000004
 20
0.0
  0
LWPOLYLINE
  5
69
330
1F
100
AcDbEntity
  8
DEFPOINTS
  6
PUNKT2_S9
 62
     7
370
    13
100
AcDbPolyline
 90
        5
 70
     1
 43
0.0
 10
990.0
 20
60.0
 10
60.0
 20
60.0
 10
60.0
 20
1260.0
 10
990.0
 20
1260.0
 10
990.0
 20
60.0
  0
LWPOLYLINE
  5
6A
330
1F
100
AcDbEntity
  8
DILALATIEVOEG EN AFDICHTING
  6
Continuous
 62
     5
370
    13
100
AcDbPolyline
 90
        5
 70
     1
 43
0.0
 10
506.0270504614163
 20
686.5401097139401
 10
626.0270504614164
 20
686.5401097139401
 10
626.0270504614164
 20
687.3401097139431
 10
506.0270504614163
 20
687.3401097139431
 10
506.0270504614163
 20
686.5401097139401
  0
HATCH
  5
6B
330
1F
100
AcDbEntity
  8
DILALATIEVOEG EN AFDICHTING
  6
Continuous
 62
   250
370
    25
100
AcDbHatch
 10
0.0
 20
0.0
 30
0.0
210
0.0
220
0.0
230
1.0
  2
SOLID
 70
     1
 71
     0
 91
        1
 92
        3
 72
     0
 73
     1
 93
        4
 10
626.0270504614164
 20
686.5401097139401
 10
626.0270504614164
 20
687.3401097139431
 10
506.0270504614163
 20
687.3401097139431
 10
506.0270504614163
 20
686.5401097139401
 97
        0
 75
     0
 76
     1
 98
        0
450
        0
451
        0
460
0.0
461
0.0
452
        1
462
0.0
453
        0
470

  0
INSERT
  5
8E
330
1F
100
AcDbEntity
  8
AANHAALLIJN
  6
Continuous
 62
    30
370
    18
100
AcDbBlockReference
  2
NSY154
 10
606.0270504614163
 20
686.5401097139401
 30
0.0
 41
1.962533333333333
 42
1.962533333333333
 43
1.962533333333333
  0
INSERT
  5
8F
330
1F
100
AcDbEntity
  8
AANHAALLIJN
  6
Continuous
 62
    30
370
    18
100
AcDbBlockReference
  2
NSY154
 10
501.0270504614018
 20
969.3401097139503
 30
0.0
 41
1.962533333333333
 42
1.962533333333333
 43
1.962533333333333
  0
LWPOLYLINE
  5
90
330
1F
100
AcDbEntity
  8
AANHAALLIJN
  6
Continuous
 62
    30
370
    18
100
AcDbPolyline
 90
        3
 70
     0
 43
0.0
 10
921.0270505942736
 20
849.3401097139503
 10
719.5136985797907
 20
849.3401097139503
 10
606.0270504614163
 20
686.5401097139401
  0
MTEXT
  5
91
330
1F
100
AcDbEntity
  8
AANHAALLIJN
  6
Continuous
 62
    30
370
    18
100
AcDbMText
 10
921.0270505942737
 20
853.9234430472854
 30
0.0
 40
12.5
 41
172.9166666666668
 46
0.0
 71
     9
 72
     5
  1
luchtdicht membraan
  7
Trebuchet MS
 73
     1
 44
1.0
  0
MTEXT
  5
92
330
1F
100
AcDbEntity
  8
AANHAALLIJN
  6
Continuous
 62
    30
370
    18
100
AcDbMText
 10
151.0270504588261
 20
362.6734430429797
 30
0.0
 40
12.5
 41
241.4379070050514
 46
0.0
 71
     1
 72
     5
  1
let op zorgvuldige\Phoekaansluiting isolatieplaten
  7
Trebuchet MS
 73
     1
 44
0.783132530120482
  0
LWPOLYLINE
  5
93
330
1F
100
AcDbEntity
  8
AANHAALLIJN
  6
Continuous
 62
    30
370
    18
100
AcDbPolyline
 90
        3
 70
     0
 43
0.0
 10
151.0270504588261
 20
329.3401097096489
 10
391.0270504588261
 20
329.3401097096489
 10
441.0270504588261
 20
549.3401097096489
  0
MTEXT
  5
94
330
1F
100
AcDbEntity
  8
AANHAALLIJN
  6
Continuous
 62
     5
370
    13
100
AcDbMText
 10
70.00000000000001
 20
43.0
 30
0.0
 40
7.5
 41
440.1289571934895
 46
0.0
 71
     1
 72
     5
  1
\W1.00;ROCKWOOL\~bouwdetails\~ontwikkeld\~door\~Archidat\~Bouwformatie\~-\~bouwdetails.bouwformatie.nl
  7
TAHOMA
 73
     1
 44
1.0
  0
MTEXT
  5
95
330
1F
100
AcDbEntity
  8
AANHAALLIJN
  6
Continuous
 62
    30
370
    25
100
AcDbMText
 10
51.50000000000363
 20
1431.749999999994
 30
0.0
 40
17.5
 41
354.1490326241883
 46
0.0
 71
     1
 72
     5
  1
{\fArial|i0|b1;\H17.500000;\W1.000000;\C30;ROCKWOOL\fArial|i0|b0; \fArial|i0|b1;- bouwdetail 023}\P{\fArial|i0|b0;\H17.500000;\W1.000000;\C30;Hoekaansluiting buitenwand}\P
  7
ARIAL
 73
     1
 44
0.9036144578313253
  0
LINE
  5
96
330
1F
100
AcDbEntity
  8
AANHAALLIJN
  6
Continuous
 62
    30
370
    18
100
AcDbLine
 10
210.4636701798206
 20
969.3401097139503
 30
0.0
 11
921.0270505942736
 21
969.3401097139522
 31
0.0
  0
INSERT
  5
97
330
1F
100
AcDbEntity
  8
AANHAALLIJN
  6
Continuous
 62
    30
370
    18
100
AcDbBlockReference
  2
NSY154
 10
371.0270504613743
 20
969.3401097139581
 30
0.0
 41
1.962533333333333
 42
1.962533333333333
 43
1.962533333333333
  0
LWPOLYLINE
  5
98
330
1F
100
AcDbEntity
  8
BAKSTEEN
  6
Continuous
 62
    30
370
    18
100
AcDbPolyline
 90
        5
 70
     1
 43
0.0
 10
706.0270504614091
 20
416.3401097139467
 10
706.0270504614091
 20
512.3401097139467
 10
716.027050461409
 20
512.3401097139467
 10
716.027050461409
 20
416.3401097139467
 10
706.0270504614091
 20
416.3401097139467
  0
LWPOLYLINE
  5
99
330
1F
100
AcDbEntity
  8
BAKSTEEN
  6
Continuous
 62
     2
370
    35
100
AcDbPolyline
 90
        5
 70
     1
 43
0.0
 10
496.0270504614091
 20
414.3401097139467
 10
496.0270504614091
 20
514.3401097139467
 10
706.0270504614091
 20
514.3401097139467
 10
706.0270504614091
 20
414.3401097139467
 10
496.0270504614091
 20
414.3401097139467
  0
HATCH
  5
9A
330
1F
100
AcDbEntity
  8
DILALATIEVOEG EN AFDICHTING
  6
Continuous
 62
   253
370
    25
100
AcDbHatch
 10
0.0
 20
0.0
 30
0.0
210
0.0
220
0.0
230
1.0
  2
SOLID
 70
     1
 71
     0
 91
        1
 92
        3
 72
     0
 73
     1
 93
        4
 10
496.0270504614127
 20
419.3401097139504
 10
496.0270504614091
 20
444.3401097139504
 10
486.027050461409
 20
444.3401097139467
 10
486.0270504614109
 20
419.3401097139467
 97
        0
 75
     0
 76
     1
 98
        0
450
        0
451
        0
460
0.0
461
0.0
452
        1
462
0.0
453
        0
470

  0
LINE
  5
9B
330
1F
100
AcDbEntity
  8
DILALATIEVOEG EN AFDICHTING
  6
Continuous
 62
     5
370
    13
100
AcDbLine
 10
486.0270504614109
 20
444.3401097139467
 30
0.0
 11
496.0270504614127
 21
419.3401097139504
 31
0.0
  0
LWPOLYLINE
  5
9C
330
1F
100
AcDbEntity
  8
DILALATIEVOEG EN AFDICHTING
  6
Continuous
 62
     5
370
    13
100
AcDbPolyline
 90
        5
 70
     1
 43
0.0
 10
486.027050461409
 20
444.3401097139467
 10
496.0270504614091
 20
444.3401097139504
 10
496.0270504614127
 20
419.3401097139504
 10
486.0270504614127
 20
419.3401097139467
 10
486.027050461409
 20
444.3401097139467
  0
LINE
  5
9D
330
1F
100
AcDbEntity
  8
DILALATIEVOEG EN AFDICHTING
  6
Continuous
 62
     5
370
    13
100
AcDbLine
 10
486.0270504614127
 20
419.3401097139467
 30
0.0
 11
496.0270504614109
 21
444.3401097139504
 31
0.0
  0
LWPOLYLINE
  5
9E
330
1F
100
AcDbEntity
  8
BAKSTEEN
  6
Continuous
 62
     2
370
    35
100
AcDbPolyline
 90
        5
 70
     1
 43
0.0
 10
276.0270504614091
 20
414.3401097139467
 10
276.0270504614091
 20
514.3401097139467
 10
486.027050461409
 20
514.3401097139467
 10
486.027050461409
 20
414.3401097139467
 10
276.0270504614091
 20
414.3401097139467
  0
LWPOLYLINE
  5
9F
330
1F
100
AcDbEntity
  8
BAKSTEEN
  6
Continuous
 62
     2
370
    35
100
AcDbPolyline
 90
        4
 70
     0
 43
0.0
 10
821.027050461409
 20
514.3401097139467
 10
716.027050461409
 20
514.3401097139467
 10
716.027050461409
 20
414.3401097139467
 10
821.027050461409
 20
414.3401097139503
  0
LWPOLYLINE
  5
A0
330
1F
100
AcDbEntity
  8
BAKSTEEN
  6
Continuous
 62
    30
370
    18
100
AcDbPolyline
 90
        5
 70
     1
 43
0.0
 10
266.0270504614091
 20
416.3401097139467
 10
266.0270504614091
 20
512.3401097139467
 10
276.0270504614091
 20
512.3401097139467
 10
276.0270504614091
 20
416.3401097139467
 10
266.0270504614091
 20
416.3401097139467
  0
LWPOLYLINE
  5
A1
330
1F
100
AcDbEntity
  8
BAKSTEEN
  6
Continuous
 62
    30
370
    18
100
AcDbPolyline
 90
        5
 70
     1
 43
0.0
 10
168.0270504614127
 20
844.3401097139467
 10
264.0270504614091
 20
844.3401097139467
 10
264.0270504614091
 20
854.3401097139467
 10
168.0270504614091
 20
854.3401097139467
 10
168.0270504614127
 20
844.3401097139467
  0
LWPOLYLINE
  5
A2
330
1F
100
AcDbEntity
  8
BAKSTEEN
  6
Continuous
 62
     2
370
    35
100
AcDbPolyline
 90
        5
 70
     1
 43
0.0
 10
166.0270504614091
 20
634.3401097139467
 10
266.0270504614091
 20
634.3401097139467
 10
266.0270504614091
 20
844.3401097139467
 10
166.0270504614091
 20
844.3401097139467
 10
166.0270504614091
 20
634.3401097139467
  0
LWPOLYLINE
  5
A3
330
1F
100
AcDbEntity
  8
BAKSTEEN
  6
Continuous
 62
    30
370
    18
100
AcDbPolyline
 90
        5
 70
     1
 43
0.0
 10
168.0270504614127
 20
624.3401097139467
 10
264.0270504614127
 20
624.3401097139467
 10
264.0270504614091
 20
634.3401097139467
 10
168.0270504614127
 20
634.3401097139467
 10
168.0270504614127
 20
624.3401097139467
  0
LWPOLYLINE
  5
A4
330
1F
100
AcDbEntity
  8
BAKSTEEN
  6
Continuous
 62
     2
370
    35
100
AcDbPolyline
 90
        5
 70
     1
 43
0.0
 10
166.0270504614127
 20
414.3401097139467
 10
266.0270504614091
 20
414.3401097139467
 10
266.0270504614091
 20
624.3401097139467
 10
166.0270504614127
 20
624.3401097139467
 10
166.0270504614127
 20
414.3401097139467
  0
LWPOLYLINE
  5
A5
330
1F
100
AcDbEntity
  8
BAKSTEEN
  6
Continuous
 62
     2
370
    35
100
AcDbPolyline
 90
        4
 70
     0
 43
0.0
 10
266.0270504614091
 20
1064.340109713946
 10
266.0270504614091
 20
854.3401097139467
 10
166.0270504614091
 20
854.3401097139467
 10
166.0270504614091
 20
1064.340109713946
  0
LWPOLYLINE
  5
A6
330
1F
100
AcDbEntity
  8
KALKZANDSTEEN
  6
Continuous
 62
     3
370
    70
100
AcDbPolyline
 90
        4
 70
     0
 43
0.0
 10
441.027050461399
 20
1064.340109713947
 10
441.0270504614092
 20
689.3401097139503
 10
561.0270504614163
 20
689.3401097139428
 10
561.0270504613986
 20
1064.340109713946
  0
HATCH
  5
A8
330
1F
100
AcDbEntity
  8
KALKZANDSTEEN
  6
Continuous
 62
     7
370
    25
100
AcDbHatch
 10
0.0
 20
0.0
 30
0.0
210
0.0
220
0.0
230
1.0
  2
HATCHING_9
 70
     0
 71
     0
 91
        1
 92
        0
 93
        4
 72
     1
 10
561.0270504614161
 20
689.3401097139431
 11
561.0270504613975
 21
1064.340109713947
 72
     1
 10
561.0270504613975
 20
1064.340109713947
 11
441.0270504613976
 21
1064.340109713946
 72
     1
 10
441.0270504613976
 20
1064.340109713946
 11
441.027050461409
 21
689.3401097139503
 72
     1
 10
441.027050461409
 20
689.3401097139503
 11
561.0270504614161
 21
689.3401097139431
 97
        0
 75
     0
 76
     2
 52
0.0
 41
5.0
 77
     0
 78
     2
 53
45.0
 43
0.0
 44
0.0
 45
-176.7766952966368
 46
176.7766952966369
 79
     0
 53
45.0
 43
-88.38834764831842
 44
88.38834764831844
 45
-176.7766952966368
 46
176.7766952966369
 79
     0
 98
        0
1001
ACAD
1010
0.0
1020
0.0
1030
0.0
1001
NEM_ODX
1002
{
1000
BZM_DEPEND
1070
     1
1000
BZM_SCALE
1040
5.0
1000
HATCHING_9
1002
}
  0
LINE
  5
A9
330
1F
100
AcDbEntity
  8
AFBREEKLIJNEN
  6
STRICHPUNKT2_S5
 62
     7
370
    25
100
AcDbLine
 10
821.0270504614157
 20
819.3401097139506
 30
0.0
 11
821.0270504614085
 21
384.3401097139505
 31
0.0
  0
LINE
  5
AA
330
1F
100
AcDbEntity
  8
POLYISOCYANURAAT (PIR)
  6
Continuous
 62
     7
370
    25
100
AcDbLine
 10
821.0270504614113
 20
554.3401097096412
 30
0.0
 11
306.0270504613309
 21
554.3401097096475
 31
0.0
  0
LINE
  5
AB
330
1F
100
AcDbEntity
  8
POLYISOCYANURAAT (PIR)
  6
Continuous
 62
     7
370
    25
100
AcDbLine
 10
815.5090086094606
 20
554.3401097096412
 30
0.0
 11
821.0270504614115
 21
563.8976385555115
 31
0.0
  0
LINE
  5
AC
330
1F
100
AcDbEntity
  8
POLYISOCYANURAAT (PIR)
  6
Continuous
 62
     7
370
    25
100
AcDbLine
 10
306.0270504613836
 20
1059.340109713946
 30
0.0
 11
314.6873044992279
 21
1064.340109713946
 31
0.0
  0
MTEXT
  5
AD
330
1F
100
AcDbEntity
  8
AANHAALLIJN
  6
Continuous
 62
    30
100
AcDbMText
 10
151.0270504614091
 20
317.6734430472801
 30
0.0
 40
12.5
 41
181.2587255192146
 46
0.0
 71
     1
 72
     5
  1
dilatatievoeg voorzien\Pvan afdichtingsband
  7
Trebuchet MS
 73
     1
 44
0.783132530120482
  0
INSERT
  5
AE
330
1F
100
AcDbEntity
  8
AANHAALLIJN
  6
Continuous
 62
    30
370
    18
100
AcDbBlockReference
  2
NSY154
 10
286.0270504614091
 20
969.3401097139503
 30
0.0
 41
1.962533333333333
 42
1.962533333333333
 43
1.962533333333333
  0
INSERT
  5
AF
330
1F
100
AcDbEntity
  8
AANHAALLIJN
  6
Continuous
 62
    30
370
    18
100
AcDbBlockReference
  2
NSY154
 10
215.4636701798206
 20
969.3401097139503
 30
0.0
 41
1.962533333333333
 42
1.962533333333333
 43
1.962533333333333
  0
INSERT
  5
B0
330
1F
100
AcDbEntity
  8
AANHAALLIJN
  6
Continuous
 62
    30
370
    18
100
AcDbBlockReference
  2
NSY154
 10
441.0270504588261
 20
554.340109709647
 30
0.0
 41
1.962533333333333
 42
1.962533333333333
 43
1.962533333333333
  0
LINE
  5
B1
330
1F
100
AcDbEntity
  8
AFBREEKLIJNEN
  6
STRICHPUNKT2_S5
 62
     7
370
    25
100
AcDbLine
 10
136.0270504614091
 20
1064.340109713946
 30
0.0
 11
591.0270504613982
 21
1064.340109713946
 31
0.0
  0
INSERT
  5
B2
330
1F
100
AcDbEntity
  8
AANHAALLIJN
  6
Continuous
 62
    30
370
    18
100
AcDbBlockReference
  2
NSY154
 10
589.4187295023459
 20
731.3348239434739
 30
0.0
 41
1.962533333333333
 42
1.962533333333333
 43
1.962533333333333
  0
HATCH
  5
B3
330
1F
100
AcDbEntity
  8
DILALATIEVOEG EN AFDICHTING
  6
Continuous
 62
   254
370
    13
100
AcDbHatch
 10
0.0
 20
0.0
 30
0.0
210
0.0
220
0.0
230
1.0
  2
SOLID
 70
     1
 71
     0
 91
        1
 92
        0
 93
        4
 72
     1
 10
561.0270504536197
 20
689.3401097139554
 11
562.0270504536197
 21
689.3401097139517
 72
     1
 10
562.0270504536197
 20
689.3401097139517
 11
562.0270504536197
 21
789.340109713959
 72
     1
 10
562.0270504536197
 20
789.340109713959
 11
561.0270504614086
 21
789.340109713959
 72
     1
 10
561.0270504614086
 20
789.340109713959
 11
561.0270504536197
 21
689.3401097139554
 97
        0
 75
     0
 76
     1
 98
        0
450
        0
451
        0
460
0.0
461
0.0
452
        1
462
0.0
453
        0
470

1001
ACAD
1010
0.0
1020
0.0
1030
0.0
1001
NEM_ODX
1002
{
1000
BZM_DEPEND
1070
     1
1000
BZM_SCALE
1040
5.0
1000
HATCHING_8
1002
}
  0
HATCH
  5
B4
330
1F
100
AcDbEntity
  8
DILALATIEVOEG EN AFDICHTING
  6
Continuous
 62
     7
370
    13
100
AcDbHatch
 10
0.0
 20
0.0
 30
0.0
210
0.0
220
0.0
230
1.0
  2
HATCHING_8
 70
     0
 71
     0
 91
        1
 92
        0
 93
        4
 72
     1
 10
561.0270504536197
 20
689.3401097139554
 11
562.0270504536197
 21
689.3401097139517
 72
     1
 10
562.0270504536197
 20
689.3401097139517
 11
562.0270504536197
 21
789.340109713959
 72
     1
 10
562.0270504536197
 20
789.340109713959
 11
561.0270504614086
 21
789.340109713959
 72
     1
 10
561.0270504614086
 20
789.340109713959
 11
561.0270504536197
 21
689.3401097139554
 97
        0
 75
     0
 76
     2
 52
0.0
 41
5.0
 77
     0
 78
     2
 53
45.0
 43
0.0
 44
0.0
 45
-10.60660171779821
 46
10.60660171779821
 79
     2
 49
10.0
 49
-3.5
 53
45.0
 43
-5.303300858899105
 44
5.303300858899106
 45
-10.60660171779821
 46
10.60660171779821
 79
     2
 49
10.0
 49
-3.5
 98
        0
1001
ACAD
1010
0.0
1020
0.0
1030
0.0
1001
NEM_ODX
1002
{
1000
BZM_DEPEND
1070
     1
1000
BZM_SCALE
1040
5.0
1000
HATCHING_8
1002
}
  0
LWPOLYLINE
  5
B5
330
1F
100
AcDbEntity
  8
DILALATIEVOEG EN AFDICHTING
  6
Continuous
 62
     5
370
    13
100
AcDbPolyline
 90
        5
 70
     1
 43
0.0
 10
562.0270504536226
 20
689.3401097139519
 10
562.0270504536226
 20
789.3401097139592
 10
561.0270504614115
 20
789.3401097139592
 10
561.0270504536226
 20
689.3401097139555
 10
562.0270504536226
 20
689.3401097139519
  0
INSERT
  5
E0
330
1F
100
AcDbEntity
  8
DILALATIEVOEG EN AFDICHTING
  6
Continuous
 62
    30
370
    18
100
AcDbBlockReference
  2
COMPLEXOBJECT_0
 10
0.0
 20
0.0
 30
0.0
  0
LWPOLYLINE
  5
E1
330
1F
100
AcDbEntity
  8
KALKZANDSTEEN
  6
Continuous
 62
     3
370
    70
100
AcDbPolyline
 90
        4
 70
     0
 43
0.0
 10
821.0270504614125
 20
689.3401097139503
 10
562.0270504536226
 20
689.3401097139431
 10
562.0270504536226
 20
789.3401097139431
 10
821.0270504614163
 20
789.3401097139503
  0
LWPOLYLINE
  5
E2
330
1F
100
AcDbEntity
  8
AANHAALLIJN
  6
Continuous
 62
    30
370
    18
100
AcDbPolyline
 90
        3
 70
     0
 43
0.0
 10
921.0270505942736
 20
879.3401097139504
 10
699.5136985797907
 20
879.3401097139504
 10
589.4187295023459
 20
731.3348239434739
  0
MTEXT
  5
E3
330
1F
100
AcDbEntity
  8
AANHAALLIJN
  6
Continuous
 62
    30
370
    18
100
AcDbMText
 10
921.0270505942737
 20
913.9234430472839
 30
0.0
 40
12.5
 41
177.9166666666667
 46
0.0
 71
     9
 72
     5
  1
koude voegaansluiting
  7
Trebuchet MS
 73
     1
 44
1.0
  0
HATCH
  5
E4
330
1F
100
AcDbEntity
  8
KALKZANDSTEEN
  6
Continuous
 62
     7
370
    25
100
AcDbHatch
 10
0.0
 20
0.0
 30
0.0
210
0.0
220
0.0
230
1.0
  2
HATCHING_9
 70
     0
 71
     0
 91
        1
 92
        0
 93
        4
 72
     1
 10
562.027050453623
 20
789.3401097139434
 11
562.0270504536232
 21
689.3401097139434
 72
     1
 10
562.0270504536232
 20
689.3401097139434
 11
821.027050461415
 21
689.3401097139506
 72
     1
 10
821.027050461415
 20
689.3401097139506
 11
821.0270504614149
 21
789.3401097139508
 72
     1
 10
821.0270504614149
 20
789.3401097139508
 11
562.027050453623
 21
789.3401097139434
 97
        0
 75
     0
 76
     2
 52
0.0
 41
5.0
 77
     0
 78
     2
 53
45.0
 43
0.0
 44
0.0
 45
-176.7766952966368
 46
176.7766952966369
 79
     0
 53
45.0
 43
-88.38834764831842
 44
88.38834764831844
 45
-176.7766952966368
 46
176.7766952966369
 79
     0
 98
        0
1001
ACAD
1010
0.0
1020
0.0
1030
0.0
1001
NEM_ODX
1002
{
1000
BZM_DEPEND
1070
     1
1000
BZM_SCALE
1040
5.0
1000
HATCHING_9
1002
}
  0
INSERT
  5
E5
330
1F
100
AcDbEntity
  8
AANHAALLIJN
  6
Continuous
 62
    30
370
    18
100
AcDbBlockReference
  2
NSY154
 10
562.0215063404115
 20
764.5094297439389
 30
0.0
 41
1.962533333333333
 42
1.962533333333333
 43
1.962533333333333
  0
LWPOLYLINE
  5
E6
330
1F
100
AcDbEntity
  8
AANHAALLIJN
  6
Continuous
 62
    30
370
    18
100
AcDbPolyline
 90
        3
 70
     0
 43
0.0
 10
921.0270505942736
 20
909.3401097139503
 10
667.0155839170456
 20
909.3401097139503
 10
562.0215063404115
 20
764.5094297439389
  0
MTEXT
  5
E7
330
1F
100
AcDbEntity
  8
AANHAALLIJN
  6
Continuous
 62
    30
370
    18
100
AcDbMText
 10
921.0270505942737
 20
883.9234430472853
 30
0.0
 40
12.5
 41
92.50000000000023
 46
0.0
 71
     9
 72
     5
  1
koppelstrip
  7
Trebuchet MS
 73
     1
 44
1.0
  0
MTEXT
  5
E8
330
1F
100
AcDbEntity
  8
AANHAALLIJN
  6
Continuous
 62
     5
370
    13
100
AcDbMText
 10
76.99999999999637
 20
84.10395476090455
 30
0.0
 40
7.5
 41
113.2343482125849
 46
0.0
 71
     1
 72
     5
  1
*λreken ≤ 0,033W/(m.K)
  7
Trebuchet MS
 73
     1
 44
1.0
  0
LWPOLYLINE
  5
E9
330
1F
100
AcDbEntity
  8
AANHAALLIJN
  6
Continuous
 62
    30
370
    18
100
AcDbPolyline
 90
        5
 70
     1
 43
0.0
 10
69.99999999999637
 20
70.0
 10
193.4479768359555
 20
69.99999999999996
 10
193.4479768359555
 20
89.99999999999991
 10
69.99999999999637
 20
89.99999999999992
 10
69.99999999999637
 20
70.0
  0
HATCH
  5
EA
330
1F
100
AcDbEntity
  8
AANHAALLIJN
  6
Continuous
 62
   255
370
    25
100
AcDbHatch
 10
0.0
 20
0.0
 30
0.0
210
0.0
220
0.0
230
1.0
  2
SOLID
 70
     1
 71
     0
 91
        1
 92
        3
 72
     0
 73
     1
 93
        4
 10
193.4479768359556
 20
69.99999999999978
 10
193.4479768359555
 20
89.99999999999985
 10
69.99999999999637
 20
89.99999999999985
 10
69.99999999999639
 20
69.9999999999999
 97
        0
 75
     0
 76
     1
 98
        0
450
        0
451
        0
460
0.0
461
0.0
452
        1
462
0.0
453
        0
470

  0
DIMENSION
  5
FD
330
1F
100
AcDbEntity
  8
Maatlijnen 1_5
  6
Continuous
 62
    30
370
    18
100
AcDbDimension
280
     0
  2
*D5
 10
266.0270504614091
 20
1094.340109713947
 30
0.0
 11
215.7386545569722
 21
1104.476628485278
 31
0.0
 70
   160
  1
<>
 71
     5
 42
100.0
 73
     0
 74
     0
 75
     0
  3
_DIMSTYLE_3
100
AcDbAlignedDimension
 13
166.0270504614091
 23
1069.341109713946
 33
0.0
 14
266.0270504614091
 24
1069.341109713946
 34
0.0
100
AcDbRotatedDimension
1001
NEM_ODX
1000
MASSLINIE
1002
{
1000
UTF_TYPE
1070
     1
1000
ODXVALUES
1070
     1
1070
     0
1070
   499
1040
0.1
1002
}
  0
DIMENSION
  5
109
330
1F
100
AcDbEntity
  8
Maatlijnen 1_5
  6
Continuous
 62
    30
370
    18
100
AcDbDimension
280
     0
  2
*D6
 10
306.0270504613836
 20
1094.340109713947
 30
0.0
 11
285.9041835671984
 21
1104.476628485278
 31
0.0
 70
   160
  1
<>
 71
     5
 42
39.99999999997454
 73
     0
 74
     0
 75
     0
  3
_DIMSTYLE_3
100
AcDbAlignedDimension
 13
266.0270504614091
 23
1069.341109713946
 33
0.0
 14
306.0270504613836
 24
1069.341109713946
 34
0.0
100
AcDbRotatedDimension
1001
NEM_ODX
1000
MASSLINIE
1002
{
1000
UTF_TYPE
1070
     1
1000
ODXVALUES
1070
     1
1070
     0
1070
   499
1040
0.1
1002
}
  0
DIMENSION
  5
114
330
1F
100
AcDbEntity
  8
Maatlijnen 1_5
  6
Continuous
 62
    30
370
    18
100
AcDbDimension
280
     0
  2
*D7
 10
441.0270504613976
 20
1094.340109713947
 30
0.0
 11
373.4161289596841
 21
1104.476628485278
 31
0.0
 70
   160
  1
<>
 71
     5
 42
135.0000000000139
 73
     0
 74
     0
 75
     0
  3
_DIMSTYLE_3
100
AcDbAlignedDimension
 13
306.0270504613836
 23
1069.341109713946
 33
0.0
 14
441.0270504613976
 24
1069.341109713946
 34
0.0
100
AcDbRotatedDimension
1001
NEM_ODX
1000
MASSLINIE
1002
{
1000
UTF_TYPE
1070
     1
1000
ODXVALUES
1070
     1
1070
     0
1070
   499
1040
0.1
1002
}
  0
DIMENSION
  5
11F
330
1F
100
AcDbEntity
  8
Maatlijnen 1_5
  6
Continuous
 62
    30
370
    18
100
AcDbDimension
280
     0
  2
*D8
 10
561.0270504613975
 20
1094.340109713947
 30
0.0
 11
500.7386545569606
 21
1104.476628485278
 31
0.0
 70
   160
  1
<>
 71
     5
 42
119.9999999999999
 73
     0
 74
     0
 75
     0
  3
_DIMSTYLE_3
100
AcDbAlignedDimension
 13
441.0270504613976
 23
1069.341109713946
 33
0.0
 14
561.0270504613975
 24
1069.341109713947
 34
0.0
100
AcDbRotatedDimension
1001
NEM_ODX
1000
MASSLINIE
1002
{
1000
UTF_TYPE
1070
     1
1000
ODXVALUES
1070
     1
1070
     0
1070
   499
1040
0.1
1002
}
  0
DIMENSION
  5
12A
330
1F
100
AcDbEntity
  8
Maatlijnen 1_5
  6
Continuous
 62
    30
370
    18
100
AcDbDimension
280
     0
  2
*D9
 10
561.0270504613975
 20
1124.340109713946
 30
0.0
 11
363.4161289596968
 21
1134.51075817811
 31
0.0
 70
   160
  1
<>
 71
     5
 42
394.9999999999884
 73
     0
 74
     0
 75
     0
  3
_DIMSTYLE_3
100
AcDbAlignedDimension
 13
166.0270504614091
 23
1069.341109713946
 33
0.0
 14
561.0270504613975
 24
1069.341109713947
 34
0.0
100
AcDbRotatedDimension
1001
NEM_ODX
1000
MASSLINIE
1002
{
1000
UTF_TYPE
1070
     1
1000
ODXVALUES
1070
     1
1070
     0
1070
   499
1040
0.1
1002
}
  0
DIMENSION
  5
135
330
1F
100
AcDbEntity
  8
Maatlijnen 1_5
  6
Continuous
 62
    30
370
    18
100
AcDbDimension
280
     0
  2
*D10
 10
851.0270504614167
 20
514.3401097139469
 30
0.0
 11
840.8905316900852
 21
464.0517138095116
 31
0.0
 70
   160
  1
<>
 71
     5
 42
99.9999999999963
 73
     0
 74
     0
 75
     0
  3
_DIMSTYLE_3
100
AcDbAlignedDimension
 13
826.028050461409
 23
414.3401097139503
 33
0.0
 14
826.028050461409
 24
514.3401097139467
 34
0.0
 50
90.0
100
AcDbRotatedDimension
1001
NEM_ODX
1000
MASSLINIE
1002
{
1000
UTF_TYPE
1070
     1
1000
ODXVALUES
1070
     1
1070
     0
1070
   499
1040
0.1
1002
}
  0
DIMENSION
  5
140
330
1F
100
AcDbEntity
  8
Maatlijnen 1_5
  6
Continuous
 62
    30
370
    18
100
AcDbDimension
280
     0
  2
*D11
 10
851.0270504614167
 20
554.3401097096413
 30
0.0
 11
840.8905316900852
 21
534.217242817596
 31
0.0
 70
   160
  1
<>
 71
     5
 42
39.99999999569445
 73
     0
 74
     0
 75
     0
  3
_DIMSTYLE_3
100
AcDbAlignedDimension
 13
826.028050461409
 23
514.3401097139467
 33
0.0
 14
826.0280504614113
 24
554.3401097096412
 34
0.0
 50
90.0
100
AcDbRotatedDimension
1001
NEM_ODX
1000
MASSLINIE
1002
{
1000
UTF_TYPE
1070
     1
1000
ODXVALUES
1070
     1
1070
     0
1070
   499
1040
0.1
1002
}
  0
DIMENSION
  5
14B
330
1F
100
AcDbEntity
  8
Maatlijnen 1_5
  6
Continuous
 62
    30
370
    18
100
AcDbDimension
280
     0
  2
*D12
 10
851.0270504614167
 20
689.3401097139506
 30
0.0
 11
840.8905316900852
 21
621.7291882100893
 31
0.0
 70
   160
  1
<>
 71
     5
 42
135.0000000043092
 73
     0
 74
     0
 75
     0
  3
_DIMSTYLE_3
100
AcDbAlignedDimension
 13
826.0280504614113
 23
554.3401097096412
 33
0.0
 14
826.0280504614126
 24
689.3401097139503
 34
0.0
 50
90.0
100
AcDbRotatedDimension
1001
NEM_ODX
1000
MASSLINIE
1002
{
1000
UTF_TYPE
1070
     1
1000
ODXVALUES
1070
     1
1070
     0
1070
   499
1040
0.1
1002
}
  0
DIMENSION
  5
156
330
1F
100
AcDbEntity
  8
Maatlijnen 1_5
  6
Continuous
 62
    30
370
    18
100
AcDbDimension
280
     0
  2
*D13
 10
851.0270504614167
 20
789.3401097139508
 30
0.0
 11
840.8905316900852
 21
739.0517138095135
 31
0.0
 70
   160
  1
<>
 71
     5
 42
100.0000000000001
 73
     0
 74
     0
 75
     0
  3
_DIMSTYLE_3
100
AcDbAlignedDimension
 13
826.0280504614126
 23
689.3401097139503
 33
0.0
 14
826.0280504614163
 24
789.3401097139503
 34
0.0
 50
90.0
100
AcDbRotatedDimension
1001
NEM_ODX
1000
MASSLINIE
1002
{
1000
UTF_TYPE
1070
     1
1000
ODXVALUES
1070
     1
1070
     0
1070
   499
1040
0.1
1002
}
  0
DIMENSION
  5
161
330
1F
100
AcDbEntity
  8
Maatlijnen 1_5
  6
Continuous
 62
    30
370
    18
100
AcDbDimension
280
     0
  2
*D14
 10
881.027050461415
 20
789.3401097139508
 30
0.0
 11
870.8905316900834
 21
601.7291882122439
 31
0.0
 70
   160
  1
<>
 71
     5
 42
375.0
 73
     0
 74
     0
 75
     0
  3
_DIMSTYLE_3
100
AcDbAlignedDimension
 13
826.028050461409
 23
414.3401097139503
 33
0.0
 14
826.0280504614163
 24
789.3401097139503
 34
0.0
 50
90.0
100
AcDbRotatedDimension
1001
NEM_ODX
1000
MASSLINIE
1002
{
1000
UTF_TYPE
1070
     1
1000
ODXVALUES
1070
     1
1070
     0
1070
   499
1040
0.1
1002
}
  0
LWPOLYLINE
  5
162
330
1F
100
AcDbEntity
  8
AANHAALLIJN
  6
Continuous
 62
    30
370
    18
100
AcDbPolyline
 90
        3
 70
     0
 43
0.0
 10
151.0270504614091
 20
284.3401097139467
 10
456.0270504535947
 20
284.3401097139449
 10
491.0270504614127
 20
419.3401097139485
  0
LWPOLYLINE
  5
163
330
1F
100
AcDbEntity
  8
STEENWOL
  6
Continuous
 62
     7
370
    25
100
AcDbPolyline
 90
        8
 70
     0
 43
0.0
 10
306.0270504613836
 20
1059.340109713946
 10
441.0270504614004
 20
981.3978233733376
 10
306.0270504613675
 20
903.455537032719
 10
441.0270504614049
 20
825.5132506920979
 10
306.0270504613511
 20
747.5709643514672
 10
441.0270504588261
 20
669.6286780123256
 10
306.0270504613348
 20
591.6863916731744
 10
370.7127082959571
 20
554.3401097096473
  0
LWPOLYLINE
  5
164
330
1F
100
AcDbEntity
  8
STEENWOL
  6
Continuous
 62
     7
370
    25
100
AcDbPolyline
 90
        3
 70
     0
 43
0.0
 10
441.0270504588261
 20
549.3401097096489
 10
441.0270504588261
 20
689.3401097139503
 10
816.0270504614127
 20
689.3401097139503
  0
LWPOLYLINE
  5
165
330
1F
100
AcDbEntity
  8
STEENWOL
  6
Continuous
 62
     7
370
    25
100
AcDbPolyline
 90
        6
 70
     0
 43
0.0
 10
815.5090086094606
 20
554.3401097096412
 10
737.5667222663746
 20
689.340109713948
 10
659.62443592329
 20
554.3401097096436
 10
581.6821495802081
 20
689.3401097139434
 10
503.7398632371276
 20
554.3401097096461
 10
441.0270504588261
 20
662.9618877272191
  0
LWPOLYLINE
  5
166
330
1F
100
AcDbEntity
  8
STEENWOL
  6
Continuous
 62
     7
370
    25
100
AcDbPolyline
 90
        3
 70
     0
 43
0.0
 10
441.0270504588261
 20
554.340109709647
 10
306.0270504613309
 20
554.3401097096475
 10
306.0270504613836
 20
1064.340109713946
  0
MTEXT
  5
167
330
1F
100
AcDbEntity
  8
AANHAALLIJN
  6
Continuous
 62
    30
370
    18
100
AcDbMText
 10
51.50000000000363
 20
1344.249999999993
 30
0.0
 40
17.5
 41
252.9077385235286
 46
0.0
 71
     1
 72
     5
  1
\W1.00;Rockfit\~Premium\~silver
  7
ARIAL
 73
     1
 44
1.0
  0
MTEXT
  5
168
330
1F
100
AcDbEntity
  8
AANHAALLIJN
  6
Continuous
 62
    30
100
AcDbMText
 10
921.0270505942737
 20
1067.673443047285
 30
0.0
 40
12.5
 41
223.0827719788
 46
0.0
 71
     3
 72
     5
  1
{\Lwandopbouw}\Pmetselwerk\Pniet-geventileerde\Pluchtspouw (≥ 20 mm)\P{\fArial|b1|i0|c0|p34;Rockfit Premium silver*\P}gestapeld binnenspouwblad
  7
Trebuchet MS
 73
     1
 44
0.783132530120482
  0
MTEXT
  5
169
330
1F
100
AcDbEntity
  8
AANHAALLIJN
  6
Continuous
 62
     5
370
    18
100
AcDbMText
 10
51.5
 20
1283.000000000001
 30
0.0
 40
10.0
 41
543.7354210579142
 46
0.0
 71
     1
 72
     5
  1
{\fArial|i0|b0;\H10.000000;\W1.000000;\C5;Bouwdetail gebaseerd op:     Rc wand ≥ \fArial|i0|b1;4,7 m² K/W   \fArial|i0|b0;qv10-waarde\fArial|i0|b1; \fArial|i0|b0;≤ \fArial|i0|b1;0,4 dm³/s per m²}\P
  7
ARIAL
 73
     1
 44
1.0
  0
ENDSEC
  0
SECTION
  2
OBJECTS
  0
DICTIONARY
  5
C
330
0
100
AcDbDictionary
281
     1
  3
ACAD_CIP_PREVIOUS_PRODUCT_INFO
350
18C
  3
ACAD_COLOR
350
17B
  3
ACAD_DETAILVIEWSTYLE
350
180
  3
ACAD_GROUP
350
D
  3
ACAD_LAYOUT
350
1A
  3
ACAD_MATERIAL
350
3B
  3
ACAD_MLEADERSTYLE
350
16F
  3
ACAD_MLINESTYLE
350
17
  3
ACAD_PLOTSETTINGS
350
19
  3
ACAD_PLOTSTYLENAME
350
E
  3
ACAD_SCALELIST
350
6C
  3
ACAD_SECTIONVIEWSTYLE
350
17E
  3
ACAD_TABLESTYLE
350
16E
  3
ACAD_VISUALSTYLE
350
2A
  3
ACDB_RECOMPOSE_DATA
350
317
  3
AcDbVariableDictionary
350
16C
  3
AcDsDecomposeData
350
31D
  0
DICTIONARY
  5
277
330
2
100
AcDbDictionary
280
     1
281
     1
  3
ACAD_LAYERSTATES
360
278
  0
DICTIONARY
  5
16A
330
1F
100
AcDbDictionary
280
     1
281
     1
  3
ACAD_SORTENTS
360
16B
  0
XRECORD
  5
18C
102
{ACAD_REACTORS
330
C
102
}
330
C
100
AcDbXrecord
280
     1
300
ACDLT
300
2020
300

  0
DICTIONARY
  5
17B
102
{ACAD_REACTORS
330
C
102
}
330
C
100
AcDbDictionary
281
     1
  0
DICTIONARY
  5
180
102
{ACAD_REACTORS
330
C
102
}
330
C
100
AcDbDictionary
281
     1
  3
Metric50
350
181
  0
DICTIONARY
  5
D
102
{ACAD_REACTORS
330
C
102
}
330
C
100
AcDbDictionary
281
     1
  0
DICTIONARY
  5
1A
102
{ACAD_REACTORS
330
C
102
}
330
C
100
AcDbDictionary
281
     1
  3
Layout1
350
1E
  3
Layout2
350
26
  3
Model
350
22
  0
DICTIONARY
  5
3B
102
{ACAD_REACTORS
330
C
102
}
330
C
100
AcDbDictionary
281
     1
  3
ByBlock
350
3D
  3
ByLayer
350
3C
  3
Global
350
3E
  0
DICTIONARY
  5
16F
102
{ACAD_REACTORS
330
C
102
}
330
C
100
AcDbDictionary
281
     1
  3
Standard
350
17D
  0
DICTIONARY
  5
17
102
{ACAD_REACTORS
330
C
102
}
330
C
100
AcDbDictionary
281
     1
  3
Standard
350
18
  0
DICTIONARY
  5
19
102
{ACAD_REACTORS
330
C
102
}
330
C
100
AcDbDictionary
281
     1
  0
ACDBDICTIONARYWDFLT
  5
E
102
{ACAD_REACTORS
330
C
102
}
330
C
100
AcDbDictionary
281
     1
  3
Normal
350
F
100
AcDbDictionaryWithDefault
340
F
  0
DICTIONARY
  5
6C
102
{ACAD_REACTORS
330
C
102
}
330
C
100
AcDbDictionary
281
     1
  3
A0
350
6D
  3
A1
350
6E
  3
A2
350
6F
  3
A3
350
70
  3
A4
350
71
  3
A5
350
72
  3
A6
350
73
  3
A7
350
74
  3
A8
350
75
  3
A9
350
76
  3
B0
350
77
  3
B1
350
78
  3
B2
350
79
  3
B3
350
7A
  3
B4
350
7B
  3
B5
350
7C
  3
B6
350
7D
  3
B7
350
7E
  3
B8
350
7F
  3
B9
350
80
  3
C0
350
81
  3
C1
350
82
  3
C2
350
83
  3
C3
350
84
  3
C4
350
85
  3
C5
350
86
  3
C6
350
87
  3
C7
350
88
  3
C8
350
89
  3
C9
350
8A
  3
D0
350
8B
  3
D1
350
8C
  3
D2
350
8D
  0
DICTIONARY
  5
17E
102
{ACAD_REACTORS
330
C
102
}
330
C
100
AcDbDictionary
281
     1
  3
Metric50
350
17F
  0
DICTIONARY
  5
16E
102
{ACAD_REACTORS
330
C
102
}
330
C
100
AcDbDictionary
281
     1
  3
Standard
350
17C
  0
DICTIONARY
  5
2A
102
{ACAD_REACTORS
330
C
102
}
330
C
100
AcDbDictionary
281
     1
  3
2dWireframe
350
2F
  3
3D Hidden
350
31
  3
3dWireframe
350
30
  3
Basic
350
32
  3
Brighten
350
36
  3
ColorChange
350
3A
  3
Conceptual
350
34
  3
Dim
350
35
  3
EdgeColorOff
350
17A
  3
Facepattern
350
39
  3
Flat
350
2B
  3
FlatWithEdges
350
2C
  3
Gouraud
350
2D
  3
GouraudWithEdges
350
2E
  3
Hidden
350
172
  3
JitterOff
350
178
  3
Linepattern
350
38
  3
OverhangOff
350
179
  3
Realistic
350
33
  3
Shaded
350
177
  3
Shaded with edges
350
176
  3
Shades of Gray
350
173
  3
Sketchy
350
174
  3
Thicken
350
37
  3
Wireframe
350
171
  3
X-Ray
350
175
  0
XRECORD
  5
317
102
{ACAD_REACTORS
330
C
102
}
330
C
100
AcDbXrecord
280
     1
 90
        1
330
17C
  0
DICTIONARY
  5
16C
102
{ACAD_REACTORS
330
C
102
}
330
C
100
AcDbDictionary
281
     1
  3
CANNOSCALE
350
16D
  3
CMLEADERSTYLE
350
2C6
  3
CTABLESTYLE
350
2C5
  3
CVIEWDETAILSTYLE
350
2C7
  3
CVIEWSECTIONSTYLE
350
2C8
  0
DICTIONARY
  5
31D
102
{ACAD_REACTORS
330
C
102
}
330
C
100
AcDbDictionary
281
     1
  3
AcDsRecords
350
31F
  3
AcDsSchemas
350
31E
1001
ACAD
1070
     2
  0
DICTIONARY
  5
278
102
{ACAD_REACTORS
330
277
102
}
330
277
100
AcDbDictionary
281
     1
  0
SORTENTSTABLE
  5
16B
102
{ACAD_REACTORS
330
16A
102
}
330
16A
100
AcDbSortentsTable
330
1F
331
68
  5
8E
331
69
  5
8F
331
6A
  5
90
331
6B
  5
68
331
8E
  5
91
331
8F
  5
92
331
90
  5
93
331
91
  5
94
331
92
  5
95
331
93
  5
96
331
94
  5
97
331
95
  5
98
331
96
  5
99
331
97
  5
9A
331
98
  5
9B
331
99
  5
9C
331
9A
  5
69
331
9B
  5
9D
331
9C
  5
9E
331
9D
  5
9F
331
9E
  5
A0
331
9F
  5
A1
331
A0
  5
A2
331
A1
  5
A3
331
A2
  5
A4
331
A3
  5
A5
331
A4
  5
A6
331
A5
  5
A8
331
A6
  5
A9
331
A8
  5
AA
331
A9
  5
AB
331
AA
  5
AC
331
AB
  5
AD
331
AC
  5
AE
331
AD
  5
AF
331
AE
  5
B0
331
AF
  5
B1
331
B0
  5
B2
331
B1
  5
B3
331
B2
  5
B4
331
B3
  5
6A
331
B4
  5
B5
331
B5
  5
E0
331
E0
  5
E1
331
E1
  5
E2
331
E2
  5
E3
331
E3
  5
E4
331
E4
  5
E5
331
E5
  5
E6
331
E6
  5
E7
331
E7
  5
E8
331
E8
  5
E9
331
E9
  5
EA
331
EA
  5
6B
  0
ACDBDETAILVIEWSTYLE
  5
181
102
{ACAD_XDICTIONARY
360
358
102
}
102
{ACAD_REACTORS
330
180
102
}
330
180
100
AcDbModelDocViewStyle
 70
     0
  3
Metric50
290
     0
100
AcDbDetailViewStyle
 70
     0
 71
     0
 90
        3
 71
     1
340
11
 62
   256
 40
5.0
340
0
 62
   256
 40
5.0
300

 40
0.0
280
     1
 71
     2
340
16
 90
       25
 62
   256
 71
     3
340
11
 62
   256
 40
5.0
 90
        0
 40
15.0
 90
        1
300
%<\AcVar ViewDetailId>% (%<\AcVar ViewScale \f "%sn">%)
 71
     4
340
16
 90
       25
 62
   256
340
16
 90
       25
 62
   256
280
     0
  0
LAYOUT
  5
1E
102
{ACAD_REACTORS
330
1A
102
}
330
1A
100
AcDbPlotSettings
  1

  2
none_device
  4
none_user_media
  6

 40
6.349999999999999
 41
19.05
 42
6.349974599999999
 43
19.0499873
 44
1500.0
 45
1065.000000000003
 46
7.5
 47
7.5
 48
0.0
 49
0.0
140
0.0
141
0.0
142
1.0
143
1.0
 70
   688
 72
     1
 73
     0
 74
     5
  7

 75
    16
147
1.0
 76
     0
 77
     2
 78
   300
148
0.0
149
0.0
100
AcDbLayout
  1
Layout1
 70
     1
 71
     1
 10
0.0
 20
0.0
 11
12.0
 21
9.0
 12
0.0
 22
0.0
 32
0.0
 14
1.000000000000000E+20
 24
1.000000000000000E+20
 34
1.000000000000000E+20
 15
-1.000000000000000E+20
 25
-1.000000000000000E+20
 35
-1.000000000000000E+20
146
0.0
 13
0.0
 23
0.0
 33
0.0
 16
1.0
 26
0.0
 36
0.0
 17
0.0
 27
1.0
 37
0.0
 76
     0
330
1B
  0
LAYOUT
  5
26
102
{ACAD_REACTORS
330
1A
102
}
330
1A
100
AcDbPlotSettings
  1

  2
none_device
  4

  6

 40
0.0
 41
0.0
 42
0.0
 43
0.0
 44
0.0
 45
0.0
 46
0.0
 47
0.0
 48
0.0
 49
0.0
140
0.0
141
0.0
142
1.0
143
1.0
 70
   688
 72
     0
 73
     0
 74
     5
  7

 75
    16
147
1.0
 76
     0
 77
     2
 78
   300
148
0.0
149
0.0
100
AcDbLayout
  1
Layout2
 70
     1
 71
     2
 10
0.0
 20
0.0
 11
0.0
 21
0.0
 12
0.0
 22
0.0
 32
0.0
 14
0.0
 24
0.0
 34
0.0
 15
0.0
 25
0.0
 35
0.0
146
0.0
 13
0.0
 23
0.0
 33
0.0
 16
1.0
 26
0.0
 36
0.0
 17
0.0
 27
1.0
 37
0.0
 76
     0
330
23
  0
LAYOUT
  5
22
102
{ACAD_REACTORS
330
1A
102
}
330
1A
100
AcDbPlotSettings
  1

  2
none_device
  4

  6

 40
0.0
 41
0.0
 42
0.0
 43
0.0
 44
0.0
 45
0.0
 46
0.0
 47
0.0
 48
0.0
 49
0.0
140
0.0
141
0.0
142
1.0
143
1.0
 70
  1712
 72
     0
 73
     0
 74
     0
  7

 75
     0
147
1.0
 76
     0
 77
     2
 78
   300
148
0.0
149
0.0
100
AcDbLayout
  1
Model
 70
     1
 71
     0
 10
0.0
 20
0.0
 11
1050.000000000004
 21
1485.0
 12
0.0
 22
0.0
 32
0.0
 14
0.0
 24
0.0
 34
0.0
 15
1050.000000000004
 25
1485.0
 35
1050.000000000004
146
0.0
 13
0.0
 23
0.0
 33
0.0
 16
1.0
 26
0.0
 36
0.0
 17
0.0
 27
1.0
 37
0.0
 76
     0
330
1F
331
29
  0
MATERIAL
  5
3D
102
{ACAD_REACTORS
330
3B
102
}
330
3B
100
AcDbMaterial
  1
ByBlock
 73
     1
 78
     1
172
     1
176
     1
270
     1
274
     1
  0
MATERIAL
  5
3C
102
{ACAD_REACTORS
330
3B
102
}
330
3B
100
AcDbMaterial
  1
ByLayer
 73
     1
 78
     1
172
     1
176
     1
270
     1
274
     1
  0
MATERIAL
  5
3E
102
{ACAD_REACTORS
330
3B
102
}
330
3B
100
AcDbMaterial
  1
Global
 73
     1
 78
     1
172
     1
176
     1
270
     1
274
     1
  0
MLEADERSTYLE
  5
17D
102
{ACAD_XDICTIONARY
360
354
102
}
102
{ACAD_REACTORS
330
16F
102
}
330
16F
100
AcDbMLeaderStyle
179
     2
170
     2
171
     1
172
     0
 90
        2
 40
0.0
 41
0.0
173
     1
 91
-1056964608
340
14
 92
       -2
290
     1
 42
2.0
291
     1
 43
0.36
  3
Standard
 44
4.0
300

342
11
174
     1
178
     6
175
     1
176
     0
 93
-1056964608
 45
4.0
292
     0
297
     0
 46
4.0
 94
-1056964608
 47
1.0
 49
1.0
140
1.0
293
     1
141
0.0
294
     1
177
     0
142
1.0
295
     0
296
     0
143
0.125
271
     0
272
     9
273
     9
  0
MLINESTYLE
  5
18
102
{ACAD_REACTORS
330
17
102
}
330
17
100
AcDbMlineStyle
  2
STANDARD
 70
     0
  3

 62
   256
 51
90.0
 52
90.0
 71
     2
 49
0.5
 62
   256
  6
BYLAYER
 49
-0.5
 62
   256
  6
BYLAYER
  0
ACDBPLACEHOLDER
  5
F
102
{ACAD_REACTORS
330
E
102
}
330
E
  0
SCALE
  5
6D
102
{ACAD_REACTORS
330
6C
102
}
330
6C
100
AcDbScale
 70
     0
300
1:1
140
1.0
141
1.0
290
     1
  0
SCALE
  5
6E
102
{ACAD_REACTORS
330
6C
102
}
330
6C
100
AcDbScale
 70
     0
300
1:2
140
1.0
141
2.0
290
     0
  0
SCALE
  5
6F
102
{ACAD_REACTORS
330
6C
102
}
330
6C
100
AcDbScale
 70
     0
300
1:4
140
1.0
141
4.0
290
     0
  0
SCALE
  5
70
102
{ACAD_REACTORS
330
6C
102
}
330
6C
100
AcDbScale
 70
     0
300
1:5
140
1.0
141
5.0
290
     0
  0
SCALE
  5
71
102
{ACAD_REACTORS
330
6C
102
}
330
6C
100
AcDbScale
 70
     0
300
1:8
140
1.0
141
8.0
290
     0
  0
SCALE
  5
72
102
{ACAD_REACTORS
330
6C
102
}
330
6C
100
AcDbScale
 70
     0
300
1:10
140
1.0
141
10.0
290
     0
  0
SCALE
  5
73
102
{ACAD_REACTORS
330
6C
102
}
330
6C
100
AcDbScale
 70
     0
300
1:16
140
1.0
141
16.0
290
     0
  0
SCALE
  5
74
102
{ACAD_REACTORS
330
6C
102
}
330
6C
100
AcDbScale
 70
     0
300
1:20
140
1.0
141
20.0
290
     0
  0
SCALE
  5
75
102
{ACAD_REACTORS
330
6C
102
}
330
6C
100
AcDbScale
 70
     0
300
1:30
140
1.0
141
30.0
290
     0
  0
SCALE
  5
76
102
{ACAD_REACTORS
330
6C
102
}
330
6C
100
AcDbScale
 70
     0
300
1:40
140
1.0
141
40.0
290
     0
  0
SCALE
  5
77
102
{ACAD_REACTORS
330
6C
102
}
330
6C
100
AcDbScale
 70
     0
300
1:50
140
1.0
141
50.0
290
     0
  0
SCALE
  5
78
102
{ACAD_REACTORS
330
6C
102
}
330
6C
100
AcDbScale
 70
     0
300
1:100
140
1.0
141
100.0
290
     0
  0
SCALE
  5
79
102
{ACAD_REACTORS
330
6C
102
}
330
6C
100
AcDbScale
 70
     0
300
2:1
140
2.0
141
1.0
290
     0
  0
SCALE
  5
7A
102
{ACAD_REACTORS
330
6C
102
}
330
6C
100
AcDbScale
 70
     0
300
4:1
140
4.0
141
1.0
290
     0
  0
SCALE
  5
7B
102
{ACAD_REACTORS
330
6C
102
}
330
6C
100
AcDbScale
 70
     0
300
8:1
140
8.0
141
1.0
290
     0
  0
SCALE
  5
7C
102
{ACAD_REACTORS
330
6C
102
}
330
6C
100
AcDbScale
 70
     0
300
10:1
140
10.0
141
1.0
290
     0
  0
SCALE
  5
7D
102
{ACAD_REACTORS
330
6C
102
}
330
6C
100
AcDbScale
 70
     0
300
100:1
140
100.0
141
1.0
290
     0
  0
SCALE
  5
7E
102
{ACAD_REACTORS
330
6C
102
}
330
6C
100
AcDbScale
 70
     0
300
1/128" = 1'-0"
140
0.0078125
141
12.0
290
     0
  0
SCALE
  5
7F
102
{ACAD_REACTORS
330
6C
102
}
330
6C
100
AcDbScale
 70
     0
300
1/64" = 1'-0"
140
0.015625
141
12.0
290
     0
  0
SCALE
  5
80
102
{ACAD_REACTORS
330
6C
102
}
330
6C
100
AcDbScale
 70
     0
300
1/32" = 1'-0"
140
0.03125
141
12.0
290
     0
  0
SCALE
  5
81
102
{ACAD_REACTORS
330
6C
102
}
330
6C
100
AcDbScale
 70
     0
300
1/16" = 1'-0"
140
0.0625
141
12.0
290
     0
  0
SCALE
  5
82
102
{ACAD_REACTORS
330
6C
102
}
330
6C
100
AcDbScale
 70
     0
300
3/32" = 1'-0"
140
0.09375
141
12.0
290
     0
  0
SCALE
  5
83
102
{ACAD_REACTORS
330
6C
102
}
330
6C
100
AcDbScale
 70
     0
300
1/8" = 1'-0"
140
0.125
141
12.0
290
     0
  0
SCALE
  5
84
102
{ACAD_REACTORS
330
6C
102
}
330
6C
100
AcDbScale
 70
     0
300
3/16" = 1'-0"
140
0.1875
141
12.0
290
     0
  0
SCALE
  5
85
102
{ACAD_REACTORS
330
6C
102
}
330
6C
100
AcDbScale
 70
     0
300
1/4" = 1'-0"
140
0.25
141
12.0
290
     0
  0
SCALE
  5
86
102
{ACAD_REACTORS
330
6C
102
}
330
6C
100
AcDbScale
 70
     0
300
3/8" = 1'-0"
140
0.375
141
12.0
290
     0
  0
SCALE
  5
87
102
{ACAD_REACTORS
330
6C
102
}
330
6C
100
AcDbScale
 70
     0
300
1/2" = 1'-0"
140
0.5
141
12.0
290
     0
  0
SCALE
  5
88
102
{ACAD_REACTORS
330
6C
102
}
330
6C
100
AcDbScale
 70
     0
300
3/4" = 1'-0"
140
0.75
141
12.0
290
     0
  0
SCALE
  5
89
102
{ACAD_REACTORS
330
6C
102
}
330
6C
100
AcDbScale
 70
     0
300
1" = 1'-0"
140
1.0
141
12.0
290
     0
  0
SCALE
  5
8A
102
{ACAD_REACTORS
330
6C
102
}
330
6C
100
AcDbScale
 70
     0
300
1-1/2" = 1'-0"
140
1.5
141
12.0
290
     0
  0
SCALE
  5
8B
102
{ACAD_REACTORS
330
6C
102
}
330
6C
100
AcDbScale
 70
     0
300
3" = 1'-0"
140
3.0
141
12.0
290
     0
  0
SCALE
  5
8C
102
{ACAD_REACTORS
330
6C
102
}
330
6C
100
AcDbScale
 70
     0
300
6" = 1'-0"
140
6.0
141
12.0
290
     0
  0
SCALE
  5
8D
102
{ACAD_REACTORS
330
6C
102
}
330
6C
100
AcDbScale
 70
     0
300
1'-0" = 1'-0"
140
12.0
141
12.0
290
     0
  0
ACDBSECTIONVIEWSTYLE
  5
17F
102
{ACAD_XDICTIONARY
360
356
102
}
102
{ACAD_REACTORS
330
17E
102
}
330
17E
100
AcDbModelDocViewStyle
 70
     0
  3
Metric50
290
     0
100
AcDbSectionViewStyle
 70
     0
 71
     0
 90
      102
 71
     1
340
11
 62
   256
 40
5.0
340
0
340
0
 62
   256
 40
5.0
300
I, O, Q, S, X, Z
 40
10.0
 90
        0
 40
2.5
 90
        0
 71
     2
340
16
 90
       25
 62
   256
340
16
 90
       50
 62
   256
 40
5.0
 40
2.5
 40
5.0
 71
     3
340
11
 62
   256
 40
5.0
 90
        0
 40
15.0
 90
        1
300
%<\AcVar ViewSectionStartId>%-%<\AcVar ViewSectionEndId>% (%<\AcVar ViewScale \f "%sn">%)
 71
     4
 62
   256
 62
   257
300
ANSI31
 40
1.0
 90
        0
290
     0
290
     0
 90
        6
 40
0.0
 40
1.570796326794896
 40
0.2617993877991494
 40
1.308996938995747
 40
-0.2617993877991494
 40
1.832595714594046
  0
TABLESTYLE
  5
17C
102
{ACAD_XDICTIONARY
360
315
102
}
102
{ACAD_REACTORS
330
16E
102
}
330
16E
100
AcDbTableStyle
280
     0
  3
Standard
 70
     0
 71
     0
 40
1.5
 41
1.5
280
     0
281
     0
  7
Standard
140
4.5
170
     2
 62
     0
 63
     7
283
     0
 90
      512
 91
        0
  1

274
    -2
284
     1
 64
     0
275
    -2
285
     1
 65
     0
276
    -2
286
     1
 66
     0
277
    -2
287
     1
 67
     0
278
    -2
288
     1
 68
     0
279
    -2
289
     1
 69
     0
  7
Standard
140
6.0
170
     5
 62
     0
 63
     7
283
     0
 90
      512
 91
        0
  1

274
    -2
284
     1
 64
     0
275
    -2
285
     1
 65
     0
276
    -2
286
     1
 66
     0
277
    -2
287
     1
 67
     0
278
    -2
288
     1
 68
     0
279
    -2
289
     1
 69
     0
  7
Standard
140
4.5
170
     5
 62
     0
 63
     7
283
     0
 90
      512
 91
        0
  1

274
    -2
284
     1
 64
     0
275
    -2
285
     1
 65
     0
276
    -2
286
     1
 66
     0
277
    -2
287
     1
 67
     0
278
    -2
288
     1
 68
     0
279
    -2
289
     1
 69
     0
  0
VISUALSTYLE
  5
2F
102
{ACAD_XDICTIONARY
360
328
102
}
102
{ACAD_REACTORS
330
2A
102
}
330
2A
100
AcDbVisualStyle
  2
2dWireframe
 70
     4
177
     2
291
     0
 71
     0
176
     1
 72
     2
176
     1
 73
     0
176
     1
 90
        0
176
     1
 40
0.6
176
     1
 41
30.0
176
     1
 63
     7
421
 16777215
176
     1
 74
     1
176
     1
 91
        4
176
     1
 64
     7
176
     1
 65
   257
176
     1
 75
     1
176
     1
175
     1
176
     1
 42
1.0
176
     1
 92
        0
176
     1
 66
   257
176
     1
 43
1.0
176
     1
 76
     1
176
     1
 77
     6
176
     1
 78
     2
176
     1
 67
     7
176
     1
 79
     5
176
     1
170
     0
176
     1
171
     0
176
     1
290
     0
176
     1
 93
        1
176
     1
 44
0.0
176
     1
173
     0
176
     1
1001
ACAD
1000
AcDbSavedByObjectVersion
1070
     0
  0
VISUALSTYLE
  5
31
102
{ACAD_XDICTIONARY
360
32C
102
}
102
{ACAD_REACTORS
330
2A
102
}
330
2A
100
AcDbVisualStyle
  2
3D Hidden
 70
     6
177
     2
291
     0
 71
     1
176
     1
 72
     2
176
     1
 73
     2
176
     1
 90
        0
176
     1
 40
0.6
176
     1
 41
30.0
176
     1
 63
     7
421
 16777215
176
     1
 74
     2
176
     1
 91
        2
176
     1
 64
     7
176
     1
 65
   257
176
     1
 75
     2
176
     1
175
     1
176
     1
 42
40.0
176
     1
 92
        0
176
     1
 66
   257
176
     1
 43
1.0
176
     1
 76
     1
176
     1
 77
     6
176
     1
 78
     2
176
     1
 67
     7
176
     1
 79
     3
176
     1
170
     0
176
     1
171
     0
176
     1
290
     0
176
     1
 93
        1
176
     1
 44
0.0
176
     1
173
     0
176
     1
1001
ACAD
1000
AcDbSavedByObjectVersion
1070
     0
  0
VISUALSTYLE
  5
30
102
{ACAD_XDICTIONARY
360
32A
102
}
102
{ACAD_REACTORS
330
2A
102
}
330
2A
100
AcDbVisualStyle
  2
3dWireframe
 70
     5
177
     2
291
     0
 71
     0
176
     1
 72
     2
176
     1
 73
     0
176
     1
 90
        0
176
     1
 40
0.6
176
     1
 41
30.0
176
     1
 63
     7
421
 16777215
176
     1
 74
     1
176
     1
 91
        4
176
     1
 64
     7
176
     1
 65
   257
176
     1
 75
     1
176
     1
175
     1
176
     1
 42
1.0
176
     1
 92
        0
176
     1
 66
   257
176
     1
 43
1.0
176
     1
 76
     1
176
     1
 77
     6
176
     1
 78
     2
176
     1
 67
     7
176
     1
 79
     5
176
     1
170
     0
176
     1
171
     0
176
     1
290
     0
176
     1
 93
        1
176
     1
 44
0.0
176
     1
173
     0
176
     1
1001
ACAD
1000
AcDbSavedByObjectVersion
1070
     0
  0
VISUALSTYLE
  5
32
102
{ACAD_XDICTIONARY
360
32E
102
}
102
{ACAD_REACTORS
330
2A
102
}
330
2A
100
AcDbVisualStyle
  2
Basic
 70
     7
177
     2
291
     1
 71
     1
176
     1
 72
     0
176
     1
 73
     1
176
     1
 90
        0
176
     1
 40
0.6
176
     1
 41
30.0
176
     1
 63
     7
421
 16777215
176
     1
 74
     0
176
     1
 91
        4
176
     1
 64
     7
176
     1
 65
   257
176
     1
 75
     1
176
     1
175
     1
176
     1
 42
1.0
176
     1
 92
        8
176
     1
 66
     7
176
     1
 43
1.0
176
     1
 76
     1
176
     1
 77
     6
176
     1
 78
     2
176
     1
 67
     7
176
     1
 79
     5
176
     1
170
     0
176
     1
171
     0
176
     1
290
     0
176
     1
 93
        1
176
     1
 44
0.0
176
     1
173
     0
176
     1
1001
ACAD
1000
AcDbSavedByObjectVersion
1070
     0
  0
VISUALSTYLE
  5
36
102
{ACAD_XDICTIONARY
360
336
102
}
102
{ACAD_REACTORS
330
2A
102
}
330
2A
100
AcDbVisualStyle
  2
Brighten
 70
    12
177
     2
291
     1
 71
     2
176
     1
 72
     2
176
     1
 73
     0
176
     1
 90
        0
176
     1
 40
0.6
176
     1
 41
30.0
176
     1
 63
     7
421
 16777215
176
     1
 74
     1
176
     1
 91
        4
176
     1
 64
     7
176
     1
 65
   257
176
     1
 75
     1
176
     1
175
     1
176
     1
 42
1.0
176
     1
 92
        8
176
     1
 66
     7
176
     1
 43
1.0
176
     1
 76
     1
176
     1
 77
     6
176
     1
 78
     2
176
     1
 67
     7
176
     1
 79
     5
176
     1
170
     0
176
     1
171
     0
176
     1
290
     0
176
     1
 93
        1
176
     1
 44
50.0
176
     1
173
     0
176
     1
1001
ACAD
1000
AcDbSavedByObjectVersion
1070
     0
  0
VISUALSTYLE
  5
3A
102
{ACAD_XDICTIONARY
360
33E
102
}
102
{ACAD_REACTORS
330
2A
102
}
330
2A
100
AcDbVisualStyle
  2
ColorChange
 70
    16
177
     2
291
     1
 71
     2
176
     1
 72
     2
176
     1
 73
     3
176
     1
 90
        0
176
     1
 40
0.6
176
     1
 41
30.0
176
     1
 63
     8
421
  8421504
176
     1
 74
     1
176
     1
 91
        4
176
     1
 64
     7
176
     1
 65
   257
176
     1
 75
     1
176
     1
175
     1
176
     1
 42
1.0
176
     1
 92
        8
176
     1
 66
     8
424
  8421504
176
     1
 43
1.0
176
     1
 76
     1
176
     1
 77
     6
176
     1
 78
     2
176
     1
 67
     7
176
     1
 79
     5
176
     1
170
     0
176
     1
171
     0
176
     1
290
     0
176
     1
 93
        1
176
     1
 44
0.0
176
     1
173
     0
176
     1
1001
ACAD
1000
AcDbSavedByObjectVersion
1070
     0
  0
VISUALSTYLE
  5
34
102
{ACAD_XDICTIONARY
360
332
102
}
102
{ACAD_REACTORS
330
2A
102
}
330
2A
100
AcDbVisualStyle
  2
Conceptual
 70
     9
177
     2
291
     0
 71
     3
176
     1
 72
     2
176
     1
 73
     0
176
     1
 90
        0
176
     1
 40
0.6
176
     1
 41
30.0
176
     1
 63
     7
421
 16777215
176
     1
 74
     2
176
     1
 91
        2
176
     1
 64
     7
176
     1
 65
   257
176
     1
 75
     1
176
     1
175
     1
176
     1
 42
40.0
176
     1
 92
        8
176
     1
 66
     7
176
     1
 43
1.0
176
     1
 76
     1
176
     1
 77
     6
176
     1
 78
     2
176
     1
 67
     7
176
     1
 79
     3
176
     1
170
     0
176
     1
171
     0
176
     1
290
     0
176
     1
 93
        1
176
     1
 44
0.0
176
     1
173
     0
176
     1
1001
ACAD
1000
AcDbSavedByObjectVersion
1070
     0
  0
VISUALSTYLE
  5
35
102
{ACAD_XDICTIONARY
360
334
102
}
102
{ACAD_REACTORS
330
2A
102
}
330
2A
100
AcDbVisualStyle
  2
Dim
 70
    11
177
     2
291
     1
 71
     2
176
     1
 72
     2
176
     1
 73
     0
176
     1
 90
        0
176
     1
 40
0.6
176
     1
 41
30.0
176
     1
 63
     7
421
 16777215
176
     1
 74
     1
176
     1
 91
        4
176
     1
 64
     7
176
     1
 65
   257
176
     1
 75
     1
176
     1
175
     1
176
     1
 42
1.0
176
     1
 92
        8
176
     1
 66
     7
176
     1
 43
1.0
176
     1
 76
     1
176
     1
 77
     6
176
     1
 78
     2
176
     1
 67
     7
176
     1
 79
     5
176
     1
170
     0
176
     1
171
     0
176
     1
290
     0
176
     1
 93
        1
176
     1
 44
-50.0
176
     1
173
     0
176
     1
1001
ACAD
1000
AcDbSavedByObjectVersion
1070
     0
  0
VISUALSTYLE
  5
17A
102
{ACAD_XDICTIONARY
360
352
102
}
102
{ACAD_REACTORS
330
2A
102
}
330
2A
100
AcDbVisualStyle
  2
EdgeColorOff
 70
    22
177
     2
291
     1
 71
     2
176
     0
 72
     2
176
     0
 73
     0
176
     0
 90
        0
176
     0
 40
0.6
176
     0
 41
30.0
176
     0
 63
     7
421
 16777215
176
     0
 74
     1
176
     0
 91
        4
176
     0
 64
     7
176
     0
 65
   257
176
     0
 75
     1
176
     0
175
     1
176
     0
 42
1.0
176
     0
 92
        8
176
     2
 66
     7
176
     0
 43
1.0
176
     0
 76
     1
176
     0
 77
     6
176
     0
 78
     2
176
     0
 67
     7
176
     0
 79
     5
176
     0
170
     0
176
     0
171
     0
176
     0
290
     0
176
     0
 93
        1
176
     0
 44
0.0
176
     0
173
     0
176
     0
1001
ACAD
1000
AcDbSavedByObjectVersion
1070
     0
  0
VISUALSTYLE
  5
39
102
{ACAD_XDICTIONARY
360
33C
102
}
102
{ACAD_REACTORS
330
2A
102
}
330
2A
100
AcDbVisualStyle
  2
Facepattern
 70
    15
177
     2
291
     1
 71
     2
176
     1
 72
     2
176
     1
 73
     0
176
     1
 90
        0
176
     1
 40
0.6
176
     1
 41
30.0
176
     1
 63
     7
421
 16777215
176
     1
 74
     1
176
     1
 91
        4
176
     1
 64
     7
176
     1
 65
   257
176
     1
 75
     1
176
     1
175
     1
176
     1
 42
1.0
176
     1
 92
        8
176
     1
 66
     7
176
     1
 43
1.0
176
     1
 76
     1
176
     1
 77
     6
176
     1
 78
     2
176
     1
 67
     7
176
     1
 79
     5
176
     1
170
     0
176
     1
171
     0
176
     1
290
     0
176
     1
 93
        1
176
     1
 44
0.0
176
     1
173
     0
176
     1
1001
ACAD
1000
AcDbSavedByObjectVersion
1070
     0
  0
VISUALSTYLE
  5
2B
102
{ACAD_XDICTIONARY
360
320
102
}
102
{ACAD_REACTORS
330
2A
102
}
330
2A
100
AcDbVisualStyle
  2
Flat
 70
     0
177
     2
291
     1
 71
     2
176
     1
 72
     1
176
     1
 73
     1
176
     1
 90
        2
176
     1
 40
0.6
176
     1
 41
30.0
176
     1
 63
     7
421
 16777215
176
     1
 74
     0
176
     1
 91
        4
176
     1
 64
     7
176
     1
 65
   257
176
     1
 75
     1
176
     1
175
     1
176
     1
 42
1.0
176
     1
 92
        8
176
     1
 66
     7
176
     1
 43
1.0
176
     1
 76
     1
176
     1
 77
     6
176
     1
 78
     2
176
     1
 67
     7
176
     1
 79
     5
176
     1
170
     0
176
     1
171
     0
176
     1
290
     0
176
     1
 93
       13
176
     1
 44
0.0
176
     1
173
     0
176
     1
1001
ACAD
1000
AcDbSavedByObjectVersion
1070
     0
  0
VISUALSTYLE
  5
2C
102
{ACAD_XDICTIONARY
360
322
102
}
102
{ACAD_REACTORS
330
2A
102
}
330
2A
100
AcDbVisualStyle
  2
FlatWithEdges
 70
     1
177
     2
291
     1
 71
     2
176
     1
 72
     1
176
     1
 73
     1
176
     1
 90
        2
176
     1
 40
0.6
176
     1
 41
30.0
176
     1
 63
     7
421
 16777215
176
     1
 74
     1
176
     1
 91
        4
176
     1
 64
     7
176
     1
 65
   257
176
     1
 75
     1
176
     1
175
     1
176
     1
 42
1.0
176
     1
 92
        0
176
     1
 66
   257
176
     1
 43
1.0
176
     1
 76
     1
176
     1
 77
     6
176
     1
 78
     2
176
     1
 67
     7
176
     1
 79
     5
176
     1
170
     0
176
     1
171
     0
176
     1
290
     0
176
     1
 93
       13
176
     1
 44
0.0
176
     1
173
     0
176
     1
1001
ACAD
1000
AcDbSavedByObjectVersion
1070
     0
  0
VISUALSTYLE
  5
2D
102
{ACAD_XDICTIONARY
360
324
102
}
102
{ACAD_REACTORS
330
2A
102
}
330
2A
100
AcDbVisualStyle
  2
Gouraud
 70
     2
177
     2
291
     1
 71
     2
176
     1
 72
     2
176
     1
 73
     1
176
     1
 90
        2
176
     1
 40
0.6
176
     1
 41
30.0
176
     1
 63
     7
421
 16777215
176
     1
 74
     0
176
     1
 91
        4
176
     1
 64
     7
176
     1
 65
   257
176
     1
 75
     1
176
     1
175
     1
176
     1
 42
1.0
176
     1
 92
        0
176
     1
 66
     7
176
     1
 43
1.0
176
     1
 76
     1
176
     1
 77
     6
176
     1
 78
     2
176
     1
 67
     7
176
     1
 79
     5
176
     1
170
     0
176
     1
171
     0
176
     1
290
     0
176
     1
 93
       13
176
     1
 44
0.0
176
     1
173
     0
176
     1
1001
ACAD
1000
AcDbSavedByObjectVersion
1070
     0
  0
VISUALSTYLE
  5
2E
102
{ACAD_XDICTIONARY
360
326
102
}
102
{ACAD_REACTORS
330
2A
102
}
330
2A
100
AcDbVisualStyle
  2
GouraudWithEdges
 70
     3
177
     2
291
     1
 71
     2
176
     1
 72
     2
176
     1
 73
     1
176
     1
 90
        2
176
     1
 40
0.6
176
     1
 41
30.0
176
     1
 63
     7
421
 16777215
176
     1
 74
     1
176
     1
 91
        4
176
     1
 64
     7
176
     1
 65
   257
176
     1
 75
     1
176
     1
175
     1
176
     1
 42
1.0
176
     1
 92
        0
176
     1
 66
   257
176
     1
 43
1.0
176
     1
 76
     1
176
     1
 77
     6
176
     1
 78
     2
176
     1
 67
     7
176
     1
 79
     5
176
     1
170
     0
176
     1
171
     0
176
     1
290
     0
176
     1
 93
       13
176
     1
 44
0.0
176
     1
173
     0
176
     1
1001
ACAD
1000
AcDbSavedByObjectVersion
1070
     0
  0
VISUALSTYLE
  5
172
102
{ACAD_XDICTIONARY
360
342
102
}
102
{ACAD_REACTORS
330
2A
102
}
330
2A
100
AcDbVisualStyle
  2
Hidden
 70
     6
177
     2
291
     0
 71
     1
176
     1
 72
     2
176
     1
 73
     2
176
     1
 90
        0
176
     1
 40
0.6
176
     1
 41
30.0
176
     1
 63
     7
421
 16777215
176
     1
 74
     2
176
     1
 91
        2
176
     1
 64
     7
176
     1
 65
   257
176
     1
 75
     2
176
     1
175
     1
176
     1
 42
40.0
176
     1
 92
        0
176
     1
 66
   257
176
     1
 43
1.0
176
     1
 76
     1
176
     1
 77
     6
176
     1
 78
     2
176
     1
 67
     7
176
     1
 79
     3
176
     1
170
     0
176
     1
171
     0
176
     1
290
     0
176
     1
 93
        1
176
     1
 44
0.0
176
     1
173
     0
176
     1
1001
ACAD
1000
AcDbSavedByObjectVersion
1070
     0
  0
VISUALSTYLE
  5
178
102
{ACAD_XDICTIONARY
360
34E
102
}
102
{ACAD_REACTORS
330
2A
102
}
330
2A
100
AcDbVisualStyle
  2
JitterOff
 70
    20
177
     2
291
     1
 71
     2
176
     0
 72
     2
176
     0
 73
     0
176
     0
 90
        0
176
     0
 40
0.6
176
     0
 41
30.0
176
     0
 63
     7
421
 16777215
176
     0
 74
     1
176
     0
 91
        4
176
     0
 64
     7
176
     0
 65
   257
176
     0
 75
     1
176
     0
175
     1
176
     0
 42
1.0
176
     0
 92
       10
176
     2
 66
     7
176
     0
 43
1.0
176
     0
 76
     1
176
     0
 77
     6
176
     0
 78
     2
176
     0
 67
     7
176
     0
 79
     5
176
     0
170
     0
176
     0
171
     0
176
     0
290
     0
176
     0
 93
        1
176
     0
 44
0.0
176
     0
173
     0
176
     0
1001
ACAD
1000
AcDbSavedByObjectVersion
1070
     0
  0
VISUALSTYLE
  5
38
102
{ACAD_XDICTIONARY
360
33A
102
}
102
{ACAD_REACTORS
330
2A
102
}
330
2A
100
AcDbVisualStyle
  2
Linepattern
 70
    14
177
     2
291
     1
 71
     2
176
     1
 72
     2
176
     1
 73
     0
176
     1
 90
        0
176
     1
 40
0.6
176
     1
 41
30.0
176
     1
 63
     7
421
 16777215
176
     1
 74
     1
176
     1
 91
        4
176
     1
 64
     7
176
     1
 65
   257
176
     1
 75
     7
176
     1
175
     7
176
     1
 42
1.0
176
     1
 92
        8
176
     1
 66
     7
176
     1
 43
1.0
176
     1
 76
     1
176
     1
 77
     6
176
     1
 78
     2
176
     1
 67
     7
176
     1
 79
     5
176
     1
170
     0
176
     1
171
     0
176
     1
290
     0
176
     1
 93
        1
176
     1
 44
0.0
176
     1
173
     0
176
     1
1001
ACAD
1000
AcDbSavedByObjectVersion
1070
     0
  0
VISUALSTYLE
  5
179
102
{ACAD_XDICTIONARY
360
350
102
}
102
{ACAD_REACTORS
330
2A
102
}
330
2A
100
AcDbVisualStyle
  2
OverhangOff
 70
    21
177
     2
291
     1
 71
     2
176
     0
 72
     2
176
     0
 73
     0
176
     0
 90
        0
176
     0
 40
0.6
176
     0
 41
30.0
176
     0
 63
     7
421
 16777215
176
     0
 74
     1
176
     0
 91
        4
176
     0
 64
     7
176
     0
 65
   257
176
     0
 75
     1
176
     0
175
     1
176
     0
 42
1.0
176
     0
 92
        9
176
     2
 66
     7
176
     0
 43
1.0
176
     0
 76
     1
176
     0
 77
     6
176
     0
 78
     2
176
     0
 67
     7
176
     0
 79
     5
176
     0
170
     0
176
     0
171
     0
176
     0
290
     0
176
     0
 93
        1
176
     0
 44
0.0
176
     0
173
     0
176
     0
1001
ACAD
1000
AcDbSavedByObjectVersion
1070
     0
  0
VISUALSTYLE
  5
33
102
{ACAD_XDICTIONARY
360
330
102
}
102
{ACAD_REACTORS
330
2A
102
}
330
2A
100
AcDbVisualStyle
  2
Realistic
 70
     8
177
     2
291
     0
 71
     2
176
     1
 72
     2
176
     1
 73
     0
176
     1
 90
        0
176
     1
 40
0.6
176
     1
 41
30.0
176
     1
 63
     7
421
 16777215
176
     1
 74
     1
176
     1
 91
        0
176
     1
 64
     7
176
     1
 65
   257
176
     1
 75
     1
176
     1
175
     1
176
     1
 42
1.0
176
     1
 92
        8
176
     1
 66
     8
424
  7895160
176
     1
 43
1.0
176
     1
 76
     1
176
     1
 77
     6
176
     1
 78
     2
176
     1
 67
     7
176
     1
 79
     5
176
     1
170
     0
176
     1
171
     0
176
     1
290
     0
176
     1
 93
       13
176
     1
 44
0.0
176
     1
173
     0
176
     1
1001
ACAD
1000
AcDbSavedByObjectVersion
1070
     0
  0
VISUALSTYLE
  5
177
102
{ACAD_XDICTIONARY
360
34C
102
}
102
{ACAD_REACTORS
330
2A
102
}
330
2A
100
AcDbVisualStyle
  2
Shaded
 70
    27
177
     2
291
     0
 71
     2
176
     1
 72
     2
176
     1
 73
     1
176
     1
 90
        2
176
     1
 40
0.6
176
     1
 41
30.0
176
     1
 63
     7
421
 16777215
176
     1
 74
     0
176
     1
 91
        4
176
     1
 64
     7
176
     1
 65
   257
176
     1
 75
     1
176
     1
175
     1
176
     1
 42
1.0
176
     1
 92
        8
176
     1
 66
   257
176
     1
 43
1.0
176
     1
 76
     1
176
     1
 77
     6
176
     1
 78
     2
176
     1
 67
     8
425
  7895160
176
     1
 79
     3
176
     1
170
     0
176
     1
171
     0
176
     1
290
     0
176
     1
 93
        5
176
     1
 44
0.0
176
     1
173
     0
176
     1
1001
ACAD
1000
AcDbSavedByObjectVersion
1070
     0
  0
VISUALSTYLE
  5
176
102
{ACAD_XDICTIONARY
360
34A
102
}
102
{ACAD_REACTORS
330
2A
102
}
330
2A
100
AcDbVisualStyle
  2
Shaded with edges
 70
    26
177
     2
291
     0
 71
     2
176
     1
 72
     2
176
     1
 73
     1
176
     1
 90
        2
176
     1
 40
0.6
176
     1
 41
30.0
176
     1
 63
     7
421
 16777215
176
     1
 74
     1
176
     1
 91
        2
176
     1
 64
     7
176
     1
 65
   257
176
     1
 75
     2
176
     1
175
     1
176
     1
 42
1.0
176
     1
 92
        8
176
     1
 66
   257
176
     1
 43
1.0
176
     1
 76
     1
176
     1
 77
     6
176
     1
 78
     2
176
     1
 67
     7
176
     1
 79
     3
176
     1
170
     0
176
     1
171
     0
176
     1
290
     0
176
     1
 93
        5
176
     1
 44
0.0
176
     1
173
     0
176
     1
1001
ACAD
1000
AcDbSavedByObjectVersion
1070
     0
  0
VISUALSTYLE
  5
173
102
{ACAD_XDICTIONARY
360
344
102
}
102
{ACAD_REACTORS
330
2A
102
}
330
2A
100
AcDbVisualStyle
  2
Shades of Gray
 70
    23
177
     2
291
     0
 71
     2
176
     1
 72
     2
176
     1
 73
     3
176
     1
 90
        0
176
     1
 40
0.6
176
     1
 41
30.0
176
     1
 63
     7
421
 16777215
176
     1
 74
     2
176
     1
 91
        2
176
     1
 64
     7
176
     1
 65
     7
176
     1
 75
     1
176
     1
175
     1
176
     1
 42
40.0
176
     1
 92
        8
176
     1
 66
     7
176
     1
 43
1.0
176
     1
 76
     1
176
     1
 77
     6
176
     1
 78
     2
176
     1
 67
     7
176
     1
 79
     3
176
     1
170
     0
176
     1
171
     0
176
     1
290
     0
176
     1
 93
        1
176
     1
 44
0.0
176
     1
173
     0
176
     1
1001
ACAD
1000
AcDbSavedByObjectVersion
1070
     0
  0
VISUALSTYLE
  5
174
102
{ACAD_XDICTIONARY
360
346
102
}
102
{ACAD_REACTORS
330
2A
102
}
330
2A
100
AcDbVisualStyle
  2
Sketchy
 70
    24
177
     2
291
     0
 71
     1
176
     1
 72
     2
176
     1
 73
     2
176
     1
 90
        0
176
     1
 40
0.6
176
     1
 41
30.0
176
     1
 63
     7
421
 16777215
176
     1
 74
     2
176
     1
 91
        2
176
     1
 64
     7
176
     1
 65
     7
176
     1
 75
     1
176
     1
175
     1
176
     1
 42
40.0
176
     1
 92
       11
176
     1
 66
     7
176
     1
 43
1.0
176
     1
 76
     1
176
     1
 77
     6
176
     1
 78
     2
176
     1
 67
     7
176
     1
 79
     6
176
     1
170
     0
176
     1
171
     0
176
     1
290
     0
176
     1
 93
        1
176
     1
 44
0.0
176
     1
173
     0
176
     1
1001
ACAD
1000
AcDbSavedByObjectVersion
1070
     0
  0
VISUALSTYLE
  5
37
102
{ACAD_XDICTIONARY
360
338
102
}
102
{ACAD_REACTORS
330
2A
102
}
330
2A
100
AcDbVisualStyle
  2
Thicken
 70
    13
177
     2
291
     1
 71
     2
176
     1
 72
     2
176
     1
 73
     0
176
     1
 90
        0
176
     1
 40
0.6
176
     1
 41
30.0
176
     1
 63
     7
421
 16777215
176
     1
 74
     1
176
     1
 91
        4
176
     1
 64
     7
176
     1
 65
   257
176
     1
 75
     1
176
     1
175
     1
176
     1
 42
1.0
176
     1
 92
       12
176
     1
 66
     7
176
     1
 43
1.0
176
     1
 76
     1
176
     1
 77
     6
176
     1
 78
     2
176
     1
 67
     7
176
     1
 79
     5
176
     1
170
     0
176
     1
171
     0
176
     1
290
     0
176
     1
 93
        1
176
     1
 44
0.0
176
     1
173
     0
176
     1
1001
ACAD
1000
AcDbSavedByObjectVersion
1070
     0
  0
VISUALSTYLE
  5
171
102
{ACAD_XDICTIONARY
360
340
102
}
102
{ACAD_REACTORS
330
2A
102
}
330
2A
100
AcDbVisualStyle
  2
Wireframe
 70
     5
177
     2
291
     0
 71
     0
176
     1
 72
     2
176
     1
 73
     0
176
     1
 90
        0
176
     1
 40
0.6
176
     1
 41
30.0
176
     1
 63
     7
421
 16777215
176
     1
 74
     1
176
     1
 91
        4
176
     1
 64
     7
176
     1
 65
   257
176
     1
 75
     1
176
     1
175
     1
176
     1
 42
1.0
176
     1
 92
        0
176
     1
 66
   257
176
     1
 43
1.0
176
     1
 76
     1
176
     1
 77
     6
176
     1
 78
     2
176
     1
 67
     7
176
     1
 79
     3
176
     1
170
     0
176
     1
171
     0
176
     1
290
     0
176
     1
 93
        1
176
     1
 44
0.0
176
     1
173
     0
176
     1
1001
ACAD
1000
AcDbSavedByObjectVersion
1070
     0
  0
VISUALSTYLE
  5
175
102
{ACAD_XDICTIONARY
360
348
102
}
102
{ACAD_REACTORS
330
2A
102
}
330
2A
100
AcDbVisualStyle
  2
X-Ray
 70
    25
177
     2
291
     0
 71
     2
176
     1
 72
     2
176
     1
 73
     1
176
     1
 90
        1
176
     1
 40
0.5
176
     1
 41
30.0
176
     1
 63
     7
421
 16777215
176
     1
 74
     1
176
     1
 91
        0
176
     1
 64
     7
176
     1
 65
   257
176
     1
 75
     1
176
     1
175
     1
176
     1
 42
1.0
176
     1
 92
        8
176
     1
 66
     7
176
     1
 43
1.0
176
     1
 76
     1
176
     1
 77
     6
176
     1
 78
     2
176
     1
 67
     7
176
     1
 79
     3
176
     1
170
     0
176
     1
171
     0
176
     1
290
     0
176
     1
 93
       13
176
     1
 44
0.0
176
     1
173
     0
176
     1
1001
ACAD
1000
AcDbSavedByObjectVersion
1070
     0
  0
DICTIONARYVAR
  5
16D
102
{ACAD_REACTORS
330
16C
102
}
330
16C
100
DictionaryVariables
280
     0
  1
1:1
  0
DICTIONARYVAR
  5
2C6
102
{ACAD_REACTORS
330
16C
102
}
330
16C
100
DictionaryVariables
280
     0
  1
STANDARD
  0
DICTIONARYVAR
  5
2C5
102
{ACAD_REACTORS
330
16C
102
}
330
16C
100
DictionaryVariables
280
     0
  1
STANDARD
  0
DICTIONARYVAR
  5
2C7
102
{ACAD_REACTORS
330
16C
102
}
330
16C
100
DictionaryVariables
280
     0
  1
Metric50
  0
DICTIONARYVAR
  5
2C8
102
{ACAD_REACTORS
330
16C
102
}
330
16C
100
DictionaryVariables
280
     0
  1
Metric50
  0
DICTIONARY
  5
31F
102
{ACAD_REACTORS
330
31D
102
}
330
31D
100
AcDbDictionary
281
     1
  0
DICTIONARY
  5
31E
102
{ACAD_REACTORS
330
31D
102
}
330
31D
100
AcDbDictionary
281
     1
  3
2086133736576
350
318
  3
2086133736592
350
319
  3
2086133736608
350
31A
  3
2086133736624
350
31B
  3
2086133736640
350
31C
  0
DICTIONARY
  5
358
330
181
100
AcDbDictionary
280
     1
281
     1
  3
ACAD_XREC_ROUNDTRIP
360
359
  0
DICTIONARY
  5
354
330
17D
100
AcDbDictionary
280
     1
281
     1
  3
ACAD_XREC_ROUNDTRIP
360
355
  0
DICTIONARY
  5
356
330
17F
100
AcDbDictionary
280
     1
281
     1
  3
ACAD_XREC_ROUNDTRIP
360
357
  0
DICTIONARY
  5
315
330
17C
100
AcDbDictionary
280
     1
281
     1
  3
ACAD_ROUNDTRIP_2008_TABLESTYLE_CELLSTYLEMAP
360
316
  0
DICTIONARY
  5
328
330
2F
100
AcDbDictionary
280
     1
281
     1
  3
ACAD_XREC_ROUNDTRIP
360
329
  0
DICTIONARY
  5
32C
330
31
100
AcDbDictionary
280
     1
281
     1
  3
ACAD_XREC_ROUNDTRIP
360
32D
  0
DICTIONARY
  5
32A
330
30
100
AcDbDictionary
280
     1
281
     1
  3
ACAD_XREC_ROUNDTRIP
360
32B
  0
DICTIONARY
  5
32E
330
32
100
AcDbDictionary
280
     1
281
     1
  3
ACAD_XREC_ROUNDTRIP
360
32F
  0
DICTIONARY
  5
336
330
36
100
AcDbDictionary
280
     1
281
     1
  3
ACAD_XREC_ROUNDTRIP
360
337
  0
DICTIONARY
  5
33E
330
3A
100
AcDbDictionary
280
     1
281
     1
  3
ACAD_XREC_ROUNDTRIP
360
33F
  0
DICTIONARY
  5
332
330
34
100
AcDbDictionary
280
     1
281
     1
  3
ACAD_XREC_ROUNDTRIP
360
333
  0
DICTIONARY
  5
334
330
35
100
AcDbDictionary
280
     1
281
     1
  3
ACAD_XREC_ROUNDTRIP
360
335
  0
DICTIONARY
  5
352
330
17A
100
AcDbDictionary
280
     1
281
     1
  3
ACAD_XREC_ROUNDTRIP
360
353
  0
DICTIONARY
  5
33C
330
39
100
AcDbDictionary
280
     1
281
     1
  3
ACAD_XREC_ROUNDTRIP
360
33D
  0
DICTIONARY
  5
320
330
2B
100
AcDbDictionary
280
     1
281
     1
  3
ACAD_XREC_ROUNDTRIP
360
321
  0
DICTIONARY
  5
322
330
2C
100
AcDbDictionary
280
     1
281
     1
  3
ACAD_XREC_ROUNDTRIP
360
323
  0
DICTIONARY
  5
324
330
2D
100
AcDbDictionary
280
     1
281
     1
  3
ACAD_XREC_ROUNDTRIP
360
325
  0
DICTIONARY
  5
326
330
2E
100
AcDbDictionary
280
     1
281
     1
  3
ACAD_XREC_ROUNDTRIP
360
327
  0
DICTIONARY
  5
342
330
172
100
AcDbDictionary
280
     1
281
     1
  3
ACAD_XREC_ROUNDTRIP
360
343
  0
DICTIONARY
  5
34E
330
178
100
AcDbDictionary
280
     1
281
     1
  3
ACAD_XREC_ROUNDTRIP
360
34F
  0
DICTIONARY
  5
33A
330
38
100
AcDbDictionary
280
     1
281
     1
  3
ACAD_XREC_ROUNDTRIP
360
33B
  0
DICTIONARY
  5
350
330
179
100
AcDbDictionary
280
     1
281
     1
  3
ACAD_XREC_ROUNDTRIP
360
351
  0
DICTIONARY
  5
330
330
33
100
AcDbDictionary
280
     1
281
     1
  3
ACAD_XREC_ROUNDTRIP
360
331
  0
DICTIONARY
  5
34C
330
177
100
AcDbDictionary
280
     1
281
     1
  3
ACAD_XREC_ROUNDTRIP
360
34D
  0
DICTIONARY
  5
34A
330
176
100
AcDbDictionary
280
     1
281
     1
  3
ACAD_XREC_ROUNDTRIP
360
34B
  0
DICTIONARY
  5
344
330
173
100
AcDbDictionary
280
     1
281
     1
  3
ACAD_XREC_ROUNDTRIP
360
345
  0
DICTIONARY
  5
346
330
174
100
AcDbDictionary
280
     1
281
     1
  3
ACAD_XREC_ROUNDTRIP
360
347
  0
DICTIONARY
  5
338
330
37
100
AcDbDictionary
280
     1
281
     1
  3
ACAD_XREC_ROUNDTRIP
360
339
  0
DICTIONARY
  5
340
330
171
100
AcDbDictionary
280
     1
281
     1
  3
ACAD_XREC_ROUNDTRIP
360
341
  0
DICTIONARY
  5
348
330
175
100
AcDbDictionary
280
     1
281
     1
  3
ACAD_XREC_ROUNDTRIP
360
349
  0
XRECORD
  5
318
102
{ACAD_REACTORS
330
31E
102
}
330
31E
100
AcDbXrecord
280
     1
  1
AcDb_Thumbnail_Schema
102
{ATTRRECORD
341
319
  2
AcDbDs::TreatedAsObjectData
280
     1
291
     1
102
ATTRRECORD}
102
{ATTRRECORD
341
31A
  2
AcDbDs::Legacy
280
     1
291
     1
102
ATTRRECORD}
  2
AcDbDs::ID
280
    10
 91
        8
102
{ATTRRECORD
341
31B
  2
AcDs:Indexable
280
     1
291
     1
102
ATTRRECORD}
102
{ATTRRECORD
341
31C
  2
AcDbDs::HandleAttribute
280
     7
282
     1
102
ATTRRECORD}
  2
Thumbnail_Data
280
    15
 91
        0
  0
XRECORD
  5
319
102
{ACAD_REACTORS
330
31E
102
}
330
31E
100
AcDbXrecord
280
     1
  1
AcDbDs::TreatedAsObjectDataSchema
  2
AcDbDs::TreatedAsObjectData
280
     1
 91
        0
  0
XRECORD
  5
31A
102
{ACAD_REACTORS
330
31E
102
}
330
31E
100
AcDbXrecord
280
     1
  1
AcDbDs::LegacySchema
  2
AcDbDs::Legacy
280
     1
 91
        0
  0
XRECORD
  5
31B
102
{ACAD_REACTORS
330
31E
102
}
330
31E
100
AcDbXrecord
280
     1
  1
AcDbDs::IndexedPropertySchema
  2
AcDs:Indexable
280
     1
 91
        0
  0
XRECORD
  5
31C
102
{ACAD_REACTORS
330
31E
102
}
330
31E
100
AcDbXrecord
280
     1
  1
AcDbDs::HandleAttributeSchema
  2
AcDbDs::HandleAttribute
280
     7
 91
        1
284
     1
  0
XRECORD
  5
359
102
{ACAD_REACTORS
330
358
102
}
330
358
100
AcDbXrecord
280
     1
102
DISPLAYNAME
  1
Metric50
102
FLAGS
 90
        0
  0
XRECORD
  5
355
102
{ACAD_REACTORS
330
354
102
}
330
354
100
AcDbXrecord
280
     1
102
ACAD_ROUNDTRIP_2012_MLEADER_STYLE
298
     1
  0
XRECORD
  5
357
102
{ACAD_REACTORS
330
356
102
}
330
356
100
AcDbXrecord
280
     1
102
DISPLAYNAME
  1
Metric50
102
FLAGS
 90
        0
  0
CELLSTYLEMAP
  5
316
102
{ACAD_REACTORS
330
315
102
}
330
315
100
AcDbCellStyleMap
 90
        3
300
CELLSTYLE
  1
TABLEFORMAT_BEGIN
 90
        5
170
     1
 91
        0
 92
    32768
 62
   257
 93
        1
300
CONTENTFORMAT
  1
CONTENTFORMAT_BEGIN
 90
        0
 91
        0
 92
      512
 93
        0
300

 40
0.0
140
1.0
 94
        5
 62
     0
340
11
144
6.0
309
CONTENTFORMAT_END
171
     1
301
MARGIN
  1
CELLMARGIN_BEGIN
 40
1.5
 40
1.5
 40
1.5
 40
1.5
 40
4.5
 40
4.5
309
CELLMARGIN_END
 94
        6
 95
        1
302
GRIDFORMAT
  1
GRIDFORMAT_BEGIN
 90
        0
 91
        1
 62
     0
 92
       -2
340
0
 93
        0
 40
1.125
309
GRIDFORMAT_END
 95
        2
302
GRIDFORMAT
  1
GRIDFORMAT_BEGIN
 90
        0
 91
        1
 62
     0
 92
       -2
340
0
 93
        0
 40
1.125
309
GRIDFORMAT_END
 95
        4
302
GRIDFORMAT
  1
GRIDFORMAT_BEGIN
 90
        0
 91
        1
 62
     0
 92
       -2
340
0
 93
        0
 40
1.125
309
GRIDFORMAT_END
 95
        8
302
GRIDFORMAT
  1
GRIDFORMAT_BEGIN
 90
        0
 91
        1
 62
     0
 92
       -2
340
0
 93
        0
 40
1.125
309
GRIDFORMAT_END
 95
       16
302
GRIDFORMAT
  1
GRIDFORMAT_BEGIN
 90
        0
 91
        1
 62
     0
 92
       -2
340
0
 93
        0
 40
1.125
309
GRIDFORMAT_END
 95
       32
302
GRIDFORMAT
  1
GRIDFORMAT_BEGIN
 90
        0
 91
        1
 62
     0
 92
       -2
340
0
 93
        0
 40
1.125
309
GRIDFORMAT_END
309
TABLEFORMAT_END
  1
CELLSTYLE_BEGIN
 90
        1
 91
        1
300
_TITLE
309
CELLSTYLE_END
300
CELLSTYLE
  1
TABLEFORMAT_BEGIN
 90
        5
170
     1
 91
        0
 92
        0
 62
   257
 93
        1
300
CONTENTFORMAT
  1
CONTENTFORMAT_BEGIN
 90
        0
 91
        0
 92
      512
 93
        0
300

 40
0.0
140
1.0
 94
        5
 62
     0
340
11
144
4.5
309
CONTENTFORMAT_END
171
     1
301
MARGIN
  1
CELLMARGIN_BEGIN
 40
1.5
 40
1.5
 40
1.5
 40
1.5
 40
4.5
 40
4.5
309
CELLMARGIN_END
 94
        6
 95
        1
302
GRIDFORMAT
  1
GRIDFORMAT_BEGIN
 90
        0
 91
        1
 62
     0
 92
       -2
340
0
 93
        0
 40
1.125
309
GRIDFORMAT_END
 95
        2
302
GRIDFORMAT
  1
GRIDFORMAT_BEGIN
 90
        0
 91
        1
 62
     0
 92
       -2
340
0
 93
        0
 40
1.125
309
GRIDFORMAT_END
 95
        4
302
GRIDFORMAT
  1
GRIDFORMAT_BEGIN
 90
        0
 91
        1
 62
     0
 92
       -2
340
0
 93
        0
 40
1.125
309
GRIDFORMAT_END
 95
        8
302
GRIDFORMAT
  1
GRIDFORMAT_BEGIN
 90
        0
 91
        1
 62
     0
 92
       -2
340
0
 93
        0
 40
1.125
309
GRIDFORMAT_END
 95
       16
302
GRIDFORMAT
  1
GRIDFORMAT_BEGIN
 90
        0
 91
        1
 62
     0
 92
       -2
340
0
 93
        0
 40
1.125
309
GRIDFORMAT_END
 95
       32
302
GRIDFORMAT
  1
GRIDFORMAT_BEGIN
 90
        0
 91
        1
 62
     0
 92
       -2
340
0
 93
        0
 40
1.125
309
GRIDFORMAT_END
309
TABLEFORMAT_END
  1
CELLSTYLE_BEGIN
 90
        2
 91
        1
300
_HEADER
309
CELLSTYLE_END
300
CELLSTYLE
  1
TABLEFORMAT_BEGIN
 90
        5
170
     1
 91
        0
 92
        0
 62
   257
 93
        1
300
CONTENTFORMAT
  1
CONTENTFORMAT_BEGIN
 90
        0
 91
        0
 92
      512
 93
        0
300

 40
0.0
140
1.0
 94
        2
 62
     0
340
11
144
4.5
309
CONTENTFORMAT_END
171
     1
301
MARGIN
  1
CELLMARGIN_BEGIN
 40
1.5
 40
1.5
 40
1.5
 40
1.5
 40
4.5
 40
4.5
309
CELLMARGIN_END
 94
        6
 95
        1
302
GRIDFORMAT
  1
GRIDFORMAT_BEGIN
 90
        0
 91
        1
 62
     0
 92
       -2
340
0
 93
        0
 40
1.125
309
GRIDFORMAT_END
 95
        2
302
GRIDFORMAT
  1
GRIDFORMAT_BEGIN
 90
        0
 91
        1
 62
     0
 92
       -2
340
0
 93
        0
 40
1.125
309
GRIDFORMAT_END
 95
        4
302
GRIDFORMAT
  1
GRIDFORMAT_BEGIN
 90
        0
 91
        1
 62
     0
 92
       -2
340
0
 93
        0
 40
1.125
309
GRIDFORMAT_END
 95
        8
302
GRIDFORMAT
  1
GRIDFORMAT_BEGIN
 90
        0
 91
        1
 62
     0
 92
       -2
340
0
 93
        0
 40
1.125
309
GRIDFORMAT_END
 95
       16
302
GRIDFORMAT
  1
GRIDFORMAT_BEGIN
 90
        0
 91
        1
 62
     0
 92
       -2
340
0
 93
        0
 40
1.125
309
GRIDFORMAT_END
 95
       32
302
GRIDFORMAT
  1
GRIDFORMAT_BEGIN
 90
        0
 91
        1
 62
     0
 92
       -2
340
0
 93
        0
 40
1.125
309
GRIDFORMAT_END
309
TABLEFORMAT_END
  1
CELLSTYLE_BEGIN
 90
        3
 91
        2
300
_DATA
309
CELLSTYLE_END
  0
XRECORD
  5
329
102
{ACAD_REACTORS
330
328
102
}
330
328
100
AcDbXrecord
280
     1
102
RTVSPost2010Prop28
280
     1
102
RTVSPost2010PropOp28
 70
     1
102
RTVSPost2010Prop29
280
     1
102
RTVSPost2010PropOp29
 70
     1
102
RTVSPost2010Prop30
280
     0
102
RTVSPost2010PropOp30
 70
     1
102
RTVSPost2010Prop31
280
     0
102
RTVSPost2010PropOp31
 70
     1
102
RTVSPost2010Prop32
280
     0
102
RTVSPost2010PropOp32
 70
     1
102
RTVSPost2010Prop33
280
     0
102
RTVSPost2010PropOp33
 70
     1
102
RTVSPost2010Prop34
280
     0
102
RTVSPost2010PropOp34
 70
     1
102
RTVSPost2010Prop35
280
     0
102
RTVSPost2010PropOp35
 70
     1
102
RTVSPost2010Prop36
280
     0
102
RTVSPost2010PropOp36
 70
     1
102
RTVSPost2010Prop37
 90
       50
102
RTVSPost2010PropOp37
 70
     1
102
RTVSPost2010Prop38
140
0.0
102
RTVSPost2010PropOp38
 70
     1
102
RTVSPost2010Prop39
140
1.0
102
RTVSPost2010PropOp39
 70
     1
102
RTVSPost2010Prop40
 90
        0
102
RTVSPost2010PropOp40
 70
     1
102
RTVSPost2010Prop41ColorIndex
 90
       18
102
RTVSPost2010Prop41ColorRGB
 90
        0
102
RTVSPost2010PropOp41
 70
     1
102
RTVSPost2010Prop42
 90
       50
102
RTVSPost2010PropOp42
 70
     1
102
RTVSPost2010Prop43
 90
        3
102
RTVSPost2010PropOp43
 70
     1
102
RTVSPost2010Prop44ColorIndex
 90
        5
102
RTVSPost2010Prop44ColorRGB
 90
      255
102
RTVSPost2010PropOp44
 70
     1
102
RTVSPost2010Prop45
280
     0
102
RTVSPost2010PropOp45
 70
     1
102
RTVSPost2010Prop46
 90
       50
102
RTVSPost2010PropOp46
 70
     1
102
RTVSPost2010Prop47
 90
       50
102
RTVSPost2010PropOp47
 70
     1
102
RTVSPost2010Prop48
 90
       50
102
RTVSPost2010PropOp48
 70
     1
102
RTVSPost2010Prop49
280
     0
102
RTVSPost2010PropOp49
 70
     1
102
RTVSPost2010Prop50
 90
       50
102
RTVSPost2010PropOp50
 70
     1
102
RTVSPost2010Prop51ColorIndex
 90
      256
102
RTVSPost2010Prop51ColorRGB
 90
-16777216
102
RTVSPost2010PropOp51
 70
     0
102
RTVSPost2010Prop52
140
1.0
102
RTVSPost2010PropOp52
 70
     0
102
RTVSPost2010Prop53
 90
        2
102
RTVSPost2010PropOp53
 70
     1
102
RTVSPost2010Prop54
  1
strokes_ogs.tif
102
RTVSPost2010PropOp54
 70
     1
102
RTVSPost2010Prop55
280
     0
102
RTVSPost2010PropOp55
 70
     1
102
RTVSPost2010Prop56
140
1.0
102
RTVSPost2010PropOp56
 70
     1
102
RTVSPost2010Prop57
140
1.0
102
RTVSPost2010PropOp57
 70
     1
  0
XRECORD
  5
32D
102
{ACAD_REACTORS
330
32C
102
}
330
32C
100
AcDbXrecord
280
     1
102
RTVSPost2010Prop28
280
     0
102
RTVSPost2010PropOp28
 70
     1
102
RTVSPost2010Prop29
280
     1
102
RTVSPost2010PropOp29
 70
     1
102
RTVSPost2010Prop30
280
     1
102
RTVSPost2010PropOp30
 70
     1
102
RTVSPost2010Prop31
280
     0
102
RTVSPost2010PropOp31
 70
     1
102
RTVSPost2010Prop32
280
     0
102
RTVSPost2010PropOp32
 70
     1
102
RTVSPost2010Prop33
280
     0
102
RTVSPost2010PropOp33
 70
     1
102
RTVSPost2010Prop34
280
     0
102
RTVSPost2010PropOp34
 70
     1
102
RTVSPost2010Prop35
280
     0
102
RTVSPost2010PropOp35
 70
     1
102
RTVSPost2010Prop36
280
     0
102
RTVSPost2010PropOp36
 70
     1
102
RTVSPost2010Prop37
 90
       50
102
RTVSPost2010PropOp37
 70
     1
102
RTVSPost2010Prop38
140
0.0
102
RTVSPost2010PropOp38
 70
     1
102
RTVSPost2010Prop39
140
1.0
102
RTVSPost2010PropOp39
 70
     1
102
RTVSPost2010Prop40
 90
        0
102
RTVSPost2010PropOp40
 70
     1
102
RTVSPost2010Prop41ColorIndex
 90
       18
102
RTVSPost2010Prop41ColorRGB
 90
        0
102
RTVSPost2010PropOp41
 70
     1
102
RTVSPost2010Prop42
 90
       50
102
RTVSPost2010PropOp42
 70
     1
102
RTVSPost2010Prop43
 90
        3
102
RTVSPost2010PropOp43
 70
     1
102
RTVSPost2010Prop44ColorIndex
 90
        5
102
RTVSPost2010Prop44ColorRGB
 90
      255
102
RTVSPost2010PropOp44
 70
     1
102
RTVSPost2010Prop45
280
     0
102
RTVSPost2010PropOp45
 70
     1
102
RTVSPost2010Prop46
 90
       50
102
RTVSPost2010PropOp46
 70
     1
102
RTVSPost2010Prop47
 90
       50
102
RTVSPost2010PropOp47
 70
     1
102
RTVSPost2010Prop48
 90
       50
102
RTVSPost2010PropOp48
 70
     1
102
RTVSPost2010Prop49
280
     0
102
RTVSPost2010PropOp49
 70
     1
102
RTVSPost2010Prop50
 90
       50
102
RTVSPost2010PropOp50
 70
     1
102
RTVSPost2010Prop51ColorIndex
 90
      256
102
RTVSPost2010Prop51ColorRGB
 90
-16777216
102
RTVSPost2010PropOp51
 70
     0
102
RTVSPost2010Prop52
140
1.0
102
RTVSPost2010PropOp52
 70
     0
102
RTVSPost2010Prop53
 90
        2
102
RTVSPost2010PropOp53
 70
     1
102
RTVSPost2010Prop54
  1
strokes_ogs.tif
102
RTVSPost2010PropOp54
 70
     1
102
RTVSPost2010Prop55
280
     0
102
RTVSPost2010PropOp55
 70
     1
102
RTVSPost2010Prop56
140
1.0
102
RTVSPost2010PropOp56
 70
     1
102
RTVSPost2010Prop57
140
1.0
102
RTVSPost2010PropOp57
 70
     1
  0
XRECORD
  5
32B
102
{ACAD_REACTORS
330
32A
102
}
330
32A
100
AcDbXrecord
280
     1
102
RTVSPost2010Prop28
280
     0
102
RTVSPost2010PropOp28
 70
     1
102
RTVSPost2010Prop29
280
     1
102
RTVSPost2010PropOp29
 70
     1
102
RTVSPost2010Prop30
280
     1
102
RTVSPost2010PropOp30
 70
     1
102
RTVSPost2010Prop31
280
     0
102
RTVSPost2010PropOp31
 70
     1
102
RTVSPost2010Prop32
280
     0
102
RTVSPost2010PropOp32
 70
     1
102
RTVSPost2010Prop33
280
     0
102
RTVSPost2010PropOp33
 70
     1
102
RTVSPost2010Prop34
280
     0
102
RTVSPost2010PropOp34
 70
     1
102
RTVSPost2010Prop35
280
     0
102
RTVSPost2010PropOp35
 70
     1
102
RTVSPost2010Prop36
280
     0
102
RTVSPost2010PropOp36
 70
     1
102
RTVSPost2010Prop37
 90
       50
102
RTVSPost2010PropOp37
 70
     1
102
RTVSPost2010Prop38
140
0.0
102
RTVSPost2010PropOp38
 70
     1
102
RTVSPost2010Prop39
140
1.0
102
RTVSPost2010PropOp39
 70
     1
102
RTVSPost2010Prop40
 90
        0
102
RTVSPost2010PropOp40
 70
     1
102
RTVSPost2010Prop41ColorIndex
 90
       18
102
RTVSPost2010Prop41ColorRGB
 90
        0
102
RTVSPost2010PropOp41
 70
     1
102
RTVSPost2010Prop42
 90
       50
102
RTVSPost2010PropOp42
 70
     1
102
RTVSPost2010Prop43
 90
        3
102
RTVSPost2010PropOp43
 70
     1
102
RTVSPost2010Prop44ColorIndex
 90
        5
102
RTVSPost2010Prop44ColorRGB
 90
      255
102
RTVSPost2010PropOp44
 70
     1
102
RTVSPost2010Prop45
280
     0
102
RTVSPost2010PropOp45
 70
     1
102
RTVSPost2010Prop46
 90
       50
102
RTVSPost2010PropOp46
 70
     1
102
RTVSPost2010Prop47
 90
       50
102
RTVSPost2010PropOp47
 70
     1
102
RTVSPost2010Prop48
 90
       50
102
RTVSPost2010PropOp48
 70
     1
102
RTVSPost2010Prop49
280
     0
102
RTVSPost2010PropOp49
 70
     1
102
RTVSPost2010Prop50
 90
       50
102
RTVSPost2010PropOp50
 70
     1
102
RTVSPost2010Prop51ColorIndex
 90
      256
102
RTVSPost2010Prop51ColorRGB
 90
-16777216
102
RTVSPost2010PropOp51
 70
     0
102
RTVSPost2010Prop52
140
1.0
102
RTVSPost2010PropOp52
 70
     0
102
RTVSPost2010Prop53
 90
        2
102
RTVSPost2010PropOp53
 70
     1
102
RTVSPost2010Prop54
  1
strokes_ogs.tif
102
RTVSPost2010PropOp54
 70
     1
102
RTVSPost2010Prop55
280
     0
102
RTVSPost2010PropOp55
 70
     1
102
RTVSPost2010Prop56
140
1.0
102
RTVSPost2010PropOp56
 70
     1
102
RTVSPost2010Prop57
140
1.0
102
RTVSPost2010PropOp57
 70
     1
  0
XRECORD
  5
32F
102
{ACAD_REACTORS
330
32E
102
}
330
32E
100
AcDbXrecord
280
     1
102
RTVSPost2010Prop28
280
     0
102
RTVSPost2010PropOp28
 70
     1
102
RTVSPost2010Prop29
280
     1
102
RTVSPost2010PropOp29
 70
     1
102
RTVSPost2010Prop30
280
     1
102
RTVSPost2010PropOp30
 70
     1
102
RTVSPost2010Prop31
280
     0
102
RTVSPost2010PropOp31
 70
     1
102
RTVSPost2010Prop32
280
     0
102
RTVSPost2010PropOp32
 70
     1
102
RTVSPost2010Prop33
280
     0
102
RTVSPost2010PropOp33
 70
     1
102
RTVSPost2010Prop34
280
     0
102
RTVSPost2010PropOp34
 70
     1
102
RTVSPost2010Prop35
280
     0
102
RTVSPost2010PropOp35
 70
     1
102
RTVSPost2010Prop36
280
     0
102
RTVSPost2010PropOp36
 70
     1
102
RTVSPost2010Prop37
 90
       50
102
RTVSPost2010PropOp37
 70
     1
102
RTVSPost2010Prop38
140
0.0
102
RTVSPost2010PropOp38
 70
     1
102
RTVSPost2010Prop39
140
1.0
102
RTVSPost2010PropOp39
 70
     1
102
RTVSPost2010Prop40
 90
        0
102
RTVSPost2010PropOp40
 70
     1
102
RTVSPost2010Prop41ColorIndex
 90
       18
102
RTVSPost2010Prop41ColorRGB
 90
        0
102
RTVSPost2010PropOp41
 70
     1
102
RTVSPost2010Prop42
 90
       50
102
RTVSPost2010PropOp42
 70
     1
102
RTVSPost2010Prop43
 90
        3
102
RTVSPost2010PropOp43
 70
     1
102
RTVSPost2010Prop44ColorIndex
 90
        5
102
RTVSPost2010Prop44ColorRGB
 90
      255
102
RTVSPost2010PropOp44
 70
     1
102
RTVSPost2010Prop45
280
     0
102
RTVSPost2010PropOp45
 70
     1
102
RTVSPost2010Prop46
 90
       50
102
RTVSPost2010PropOp46
 70
     1
102
RTVSPost2010Prop47
 90
       50
102
RTVSPost2010PropOp47
 70
     1
102
RTVSPost2010Prop48
 90
       50
102
RTVSPost2010PropOp48
 70
     1
102
RTVSPost2010Prop49
280
     0
102
RTVSPost2010PropOp49
 70
     1
102
RTVSPost2010Prop50
 90
       50
102
RTVSPost2010PropOp50
 70
     1
102
RTVSPost2010Prop51ColorIndex
 90
      256
102
RTVSPost2010Prop51ColorRGB
 90
-16777216
102
RTVSPost2010PropOp51
 70
     0
102
RTVSPost2010Prop52
140
1.0
102
RTVSPost2010PropOp52
 70
     0
102
RTVSPost2010Prop53
 90
        2
102
RTVSPost2010PropOp53
 70
     1
102
RTVSPost2010Prop54
  1
strokes_ogs.tif
102
RTVSPost2010PropOp54
 70
     1
102
RTVSPost2010Prop55
280
     0
102
RTVSPost2010PropOp55
 70
     1
102
RTVSPost2010Prop56
140
1.0
102
RTVSPost2010PropOp56
 70
     1
102
RTVSPost2010Prop57
140
1.0
102
RTVSPost2010PropOp57
 70
     1
  0
XRECORD
  5
337
102
{ACAD_REACTORS
330
336
102
}
330
336
100
AcDbXrecord
280
     1
102
RTVSPost2010Prop28
280
     0
102
RTVSPost2010PropOp28
 70
     1
102
RTVSPost2010Prop29
280
     1
102
RTVSPost2010PropOp29
 70
     1
102
RTVSPost2010Prop30
280
     1
102
RTVSPost2010PropOp30
 70
     1
102
RTVSPost2010Prop31
280
     0
102
RTVSPost2010PropOp31
 70
     1
102
RTVSPost2010Prop32
280
     0
102
RTVSPost2010PropOp32
 70
     1
102
RTVSPost2010Prop33
280
     0
102
RTVSPost2010PropOp33
 70
     1
102
RTVSPost2010Prop34
280
     0
102
RTVSPost2010PropOp34
 70
     1
102
RTVSPost2010Prop35
280
     0
102
RTVSPost2010PropOp35
 70
     1
102
RTVSPost2010Prop36
280
     0
102
RTVSPost2010PropOp36
 70
     1
102
RTVSPost2010Prop37
 90
       50
102
RTVSPost2010PropOp37
 70
     1
102
RTVSPost2010Prop38
140
0.0
102
RTVSPost2010PropOp38
 70
     1
102
RTVSPost2010Prop39
140
1.0
102
RTVSPost2010PropOp39
 70
     1
102
RTVSPost2010Prop40
 90
        0
102
RTVSPost2010PropOp40
 70
     1
102
RTVSPost2010Prop41ColorIndex
 90
       18
102
RTVSPost2010Prop41ColorRGB
 90
        0
102
RTVSPost2010PropOp41
 70
     1
102
RTVSPost2010Prop42
 90
       50
102
RTVSPost2010PropOp42
 70
     1
102
RTVSPost2010Prop43
 90
        3
102
RTVSPost2010PropOp43
 70
     1
102
RTVSPost2010Prop44ColorIndex
 90
        5
102
RTVSPost2010Prop44ColorRGB
 90
      255
102
RTVSPost2010PropOp44
 70
     1
102
RTVSPost2010Prop45
280
     0
102
RTVSPost2010PropOp45
 70
     1
102
RTVSPost2010Prop46
 90
       50
102
RTVSPost2010PropOp46
 70
     1
102
RTVSPost2010Prop47
 90
       50
102
RTVSPost2010PropOp47
 70
     1
102
RTVSPost2010Prop48
 90
       50
102
RTVSPost2010PropOp48
 70
     1
102
RTVSPost2010Prop49
280
     0
102
RTVSPost2010PropOp49
 70
     1
102
RTVSPost2010Prop50
 90
       50
102
RTVSPost2010PropOp50
 70
     1
102
RTVSPost2010Prop51ColorIndex
 90
      256
102
RTVSPost2010Prop51ColorRGB
 90
-16777216
102
RTVSPost2010PropOp51
 70
     0
102
RTVSPost2010Prop52
140
1.0
102
RTVSPost2010PropOp52
 70
     0
102
RTVSPost2010Prop53
 90
        2
102
RTVSPost2010PropOp53
 70
     1
102
RTVSPost2010Prop54
  1
strokes_ogs.tif
102
RTVSPost2010PropOp54
 70
     1
102
RTVSPost2010Prop55
280
     0
102
RTVSPost2010PropOp55
 70
     1
102
RTVSPost2010Prop56
140
1.0
102
RTVSPost2010PropOp56
 70
     1
102
RTVSPost2010Prop57
140
1.0
102
RTVSPost2010PropOp57
 70
     1
  0
XRECORD
  5
33F
102
{ACAD_REACTORS
330
33E
102
}
330
33E
100
AcDbXrecord
280
     1
102
RTVSPost2010Prop28
280
     0
102
RTVSPost2010PropOp28
 70
     1
102
RTVSPost2010Prop29
280
     1
102
RTVSPost2010PropOp29
 70
     1
102
RTVSPost2010Prop30
280
     1
102
RTVSPost2010PropOp30
 70
     1
102
RTVSPost2010Prop31
280
     0
102
RTVSPost2010PropOp31
 70
     1
102
RTVSPost2010Prop32
280
     0
102
RTVSPost2010PropOp32
 70
     1
102
RTVSPost2010Prop33
280
     0
102
RTVSPost2010PropOp33
 70
     1
102
RTVSPost2010Prop34
280
     0
102
RTVSPost2010PropOp34
 70
     1
102
RTVSPost2010Prop35
280
     0
102
RTVSPost2010PropOp35
 70
     1
102
RTVSPost2010Prop36
280
     0
102
RTVSPost2010PropOp36
 70
     1
102
RTVSPost2010Prop37
 90
       50
102
RTVSPost2010PropOp37
 70
     1
102
RTVSPost2010Prop38
140
0.0
102
RTVSPost2010PropOp38
 70
     1
102
RTVSPost2010Prop39
140
1.0
102
RTVSPost2010PropOp39
 70
     1
102
RTVSPost2010Prop40
 90
        0
102
RTVSPost2010PropOp40
 70
     1
102
RTVSPost2010Prop41ColorIndex
 90
       18
102
RTVSPost2010Prop41ColorRGB
 90
        0
102
RTVSPost2010PropOp41
 70
     1
102
RTVSPost2010Prop42
 90
       50
102
RTVSPost2010PropOp42
 70
     1
102
RTVSPost2010Prop43
 90
        3
102
RTVSPost2010PropOp43
 70
     1
102
RTVSPost2010Prop44ColorIndex
 90
        5
102
RTVSPost2010Prop44ColorRGB
 90
      255
102
RTVSPost2010PropOp44
 70
     1
102
RTVSPost2010Prop45
280
     0
102
RTVSPost2010PropOp45
 70
     1
102
RTVSPost2010Prop46
 90
       50
102
RTVSPost2010PropOp46
 70
     1
102
RTVSPost2010Prop47
 90
       50
102
RTVSPost2010PropOp47
 70
     1
102
RTVSPost2010Prop48
 90
       50
102
RTVSPost2010PropOp48
 70
     1
102
RTVSPost2010Prop49
280
     0
102
RTVSPost2010PropOp49
 70
     1
102
RTVSPost2010Prop50
 90
       50
102
RTVSPost2010PropOp50
 70
     1
102
RTVSPost2010Prop51ColorIndex
 90
      256
102
RTVSPost2010Prop51ColorRGB
 90
-16777216
102
RTVSPost2010PropOp51
 70
     0
102
RTVSPost2010Prop52
140
1.0
102
RTVSPost2010PropOp52
 70
     0
102
RTVSPost2010Prop53
 90
        2
102
RTVSPost2010PropOp53
 70
     1
102
RTVSPost2010Prop54
  1
strokes_ogs.tif
102
RTVSPost2010PropOp54
 70
     1
102
RTVSPost2010Prop55
280
     0
102
RTVSPost2010PropOp55
 70
     1
102
RTVSPost2010Prop56
140
1.0
102
RTVSPost2010PropOp56
 70
     1
102
RTVSPost2010Prop57
140
1.0
102
RTVSPost2010PropOp57
 70
     1
  0
XRECORD
  5
333
102
{ACAD_REACTORS
330
332
102
}
330
332
100
AcDbXrecord
280
     1
102
RTVSPost2010Prop28
280
     0
102
RTVSPost2010PropOp28
 70
     1
102
RTVSPost2010Prop29
280
     1
102
RTVSPost2010PropOp29
 70
     1
102
RTVSPost2010Prop30
280
     1
102
RTVSPost2010PropOp30
 70
     1
102
RTVSPost2010Prop31
280
     0
102
RTVSPost2010PropOp31
 70
     1
102
RTVSPost2010Prop32
280
     0
102
RTVSPost2010PropOp32
 70
     1
102
RTVSPost2010Prop33
280
     0
102
RTVSPost2010PropOp33
 70
     1
102
RTVSPost2010Prop34
280
     0
102
RTVSPost2010PropOp34
 70
     1
102
RTVSPost2010Prop35
280
     0
102
RTVSPost2010PropOp35
 70
     1
102
RTVSPost2010Prop36
280
     0
102
RTVSPost2010PropOp36
 70
     1
102
RTVSPost2010Prop37
 90
       50
102
RTVSPost2010PropOp37
 70
     1
102
RTVSPost2010Prop38
140
0.0
102
RTVSPost2010PropOp38
 70
     1
102
RTVSPost2010Prop39
140
1.0
102
RTVSPost2010PropOp39
 70
     1
102
RTVSPost2010Prop40
 90
        0
102
RTVSPost2010PropOp40
 70
     1
102
RTVSPost2010Prop41ColorIndex
 90
       18
102
RTVSPost2010Prop41ColorRGB
 90
        0
102
RTVSPost2010PropOp41
 70
     1
102
RTVSPost2010Prop42
 90
       50
102
RTVSPost2010PropOp42
 70
     1
102
RTVSPost2010Prop43
 90
        3
102
RTVSPost2010PropOp43
 70
     1
102
RTVSPost2010Prop44ColorIndex
 90
        5
102
RTVSPost2010Prop44ColorRGB
 90
      255
102
RTVSPost2010PropOp44
 70
     1
102
RTVSPost2010Prop45
280
     0
102
RTVSPost2010PropOp45
 70
     1
102
RTVSPost2010Prop46
 90
       50
102
RTVSPost2010PropOp46
 70
     1
102
RTVSPost2010Prop47
 90
       50
102
RTVSPost2010PropOp47
 70
     1
102
RTVSPost2010Prop48
 90
       50
102
RTVSPost2010PropOp48
 70
     1
102
RTVSPost2010Prop49
280
     0
102
RTVSPost2010PropOp49
 70
     1
102
RTVSPost2010Prop50
 90
       50
102
RTVSPost2010PropOp50
 70
     1
102
RTVSPost2010Prop51ColorIndex
 90
      256
102
RTVSPost2010Prop51ColorRGB
 90
-16777216
102
RTVSPost2010PropOp51
 70
     0
102
RTVSPost2010Prop52
140
1.0
102
RTVSPost2010PropOp52
 70
     0
102
RTVSPost2010Prop53
 90
        2
102
RTVSPost2010PropOp53
 70
     1
102
RTVSPost2010Prop54
  1
strokes_ogs.tif
102
RTVSPost2010PropOp54
 70
     1
102
RTVSPost2010Prop55
280
     0
102
RTVSPost2010PropOp55
 70
     1
102
RTVSPost2010Prop56
140
1.0
102
RTVSPost2010PropOp56
 70
     1
102
RTVSPost2010Prop57
140
1.0
102
RTVSPost2010PropOp57
 70
     1
  0
XRECORD
  5
335
102
{ACAD_REACTORS
330
334
102
}
330
334
100
AcDbXrecord
280
     1
102
RTVSPost2010Prop28
280
     0
102
RTVSPost2010PropOp28
 70
     1
102
RTVSPost2010Prop29
280
     1
102
RTVSPost2010PropOp29
 70
     1
102
RTVSPost2010Prop30
280
     1
102
RTVSPost2010PropOp30
 70
     1
102
RTVSPost2010Prop31
280
     0
102
RTVSPost2010PropOp31
 70
     1
102
RTVSPost2010Prop32
280
     0
102
RTVSPost2010PropOp32
 70
     1
102
RTVSPost2010Prop33
280
     0
102
RTVSPost2010PropOp33
 70
     1
102
RTVSPost2010Prop34
280
     0
102
RTVSPost2010PropOp34
 70
     1
102
RTVSPost2010Prop35
280
     0
102
RTVSPost2010PropOp35
 70
     1
102
RTVSPost2010Prop36
280
     0
102
RTVSPost2010PropOp36
 70
     1
102
RTVSPost2010Prop37
 90
       50
102
RTVSPost2010PropOp37
 70
     1
102
RTVSPost2010Prop38
140
0.0
102
RTVSPost2010PropOp38
 70
     1
102
RTVSPost2010Prop39
140
1.0
102
RTVSPost2010PropOp39
 70
     1
102
RTVSPost2010Prop40
 90
        0
102
RTVSPost2010PropOp40
 70
     1
102
RTVSPost2010Prop41ColorIndex
 90
       18
102
RTVSPost2010Prop41ColorRGB
 90
        0
102
RTVSPost2010PropOp41
 70
     1
102
RTVSPost2010Prop42
 90
       50
102
RTVSPost2010PropOp42
 70
     1
102
RTVSPost2010Prop43
 90
        3
102
RTVSPost2010PropOp43
 70
     1
102
RTVSPost2010Prop44ColorIndex
 90
        5
102
RTVSPost2010Prop44ColorRGB
 90
      255
102
RTVSPost2010PropOp44
 70
     1
102
RTVSPost2010Prop45
280
     0
102
RTVSPost2010PropOp45
 70
     1
102
RTVSPost2010Prop46
 90
       50
102
RTVSPost2010PropOp46
 70
     1
102
RTVSPost2010Prop47
 90
       50
102
RTVSPost2010PropOp47
 70
     1
102
RTVSPost2010Prop48
 90
       50
102
RTVSPost2010PropOp48
 70
     1
102
RTVSPost2010Prop49
280
     0
102
RTVSPost2010PropOp49
 70
     1
102
RTVSPost2010Prop50
 90
       50
102
RTVSPost2010PropOp50
 70
     1
102
RTVSPost2010Prop51ColorIndex
 90
      256
102
RTVSPost2010Prop51ColorRGB
 90
-16777216
102
RTVSPost2010PropOp51
 70
     0
102
RTVSPost2010Prop52
140
1.0
102
RTVSPost2010PropOp52
 70
     0
102
RTVSPost2010Prop53
 90
        2
102
RTVSPost2010PropOp53
 70
     1
102
RTVSPost2010Prop54
  1
strokes_ogs.tif
102
RTVSPost2010PropOp54
 70
     1
102
RTVSPost2010Prop55
280
     0
102
RTVSPost2010PropOp55
 70
     1
102
RTVSPost2010Prop56
140
1.0
102
RTVSPost2010PropOp56
 70
     1
102
RTVSPost2010Prop57
140
1.0
102
RTVSPost2010PropOp57
 70
     1
  0
XRECORD
  5
353
102
{ACAD_REACTORS
330
352
102
}
330
352
100
AcDbXrecord
280
     1
102
RTVSPost2010Prop28
280
     0
102
RTVSPost2010PropOp28
 70
     0
102
RTVSPost2010Prop29
280
     1
102
RTVSPost2010PropOp29
 70
     0
102
RTVSPost2010Prop30
280
     1
102
RTVSPost2010PropOp30
 70
     0
102
RTVSPost2010Prop31
280
     0
102
RTVSPost2010PropOp31
 70
     0
102
RTVSPost2010Prop32
280
     0
102
RTVSPost2010PropOp32
 70
     0
102
RTVSPost2010Prop33
280
     0
102
RTVSPost2010PropOp33
 70
     0
102
RTVSPost2010Prop34
280
     0
102
RTVSPost2010PropOp34
 70
     0
102
RTVSPost2010Prop35
280
     0
102
RTVSPost2010PropOp35
 70
     0
102
RTVSPost2010Prop36
280
     0
102
RTVSPost2010PropOp36
 70
     0
102
RTVSPost2010Prop37
 90
       50
102
RTVSPost2010PropOp37
 70
     0
102
RTVSPost2010Prop38
140
0.0
102
RTVSPost2010PropOp38
 70
     0
102
RTVSPost2010Prop39
140
1.0
102
RTVSPost2010PropOp39
 70
     0
102
RTVSPost2010Prop40
 90
        0
102
RTVSPost2010PropOp40
 70
     0
102
RTVSPost2010Prop41ColorIndex
 90
       18
102
RTVSPost2010Prop41ColorRGB
 90
        0
102
RTVSPost2010PropOp41
 70
     0
102
RTVSPost2010Prop42
 90
       50
102
RTVSPost2010PropOp42
 70
     0
102
RTVSPost2010Prop43
 90
        3
102
RTVSPost2010PropOp43
 70
     0
102
RTVSPost2010Prop44ColorIndex
 90
        5
102
RTVSPost2010Prop44ColorRGB
 90
      255
102
RTVSPost2010PropOp44
 70
     0
102
RTVSPost2010Prop45
280
     0
102
RTVSPost2010PropOp45
 70
     0
102
RTVSPost2010Prop46
 90
       50
102
RTVSPost2010PropOp46
 70
     0
102
RTVSPost2010Prop47
 90
       50
102
RTVSPost2010PropOp47
 70
     0
102
RTVSPost2010Prop48
 90
       50
102
RTVSPost2010PropOp48
 70
     0
102
RTVSPost2010Prop49
280
     0
102
RTVSPost2010PropOp49
 70
     0
102
RTVSPost2010Prop50
 90
       50
102
RTVSPost2010PropOp50
 70
     0
102
RTVSPost2010Prop51ColorIndex
 90
      256
102
RTVSPost2010Prop51ColorRGB
 90
-16777216
102
RTVSPost2010PropOp51
 70
     0
102
RTVSPost2010Prop52
140
1.0
102
RTVSPost2010PropOp52
 70
     0
102
RTVSPost2010Prop53
 90
        2
102
RTVSPost2010PropOp53
 70
     0
102
RTVSPost2010Prop54
  1
strokes_ogs.tif
102
RTVSPost2010PropOp54
 70
     0
102
RTVSPost2010Prop55
280
     0
102
RTVSPost2010PropOp55
 70
     0
102
RTVSPost2010Prop56
140
1.0
102
RTVSPost2010PropOp56
 70
     0
102
RTVSPost2010Prop57
140
1.0
102
RTVSPost2010PropOp57
 70
     0
  0
XRECORD
  5
33D
102
{ACAD_REACTORS
330
33C
102
}
330
33C
100
AcDbXrecord
280
     1
102
RTVSPost2010Prop28
280
     0
102
RTVSPost2010PropOp28
 70
     1
102
RTVSPost2010Prop29
280
     1
102
RTVSPost2010PropOp29
 70
     1
102
RTVSPost2010Prop30
280
     1
102
RTVSPost2010PropOp30
 70
     1
102
RTVSPost2010Prop31
280
     0
102
RTVSPost2010PropOp31
 70
     1
102
RTVSPost2010Prop32
280
     0
102
RTVSPost2010PropOp32
 70
     1
102
RTVSPost2010Prop33
280
     0
102
RTVSPost2010PropOp33
 70
     1
102
RTVSPost2010Prop34
280
     0
102
RTVSPost2010PropOp34
 70
     1
102
RTVSPost2010Prop35
280
     0
102
RTVSPost2010PropOp35
 70
     1
102
RTVSPost2010Prop36
280
     0
102
RTVSPost2010PropOp36
 70
     1
102
RTVSPost2010Prop37
 90
       50
102
RTVSPost2010PropOp37
 70
     1
102
RTVSPost2010Prop38
140
0.0
102
RTVSPost2010PropOp38
 70
     1
102
RTVSPost2010Prop39
140
1.0
102
RTVSPost2010PropOp39
 70
     1
102
RTVSPost2010Prop40
 90
        0
102
RTVSPost2010PropOp40
 70
     1
102
RTVSPost2010Prop41ColorIndex
 90
       18
102
RTVSPost2010Prop41ColorRGB
 90
        0
102
RTVSPost2010PropOp41
 70
     1
102
RTVSPost2010Prop42
 90
       50
102
RTVSPost2010PropOp42
 70
     1
102
RTVSPost2010Prop43
 90
        3
102
RTVSPost2010PropOp43
 70
     1
102
RTVSPost2010Prop44ColorIndex
 90
        5
102
RTVSPost2010Prop44ColorRGB
 90
      255
102
RTVSPost2010PropOp44
 70
     1
102
RTVSPost2010Prop45
280
     0
102
RTVSPost2010PropOp45
 70
     1
102
RTVSPost2010Prop46
 90
       50
102
RTVSPost2010PropOp46
 70
     1
102
RTVSPost2010Prop47
 90
       50
102
RTVSPost2010PropOp47
 70
     1
102
RTVSPost2010Prop48
 90
       50
102
RTVSPost2010PropOp48
 70
     1
102
RTVSPost2010Prop49
280
     0
102
RTVSPost2010PropOp49
 70
     1
102
RTVSPost2010Prop50
 90
       50
102
RTVSPost2010PropOp50
 70
     1
102
RTVSPost2010Prop51ColorIndex
 90
      256
102
RTVSPost2010Prop51ColorRGB
 90
-16777216
102
RTVSPost2010PropOp51
 70
     0
102
RTVSPost2010Prop52
140
1.0
102
RTVSPost2010PropOp52
 70
     0
102
RTVSPost2010Prop53
 90
        2
102
RTVSPost2010PropOp53
 70
     1
102
RTVSPost2010Prop54
  1
strokes_ogs.tif
102
RTVSPost2010PropOp54
 70
     1
102
RTVSPost2010Prop55
280
     0
102
RTVSPost2010PropOp55
 70
     1
102
RTVSPost2010Prop56
140
1.0
102
RTVSPost2010PropOp56
 70
     1
102
RTVSPost2010Prop57
140
1.0
102
RTVSPost2010PropOp57
 70
     1
  0
XRECORD
  5
321
102
{ACAD_REACTORS
330
320
102
}
330
320
100
AcDbXrecord
280
     1
102
RTVSPost2010Prop28
280
     0
102
RTVSPost2010PropOp28
 70
     1
102
RTVSPost2010Prop29
280
     1
102
RTVSPost2010PropOp29
 70
     1
102
RTVSPost2010Prop30
280
     1
102
RTVSPost2010PropOp30
 70
     1
102
RTVSPost2010Prop31
280
     0
102
RTVSPost2010PropOp31
 70
     1
102
RTVSPost2010Prop32
280
     0
102
RTVSPost2010PropOp32
 70
     1
102
RTVSPost2010Prop33
280
     0
102
RTVSPost2010PropOp33
 70
     1
102
RTVSPost2010Prop34
280
     0
102
RTVSPost2010PropOp34
 70
     1
102
RTVSPost2010Prop35
280
     0
102
RTVSPost2010PropOp35
 70
     1
102
RTVSPost2010Prop36
280
     0
102
RTVSPost2010PropOp36
 70
     1
102
RTVSPost2010Prop37
 90
       50
102
RTVSPost2010PropOp37
 70
     1
102
RTVSPost2010Prop38
140
0.0
102
RTVSPost2010PropOp38
 70
     1
102
RTVSPost2010Prop39
140
1.0
102
RTVSPost2010PropOp39
 70
     1
102
RTVSPost2010Prop40
 90
        0
102
RTVSPost2010PropOp40
 70
     1
102
RTVSPost2010Prop41ColorIndex
 90
       18
102
RTVSPost2010Prop41ColorRGB
 90
        0
102
RTVSPost2010PropOp41
 70
     1
102
RTVSPost2010Prop42
 90
       50
102
RTVSPost2010PropOp42
 70
     1
102
RTVSPost2010Prop43
 90
        3
102
RTVSPost2010PropOp43
 70
     1
102
RTVSPost2010Prop44ColorIndex
 90
        5
102
RTVSPost2010Prop44ColorRGB
 90
      255
102
RTVSPost2010PropOp44
 70
     1
102
RTVSPost2010Prop45
280
     0
102
RTVSPost2010PropOp45
 70
     1
102
RTVSPost2010Prop46
 90
       50
102
RTVSPost2010PropOp46
 70
     1
102
RTVSPost2010Prop47
 90
       50
102
RTVSPost2010PropOp47
 70
     1
102
RTVSPost2010Prop48
 90
       50
102
RTVSPost2010PropOp48
 70
     1
102
RTVSPost2010Prop49
280
     0
102
RTVSPost2010PropOp49
 70
     1
102
RTVSPost2010Prop50
 90
       50
102
RTVSPost2010PropOp50
 70
     1
102
RTVSPost2010Prop51ColorIndex
 90
      256
102
RTVSPost2010Prop51ColorRGB
 90
-16777216
102
RTVSPost2010PropOp51
 70
     0
102
RTVSPost2010Prop52
140
1.0
102
RTVSPost2010PropOp52
 70
     0
102
RTVSPost2010Prop53
 90
        2
102
RTVSPost2010PropOp53
 70
     1
102
RTVSPost2010Prop54
  1
strokes_ogs.tif
102
RTVSPost2010PropOp54
 70
     1
102
RTVSPost2010Prop55
280
     0
102
RTVSPost2010PropOp55
 70
     1
102
RTVSPost2010Prop56
140
1.0
102
RTVSPost2010PropOp56
 70
     1
102
RTVSPost2010Prop57
140
1.0
102
RTVSPost2010PropOp57
 70
     1
  0
XRECORD
  5
323
102
{ACAD_REACTORS
330
322
102
}
330
322
100
AcDbXrecord
280
     1
102
RTVSPost2010Prop28
280
     0
102
RTVSPost2010PropOp28
 70
     1
102
RTVSPost2010Prop29
280
     1
102
RTVSPost2010PropOp29
 70
     1
102
RTVSPost2010Prop30
280
     1
102
RTVSPost2010PropOp30
 70
     1
102
RTVSPost2010Prop31
280
     0
102
RTVSPost2010PropOp31
 70
     1
102
RTVSPost2010Prop32
280
     0
102
RTVSPost2010PropOp32
 70
     1
102
RTVSPost2010Prop33
280
     0
102
RTVSPost2010PropOp33
 70
     1
102
RTVSPost2010Prop34
280
     0
102
RTVSPost2010PropOp34
 70
     1
102
RTVSPost2010Prop35
280
     0
102
RTVSPost2010PropOp35
 70
     1
102
RTVSPost2010Prop36
280
     0
102
RTVSPost2010PropOp36
 70
     1
102
RTVSPost2010Prop37
 90
       50
102
RTVSPost2010PropOp37
 70
     1
102
RTVSPost2010Prop38
140
0.0
102
RTVSPost2010PropOp38
 70
     1
102
RTVSPost2010Prop39
140
1.0
102
RTVSPost2010PropOp39
 70
     1
102
RTVSPost2010Prop40
 90
        0
102
RTVSPost2010PropOp40
 70
     1
102
RTVSPost2010Prop41ColorIndex
 90
       18
102
RTVSPost2010Prop41ColorRGB
 90
        0
102
RTVSPost2010PropOp41
 70
     1
102
RTVSPost2010Prop42
 90
       50
102
RTVSPost2010PropOp42
 70
     1
102
RTVSPost2010Prop43
 90
        3
102
RTVSPost2010PropOp43
 70
     1
102
RTVSPost2010Prop44ColorIndex
 90
        5
102
RTVSPost2010Prop44ColorRGB
 90
      255
102
RTVSPost2010PropOp44
 70
     1
102
RTVSPost2010Prop45
280
     0
102
RTVSPost2010PropOp45
 70
     1
102
RTVSPost2010Prop46
 90
       50
102
RTVSPost2010PropOp46
 70
     1
102
RTVSPost2010Prop47
 90
       50
102
RTVSPost2010PropOp47
 70
     1
102
RTVSPost2010Prop48
 90
       50
102
RTVSPost2010PropOp48
 70
     1
102
RTVSPost2010Prop49
280
     0
102
RTVSPost2010PropOp49
 70
     1
102
RTVSPost2010Prop50
 90
       50
102
RTVSPost2010PropOp50
 70
     1
102
RTVSPost2010Prop51ColorIndex
 90
      256
102
RTVSPost2010Prop51ColorRGB
 90
-16777216
102
RTVSPost2010PropOp51
 70
     0
102
RTVSPost2010Prop52
140
1.0
102
RTVSPost2010PropOp52
 70
     0
102
RTVSPost2010Prop53
 90
        2
102
RTVSPost2010PropOp53
 70
     1
102
RTVSPost2010Prop54
  1
strokes_ogs.tif
102
RTVSPost2010PropOp54
 70
     1
102
RTVSPost2010Prop55
280
     0
102
RTVSPost2010PropOp55
 70
     1
102
RTVSPost2010Prop56
140
1.0
102
RTVSPost2010PropOp56
 70
     1
102
RTVSPost2010Prop57
140
1.0
102
RTVSPost2010PropOp57
 70
     1
  0
XRECORD
  5
325
102
{ACAD_REACTORS
330
324
102
}
330
324
100
AcDbXrecord
280
     1
102
RTVSPost2010Prop28
280
     0
102
RTVSPost2010PropOp28
 70
     1
102
RTVSPost2010Prop29
280
     1
102
RTVSPost2010PropOp29
 70
     1
102
RTVSPost2010Prop30
280
     1
102
RTVSPost2010PropOp30
 70
     1
102
RTVSPost2010Prop31
280
     0
102
RTVSPost2010PropOp31
 70
     1
102
RTVSPost2010Prop32
280
     0
102
RTVSPost2010PropOp32
 70
     1
102
RTVSPost2010Prop33
280
     0
102
RTVSPost2010PropOp33
 70
     1
102
RTVSPost2010Prop34
280
     0
102
RTVSPost2010PropOp34
 70
     1
102
RTVSPost2010Prop35
280
     0
102
RTVSPost2010PropOp35
 70
     1
102
RTVSPost2010Prop36
280
     0
102
RTVSPost2010PropOp36
 70
     1
102
RTVSPost2010Prop37
 90
       50
102
RTVSPost2010PropOp37
 70
     1
102
RTVSPost2010Prop38
140
0.0
102
RTVSPost2010PropOp38
 70
     1
102
RTVSPost2010Prop39
140
1.0
102
RTVSPost2010PropOp39
 70
     1
102
RTVSPost2010Prop40
 90
        0
102
RTVSPost2010PropOp40
 70
     1
102
RTVSPost2010Prop41ColorIndex
 90
       18
102
RTVSPost2010Prop41ColorRGB
 90
        0
102
RTVSPost2010PropOp41
 70
     1
102
RTVSPost2010Prop42
 90
       50
102
RTVSPost2010PropOp42
 70
     1
102
RTVSPost2010Prop43
 90
        3
102
RTVSPost2010PropOp43
 70
     1
102
RTVSPost2010Prop44ColorIndex
 90
        5
102
RTVSPost2010Prop44ColorRGB
 90
      255
102
RTVSPost2010PropOp44
 70
     1
102
RTVSPost2010Prop45
280
     0
102
RTVSPost2010PropOp45
 70
     1
102
RTVSPost2010Prop46
 90
       50
102
RTVSPost2010PropOp46
 70
     1
102
RTVSPost2010Prop47
 90
       50
102
RTVSPost2010PropOp47
 70
     1
102
RTVSPost2010Prop48
 90
       50
102
RTVSPost2010PropOp48
 70
     1
102
RTVSPost2010Prop49
280
     0
102
RTVSPost2010PropOp49
 70
     1
102
RTVSPost2010Prop50
 90
       50
102
RTVSPost2010PropOp50
 70
     1
102
RTVSPost2010Prop51ColorIndex
 90
      256
102
RTVSPost2010Prop51ColorRGB
 90
-16777216
102
RTVSPost2010PropOp51
 70
     0
102
RTVSPost2010Prop52
140
1.0
102
RTVSPost2010PropOp52
 70
     0
102
RTVSPost2010Prop53
 90
        2
102
RTVSPost2010PropOp53
 70
     1
102
RTVSPost2010Prop54
  1
strokes_ogs.tif
102
RTVSPost2010PropOp54
 70
     1
102
RTVSPost2010Prop55
280
     0
102
RTVSPost2010PropOp55
 70
     1
102
RTVSPost2010Prop56
140
1.0
102
RTVSPost2010PropOp56
 70
     1
102
RTVSPost2010Prop57
140
1.0
102
RTVSPost2010PropOp57
 70
     1
  0
XRECORD
  5
327
102
{ACAD_REACTORS
330
326
102
}
330
326
100
AcDbXrecord
280
     1
102
RTVSPost2010Prop28
280
     0
102
RTVSPost2010PropOp28
 70
     1
102
RTVSPost2010Prop29
280
     1
102
RTVSPost2010PropOp29
 70
     1
102
RTVSPost2010Prop30
280
     1
102
RTVSPost2010PropOp30
 70
     1
102
RTVSPost2010Prop31
280
     0
102
RTVSPost2010PropOp31
 70
     1
102
RTVSPost2010Prop32
280
     0
102
RTVSPost2010PropOp32
 70
     1
102
RTVSPost2010Prop33
280
     0
102
RTVSPost2010PropOp33
 70
     1
102
RTVSPost2010Prop34
280
     0
102
RTVSPost2010PropOp34
 70
     1
102
RTVSPost2010Prop35
280
     0
102
RTVSPost2010PropOp35
 70
     1
102
RTVSPost2010Prop36
280
     0
102
RTVSPost2010PropOp36
 70
     1
102
RTVSPost2010Prop37
 90
       50
102
RTVSPost2010PropOp37
 70
     1
102
RTVSPost2010Prop38
140
0.0
102
RTVSPost2010PropOp38
 70
     1
102
RTVSPost2010Prop39
140
1.0
102
RTVSPost2010PropOp39
 70
     1
102
RTVSPost2010Prop40
 90
        0
102
RTVSPost2010PropOp40
 70
     1
102
RTVSPost2010Prop41ColorIndex
 90
       18
102
RTVSPost2010Prop41ColorRGB
 90
        0
102
RTVSPost2010PropOp41
 70
     1
102
RTVSPost2010Prop42
 90
       50
102
RTVSPost2010PropOp42
 70
     1
102
RTVSPost2010Prop43
 90
        3
102
RTVSPost2010PropOp43
 70
     1
102
RTVSPost2010Prop44ColorIndex
 90
        5
102
RTVSPost2010Prop44ColorRGB
 90
      255
102
RTVSPost2010PropOp44
 70
     1
102
RTVSPost2010Prop45
280
     0
102
RTVSPost2010PropOp45
 70
     1
102
RTVSPost2010Prop46
 90
       50
102
RTVSPost2010PropOp46
 70
     1
102
RTVSPost2010Prop47
 90
       50
102
RTVSPost2010PropOp47
 70
     1
102
RTVSPost2010Prop48
 90
       50
102
RTVSPost2010PropOp48
 70
     1
102
RTVSPost2010Prop49
280
     0
102
RTVSPost2010PropOp49
 70
     1
102
RTVSPost2010Prop50
 90
       50
102
RTVSPost2010PropOp50
 70
     1
102
RTVSPost2010Prop51ColorIndex
 90
      256
102
RTVSPost2010Prop51ColorRGB
 90
-16777216
102
RTVSPost2010PropOp51
 70
     0
102
RTVSPost2010Prop52
140
1.0
102
RTVSPost2010PropOp52
 70
     0
102
RTVSPost2010Prop53
 90
        2
102
RTVSPost2010PropOp53
 70
     1
102
RTVSPost2010Prop54
  1
strokes_ogs.tif
102
RTVSPost2010PropOp54
 70
     1
102
RTVSPost2010Prop55
280
     0
102
RTVSPost2010PropOp55
 70
     1
102
RTVSPost2010Prop56
140
1.0
102
RTVSPost2010PropOp56
 70
     1
102
RTVSPost2010Prop57
140
1.0
102
RTVSPost2010PropOp57
 70
     1
  0
XRECORD
  5
343
102
{ACAD_REACTORS
330
342
102
}
330
342
100
AcDbXrecord
280
     1
102
RTVSPost2010Prop28
280
     0
102
RTVSPost2010PropOp28
 70
     1
102
RTVSPost2010Prop29
280
     1
102
RTVSPost2010PropOp29
 70
     1
102
RTVSPost2010Prop30
280
     1
102
RTVSPost2010PropOp30
 70
     1
102
RTVSPost2010Prop31
280
     0
102
RTVSPost2010PropOp31
 70
     1
102
RTVSPost2010Prop32
280
     0
102
RTVSPost2010PropOp32
 70
     1
102
RTVSPost2010Prop33
280
     0
102
RTVSPost2010PropOp33
 70
     1
102
RTVSPost2010Prop34
280
     0
102
RTVSPost2010PropOp34
 70
     1
102
RTVSPost2010Prop35
280
     0
102
RTVSPost2010PropOp35
 70
     1
102
RTVSPost2010Prop36
280
     0
102
RTVSPost2010PropOp36
 70
     1
102
RTVSPost2010Prop37
 90
       50
102
RTVSPost2010PropOp37
 70
     1
102
RTVSPost2010Prop38
140
0.0
102
RTVSPost2010PropOp38
 70
     1
102
RTVSPost2010Prop39
140
1.0
102
RTVSPost2010PropOp39
 70
     1
102
RTVSPost2010Prop40
 90
        0
102
RTVSPost2010PropOp40
 70
     1
102
RTVSPost2010Prop41ColorIndex
 90
       18
102
RTVSPost2010Prop41ColorRGB
 90
        0
102
RTVSPost2010PropOp41
 70
     1
102
RTVSPost2010Prop42
 90
       50
102
RTVSPost2010PropOp42
 70
     1
102
RTVSPost2010Prop43
 90
        3
102
RTVSPost2010PropOp43
 70
     1
102
RTVSPost2010Prop44ColorIndex
 90
        5
102
RTVSPost2010Prop44ColorRGB
 90
      255
102
RTVSPost2010PropOp44
 70
     1
102
RTVSPost2010Prop45
280
     0
102
RTVSPost2010PropOp45
 70
     1
102
RTVSPost2010Prop46
 90
       50
102
RTVSPost2010PropOp46
 70
     1
102
RTVSPost2010Prop47
 90
       50
102
RTVSPost2010PropOp47
 70
     1
102
RTVSPost2010Prop48
 90
       50
102
RTVSPost2010PropOp48
 70
     1
102
RTVSPost2010Prop49
280
     0
102
RTVSPost2010PropOp49
 70
     1
102
RTVSPost2010Prop50
 90
       50
102
RTVSPost2010PropOp50
 70
     1
102
RTVSPost2010Prop51ColorIndex
 90
      256
102
RTVSPost2010Prop51ColorRGB
 90
-16777216
102
RTVSPost2010PropOp51
 70
     0
102
RTVSPost2010Prop52
140
1.0
102
RTVSPost2010PropOp52
 70
     0
102
RTVSPost2010Prop53
 90
        2
102
RTVSPost2010PropOp53
 70
     1
102
RTVSPost2010Prop54
  1
strokes_ogs.tif
102
RTVSPost2010PropOp54
 70
     1
102
RTVSPost2010Prop55
280
     0
102
RTVSPost2010PropOp55
 70
     1
102
RTVSPost2010Prop56
140
1.0
102
RTVSPost2010PropOp56
 70
     1
102
RTVSPost2010Prop57
140
1.0
102
RTVSPost2010PropOp57
 70
     1
  0
XRECORD
  5
34F
102
{ACAD_REACTORS
330
34E
102
}
330
34E
100
AcDbXrecord
280
     1
102
RTVSPost2010Prop28
280
     0
102
RTVSPost2010PropOp28
 70
     0
102
RTVSPost2010Prop29
280
     1
102
RTVSPost2010PropOp29
 70
     0
102
RTVSPost2010Prop30
280
     1
102
RTVSPost2010PropOp30
 70
     0
102
RTVSPost2010Prop31
280
     0
102
RTVSPost2010PropOp31
 70
     0
102
RTVSPost2010Prop32
280
     0
102
RTVSPost2010PropOp32
 70
     0
102
RTVSPost2010Prop33
280
     0
102
RTVSPost2010PropOp33
 70
     0
102
RTVSPost2010Prop34
280
     0
102
RTVSPost2010PropOp34
 70
     0
102
RTVSPost2010Prop35
280
     0
102
RTVSPost2010PropOp35
 70
     0
102
RTVSPost2010Prop36
280
     0
102
RTVSPost2010PropOp36
 70
     0
102
RTVSPost2010Prop37
 90
       50
102
RTVSPost2010PropOp37
 70
     0
102
RTVSPost2010Prop38
140
0.0
102
RTVSPost2010PropOp38
 70
     0
102
RTVSPost2010Prop39
140
1.0
102
RTVSPost2010PropOp39
 70
     0
102
RTVSPost2010Prop40
 90
        0
102
RTVSPost2010PropOp40
 70
     0
102
RTVSPost2010Prop41ColorIndex
 90
       18
102
RTVSPost2010Prop41ColorRGB
 90
        0
102
RTVSPost2010PropOp41
 70
     0
102
RTVSPost2010Prop42
 90
       50
102
RTVSPost2010PropOp42
 70
     0
102
RTVSPost2010Prop43
 90
        3
102
RTVSPost2010PropOp43
 70
     0
102
RTVSPost2010Prop44ColorIndex
 90
        5
102
RTVSPost2010Prop44ColorRGB
 90
      255
102
RTVSPost2010PropOp44
 70
     0
102
RTVSPost2010Prop45
280
     0
102
RTVSPost2010PropOp45
 70
     0
102
RTVSPost2010Prop46
 90
       50
102
RTVSPost2010PropOp46
 70
     0
102
RTVSPost2010Prop47
 90
       50
102
RTVSPost2010PropOp47
 70
     0
102
RTVSPost2010Prop48
 90
       50
102
RTVSPost2010PropOp48
 70
     0
102
RTVSPost2010Prop49
280
     0
102
RTVSPost2010PropOp49
 70
     0
102
RTVSPost2010Prop50
 90
       50
102
RTVSPost2010PropOp50
 70
     0
102
RTVSPost2010Prop51ColorIndex
 90
      256
102
RTVSPost2010Prop51ColorRGB
 90
-16777216
102
RTVSPost2010PropOp51
 70
     0
102
RTVSPost2010Prop52
140
1.0
102
RTVSPost2010PropOp52
 70
     0
102
RTVSPost2010Prop53
 90
        2
102
RTVSPost2010PropOp53
 70
     0
102
RTVSPost2010Prop54
  1
strokes_ogs.tif
102
RTVSPost2010PropOp54
 70
     0
102
RTVSPost2010Prop55
280
     0
102
RTVSPost2010PropOp55
 70
     0
102
RTVSPost2010Prop56
140
1.0
102
RTVSPost2010PropOp56
 70
     0
102
RTVSPost2010Prop57
140
1.0
102
RTVSPost2010PropOp57
 70
     0
  0
XRECORD
  5
33B
102
{ACAD_REACTORS
330
33A
102
}
330
33A
100
AcDbXrecord
280
     1
102
RTVSPost2010Prop28
280
     0
102
RTVSPost2010PropOp28
 70
     1
102
RTVSPost2010Prop29
280
     1
102
RTVSPost2010PropOp29
 70
     1
102
RTVSPost2010Prop30
280
     1
102
RTVSPost2010PropOp30
 70
     1
102
RTVSPost2010Prop31
280
     0
102
RTVSPost2010PropOp31
 70
     1
102
RTVSPost2010Prop32
280
     0
102
RTVSPost2010PropOp32
 70
     1
102
RTVSPost2010Prop33
280
     0
102
RTVSPost2010PropOp33
 70
     1
102
RTVSPost2010Prop34
280
     0
102
RTVSPost2010PropOp34
 70
     1
102
RTVSPost2010Prop35
280
     0
102
RTVSPost2010PropOp35
 70
     1
102
RTVSPost2010Prop36
280
     0
102
RTVSPost2010PropOp36
 70
     1
102
RTVSPost2010Prop37
 90
       50
102
RTVSPost2010PropOp37
 70
     1
102
RTVSPost2010Prop38
140
0.0
102
RTVSPost2010PropOp38
 70
     1
102
RTVSPost2010Prop39
140
1.0
102
RTVSPost2010PropOp39
 70
     1
102
RTVSPost2010Prop40
 90
        0
102
RTVSPost2010PropOp40
 70
     1
102
RTVSPost2010Prop41ColorIndex
 90
       18
102
RTVSPost2010Prop41ColorRGB
 90
        0
102
RTVSPost2010PropOp41
 70
     1
102
RTVSPost2010Prop42
 90
       50
102
RTVSPost2010PropOp42
 70
     1
102
RTVSPost2010Prop43
 90
        3
102
RTVSPost2010PropOp43
 70
     1
102
RTVSPost2010Prop44ColorIndex
 90
        5
102
RTVSPost2010Prop44ColorRGB
 90
      255
102
RTVSPost2010PropOp44
 70
     1
102
RTVSPost2010Prop45
280
     0
102
RTVSPost2010PropOp45
 70
     1
102
RTVSPost2010Prop46
 90
       50
102
RTVSPost2010PropOp46
 70
     1
102
RTVSPost2010Prop47
 90
       50
102
RTVSPost2010PropOp47
 70
     1
102
RTVSPost2010Prop48
 90
       50
102
RTVSPost2010PropOp48
 70
     1
102
RTVSPost2010Prop49
280
     0
102
RTVSPost2010PropOp49
 70
     1
102
RTVSPost2010Prop50
 90
       50
102
RTVSPost2010PropOp50
 70
     1
102
RTVSPost2010Prop51ColorIndex
 90
      256
102
RTVSPost2010Prop51ColorRGB
 90
-16777216
102
RTVSPost2010PropOp51
 70
     0
102
RTVSPost2010Prop52
140
1.0
102
RTVSPost2010PropOp52
 70
     0
102
RTVSPost2010Prop53
 90
        2
102
RTVSPost2010PropOp53
 70
     1
102
RTVSPost2010Prop54
  1
strokes_ogs.tif
102
RTVSPost2010PropOp54
 70
     1
102
RTVSPost2010Prop55
280
     0
102
RTVSPost2010PropOp55
 70
     1
102
RTVSPost2010Prop56
140
1.0
102
RTVSPost2010PropOp56
 70
     1
102
RTVSPost2010Prop57
140
1.0
102
RTVSPost2010PropOp57
 70
     1
  0
XRECORD
  5
351
102
{ACAD_REACTORS
330
350
102
}
330
350
100
AcDbXrecord
280
     1
102
RTVSPost2010Prop28
280
     0
102
RTVSPost2010PropOp28
 70
     0
102
RTVSPost2010Prop29
280
     1
102
RTVSPost2010PropOp29
 70
     0
102
RTVSPost2010Prop30
280
     1
102
RTVSPost2010PropOp30
 70
     0
102
RTVSPost2010Prop31
280
     0
102
RTVSPost2010PropOp31
 70
     0
102
RTVSPost2010Prop32
280
     0
102
RTVSPost2010PropOp32
 70
     0
102
RTVSPost2010Prop33
280
     0
102
RTVSPost2010PropOp33
 70
     0
102
RTVSPost2010Prop34
280
     0
102
RTVSPost2010PropOp34
 70
     0
102
RTVSPost2010Prop35
280
     0
102
RTVSPost2010PropOp35
 70
     0
102
RTVSPost2010Prop36
280
     0
102
RTVSPost2010PropOp36
 70
     0
102
RTVSPost2010Prop37
 90
       50
102
RTVSPost2010PropOp37
 70
     0
102
RTVSPost2010Prop38
140
0.0
102
RTVSPost2010PropOp38
 70
     0
102
RTVSPost2010Prop39
140
1.0
102
RTVSPost2010PropOp39
 70
     0
102
RTVSPost2010Prop40
 90
        0
102
RTVSPost2010PropOp40
 70
     0
102
RTVSPost2010Prop41ColorIndex
 90
       18
102
RTVSPost2010Prop41ColorRGB
 90
        0
102
RTVSPost2010PropOp41
 70
     0
102
RTVSPost2010Prop42
 90
       50
102
RTVSPost2010PropOp42
 70
     0
102
RTVSPost2010Prop43
 90
        3
102
RTVSPost2010PropOp43
 70
     0
102
RTVSPost2010Prop44ColorIndex
 90
        5
102
RTVSPost2010Prop44ColorRGB
 90
      255
102
RTVSPost2010PropOp44
 70
     0
102
RTVSPost2010Prop45
280
     0
102
RTVSPost2010PropOp45
 70
     0
102
RTVSPost2010Prop46
 90
       50
102
RTVSPost2010PropOp46
 70
     0
102
RTVSPost2010Prop47
 90
       50
102
RTVSPost2010PropOp47
 70
     0
102
RTVSPost2010Prop48
 90
       50
102
RTVSPost2010PropOp48
 70
     0
102
RTVSPost2010Prop49
280
     0
102
RTVSPost2010PropOp49
 70
     0
102
RTVSPost2010Prop50
 90
       50
102
RTVSPost2010PropOp50
 70
     0
102
RTVSPost2010Prop51ColorIndex
 90
      256
102
RTVSPost2010Prop51ColorRGB
 90
-16777216
102
RTVSPost2010PropOp51
 70
     0
102
RTVSPost2010Prop52
140
1.0
102
RTVSPost2010PropOp52
 70
     0
102
RTVSPost2010Prop53
 90
        2
102
RTVSPost2010PropOp53
 70
     0
102
RTVSPost2010Prop54
  1
strokes_ogs.tif
102
RTVSPost2010PropOp54
 70
     0
102
RTVSPost2010Prop55
280
     0
102
RTVSPost2010PropOp55
 70
     0
102
RTVSPost2010Prop56
140
1.0
102
RTVSPost2010PropOp56
 70
     0
102
RTVSPost2010Prop57
140
1.0
102
RTVSPost2010PropOp57
 70
     0
  0
XRECORD
  5
331
102
{ACAD_REACTORS
330
330
102
}
330
330
100
AcDbXrecord
280
     1
102
RTVSPost2010Prop28
280
     0
102
RTVSPost2010PropOp28
 70
     1
102
RTVSPost2010Prop29
280
     1
102
RTVSPost2010PropOp29
 70
     1
102
RTVSPost2010Prop30
280
     1
102
RTVSPost2010PropOp30
 70
     1
102
RTVSPost2010Prop31
280
     0
102
RTVSPost2010PropOp31
 70
     1
102
RTVSPost2010Prop32
280
     0
102
RTVSPost2010PropOp32
 70
     1
102
RTVSPost2010Prop33
280
     0
102
RTVSPost2010PropOp33
 70
     1
102
RTVSPost2010Prop34
280
     0
102
RTVSPost2010PropOp34
 70
     1
102
RTVSPost2010Prop35
280
     0
102
RTVSPost2010PropOp35
 70
     1
102
RTVSPost2010Prop36
280
     0
102
RTVSPost2010PropOp36
 70
     1
102
RTVSPost2010Prop37
 90
       50
102
RTVSPost2010PropOp37
 70
     1
102
RTVSPost2010Prop38
140
0.0
102
RTVSPost2010PropOp38
 70
     1
102
RTVSPost2010Prop39
140
1.0
102
RTVSPost2010PropOp39
 70
     1
102
RTVSPost2010Prop40
 90
        0
102
RTVSPost2010PropOp40
 70
     1
102
RTVSPost2010Prop41ColorIndex
 90
       18
102
RTVSPost2010Prop41ColorRGB
 90
        0
102
RTVSPost2010PropOp41
 70
     1
102
RTVSPost2010Prop42
 90
       50
102
RTVSPost2010PropOp42
 70
     1
102
RTVSPost2010Prop43
 90
        3
102
RTVSPost2010PropOp43
 70
     1
102
RTVSPost2010Prop44ColorIndex
 90
        5
102
RTVSPost2010Prop44ColorRGB
 90
      255
102
RTVSPost2010PropOp44
 70
     1
102
RTVSPost2010Prop45
280
     0
102
RTVSPost2010PropOp45
 70
     1
102
RTVSPost2010Prop46
 90
       50
102
RTVSPost2010PropOp46
 70
     1
102
RTVSPost2010Prop47
 90
       50
102
RTVSPost2010PropOp47
 70
     1
102
RTVSPost2010Prop48
 90
       50
102
RTVSPost2010PropOp48
 70
     1
102
RTVSPost2010Prop49
280
     0
102
RTVSPost2010PropOp49
 70
     1
102
RTVSPost2010Prop50
 90
       50
102
RTVSPost2010PropOp50
 70
     1
102
RTVSPost2010Prop51ColorIndex
 90
      256
102
RTVSPost2010Prop51ColorRGB
 90
-16777216
102
RTVSPost2010PropOp51
 70
     0
102
RTVSPost2010Prop52
140
1.0
102
RTVSPost2010PropOp52
 70
     0
102
RTVSPost2010Prop53
 90
        2
102
RTVSPost2010PropOp53
 70
     1
102
RTVSPost2010Prop54
  1
strokes_ogs.tif
102
RTVSPost2010PropOp54
 70
     1
102
RTVSPost2010Prop55
280
     0
102
RTVSPost2010PropOp55
 70
     1
102
RTVSPost2010Prop56
140
1.0
102
RTVSPost2010PropOp56
 70
     1
102
RTVSPost2010Prop57
140
1.0
102
RTVSPost2010PropOp57
 70
     1
  0
XRECORD
  5
34D
102
{ACAD_REACTORS
330
34C
102
}
330
34C
100
AcDbXrecord
280
     1
102
RTVSPost2010Prop28
280
     0
102
RTVSPost2010PropOp28
 70
     1
102
RTVSPost2010Prop29
280
     1
102
RTVSPost2010PropOp29
 70
     1
102
RTVSPost2010Prop30
280
     1
102
RTVSPost2010PropOp30
 70
     1
102
RTVSPost2010Prop31
280
     0
102
RTVSPost2010PropOp31
 70
     1
102
RTVSPost2010Prop32
280
     0
102
RTVSPost2010PropOp32
 70
     1
102
RTVSPost2010Prop33
280
     0
102
RTVSPost2010PropOp33
 70
     1
102
RTVSPost2010Prop34
280
     0
102
RTVSPost2010PropOp34
 70
     1
102
RTVSPost2010Prop35
280
     0
102
RTVSPost2010PropOp35
 70
     1
102
RTVSPost2010Prop36
280
     0
102
RTVSPost2010PropOp36
 70
     1
102
RTVSPost2010Prop37
 90
       50
102
RTVSPost2010PropOp37
 70
     1
102
RTVSPost2010Prop38
140
0.0
102
RTVSPost2010PropOp38
 70
     1
102
RTVSPost2010Prop39
140
1.0
102
RTVSPost2010PropOp39
 70
     1
102
RTVSPost2010Prop40
 90
        0
102
RTVSPost2010PropOp40
 70
     1
102
RTVSPost2010Prop41ColorIndex
 90
       18
102
RTVSPost2010Prop41ColorRGB
 90
        0
102
RTVSPost2010PropOp41
 70
     1
102
RTVSPost2010Prop42
 90
       50
102
RTVSPost2010PropOp42
 70
     1
102
RTVSPost2010Prop43
 90
        3
102
RTVSPost2010PropOp43
 70
     1
102
RTVSPost2010Prop44ColorIndex
 90
        5
102
RTVSPost2010Prop44ColorRGB
 90
      255
102
RTVSPost2010PropOp44
 70
     1
102
RTVSPost2010Prop45
280
     0
102
RTVSPost2010PropOp45
 70
     1
102
RTVSPost2010Prop46
 90
       50
102
RTVSPost2010PropOp46
 70
     1
102
RTVSPost2010Prop47
 90
       50
102
RTVSPost2010PropOp47
 70
     1
102
RTVSPost2010Prop48
 90
       50
102
RTVSPost2010PropOp48
 70
     1
102
RTVSPost2010Prop49
280
     0
102
RTVSPost2010PropOp49
 70
     1
102
RTVSPost2010Prop50
 90
       50
102
RTVSPost2010PropOp50
 70
     1
102
RTVSPost2010Prop51ColorIndex
 90
      256
102
RTVSPost2010Prop51ColorRGB
 90
-16777216
102
RTVSPost2010PropOp51
 70
     0
102
RTVSPost2010Prop52
140
1.0
102
RTVSPost2010PropOp52
 70
     0
102
RTVSPost2010Prop53
 90
        2
102
RTVSPost2010PropOp53
 70
     1
102
RTVSPost2010Prop54
  1
strokes_ogs.tif
102
RTVSPost2010PropOp54
 70
     1
102
RTVSPost2010Prop55
280
     0
102
RTVSPost2010PropOp55
 70
     1
102
RTVSPost2010Prop56
140
1.0
102
RTVSPost2010PropOp56
 70
     1
102
RTVSPost2010Prop57
140
1.0
102
RTVSPost2010PropOp57
 70
     1
  0
XRECORD
  5
34B
102
{ACAD_REACTORS
330
34A
102
}
330
34A
100
AcDbXrecord
280
     1
102
RTVSPost2010Prop28
280
     0
102
RTVSPost2010PropOp28
 70
     1
102
RTVSPost2010Prop29
280
     1
102
RTVSPost2010PropOp29
 70
     1
102
RTVSPost2010Prop30
280
     1
102
RTVSPost2010PropOp30
 70
     1
102
RTVSPost2010Prop31
280
     0
102
RTVSPost2010PropOp31
 70
     1
102
RTVSPost2010Prop32
280
     0
102
RTVSPost2010PropOp32
 70
     1
102
RTVSPost2010Prop33
280
     0
102
RTVSPost2010PropOp33
 70
     1
102
RTVSPost2010Prop34
280
     0
102
RTVSPost2010PropOp34
 70
     1
102
RTVSPost2010Prop35
280
     0
102
RTVSPost2010PropOp35
 70
     1
102
RTVSPost2010Prop36
280
     0
102
RTVSPost2010PropOp36
 70
     1
102
RTVSPost2010Prop37
 90
       50
102
RTVSPost2010PropOp37
 70
     1
102
RTVSPost2010Prop38
140
0.0
102
RTVSPost2010PropOp38
 70
     1
102
RTVSPost2010Prop39
140
1.0
102
RTVSPost2010PropOp39
 70
     1
102
RTVSPost2010Prop40
 90
        0
102
RTVSPost2010PropOp40
 70
     1
102
RTVSPost2010Prop41ColorIndex
 90
       18
102
RTVSPost2010Prop41ColorRGB
 90
        0
102
RTVSPost2010PropOp41
 70
     1
102
RTVSPost2010Prop42
 90
       50
102
RTVSPost2010PropOp42
 70
     1
102
RTVSPost2010Prop43
 90
        3
102
RTVSPost2010PropOp43
 70
     1
102
RTVSPost2010Prop44ColorIndex
 90
        5
102
RTVSPost2010Prop44ColorRGB
 90
      255
102
RTVSPost2010PropOp44
 70
     1
102
RTVSPost2010Prop45
280
     0
102
RTVSPost2010PropOp45
 70
     1
102
RTVSPost2010Prop46
 90
       50
102
RTVSPost2010PropOp46
 70
     1
102
RTVSPost2010Prop47
 90
       50
102
RTVSPost2010PropOp47
 70
     1
102
RTVSPost2010Prop48
 90
       50
102
RTVSPost2010PropOp48
 70
     1
102
RTVSPost2010Prop49
280
     0
102
RTVSPost2010PropOp49
 70
     1
102
RTVSPost2010Prop50
 90
       50
102
RTVSPost2010PropOp50
 70
     1
102
RTVSPost2010Prop51ColorIndex
 90
      256
102
RTVSPost2010Prop51ColorRGB
 90
-16777216
102
RTVSPost2010PropOp51
 70
     0
102
RTVSPost2010Prop52
140
1.0
102
RTVSPost2010PropOp52
 70
     0
102
RTVSPost2010Prop53
 90
        2
102
RTVSPost2010PropOp53
 70
     1
102
RTVSPost2010Prop54
  1
strokes_ogs.tif
102
RTVSPost2010PropOp54
 70
     1
102
RTVSPost2010Prop55
280
     0
102
RTVSPost2010PropOp55
 70
     1
102
RTVSPost2010Prop56
140
1.0
102
RTVSPost2010PropOp56
 70
     1
102
RTVSPost2010Prop57
140
1.0
102
RTVSPost2010PropOp57
 70
     1
  0
XRECORD
  5
345
102
{ACAD_REACTORS
330
344
102
}
330
344
100
AcDbXrecord
280
     1
102
RTVSPost2010Prop28
280
     0
102
RTVSPost2010PropOp28
 70
     1
102
RTVSPost2010Prop29
280
     1
102
RTVSPost2010PropOp29
 70
     1
102
RTVSPost2010Prop30
280
     1
102
RTVSPost2010PropOp30
 70
     1
102
RTVSPost2010Prop31
280
     0
102
RTVSPost2010PropOp31
 70
     1
102
RTVSPost2010Prop32
280
     0
102
RTVSPost2010PropOp32
 70
     1
102
RTVSPost2010Prop33
280
     0
102
RTVSPost2010PropOp33
 70
     1
102
RTVSPost2010Prop34
280
     0
102
RTVSPost2010PropOp34
 70
     1
102
RTVSPost2010Prop35
280
     0
102
RTVSPost2010PropOp35
 70
     1
102
RTVSPost2010Prop36
280
     0
102
RTVSPost2010PropOp36
 70
     1
102
RTVSPost2010Prop37
 90
       50
102
RTVSPost2010PropOp37
 70
     1
102
RTVSPost2010Prop38
140
0.0
102
RTVSPost2010PropOp38
 70
     1
102
RTVSPost2010Prop39
140
1.0
102
RTVSPost2010PropOp39
 70
     1
102
RTVSPost2010Prop40
 90
        0
102
RTVSPost2010PropOp40
 70
     1
102
RTVSPost2010Prop41ColorIndex
 90
       18
102
RTVSPost2010Prop41ColorRGB
 90
        0
102
RTVSPost2010PropOp41
 70
     1
102
RTVSPost2010Prop42
 90
       50
102
RTVSPost2010PropOp42
 70
     1
102
RTVSPost2010Prop43
 90
        3
102
RTVSPost2010PropOp43
 70
     1
102
RTVSPost2010Prop44ColorIndex
 90
        5
102
RTVSPost2010Prop44ColorRGB
 90
      255
102
RTVSPost2010PropOp44
 70
     1
102
RTVSPost2010Prop45
280
     0
102
RTVSPost2010PropOp45
 70
     1
102
RTVSPost2010Prop46
 90
       50
102
RTVSPost2010PropOp46
 70
     1
102
RTVSPost2010Prop47
 90
       50
102
RTVSPost2010PropOp47
 70
     1
102
RTVSPost2010Prop48
 90
       50
102
RTVSPost2010PropOp48
 70
     1
102
RTVSPost2010Prop49
280
     0
102
RTVSPost2010PropOp49
 70
     1
102
RTVSPost2010Prop50
 90
       50
102
RTVSPost2010PropOp50
 70
     1
102
RTVSPost2010Prop51ColorIndex
 90
      256
102
RTVSPost2010Prop51ColorRGB
 90
-16777216
102
RTVSPost2010PropOp51
 70
     0
102
RTVSPost2010Prop52
140
1.0
102
RTVSPost2010PropOp52
 70
     0
102
RTVSPost2010Prop53
 90
        2
102
RTVSPost2010PropOp53
 70
     1
102
RTVSPost2010Prop54
  1
strokes_ogs.tif
102
RTVSPost2010PropOp54
 70
     1
102
RTVSPost2010Prop55
280
     0
102
RTVSPost2010PropOp55
 70
     1
102
RTVSPost2010Prop56
140
1.0
102
RTVSPost2010PropOp56
 70
     1
102
RTVSPost2010Prop57
140
1.0
102
RTVSPost2010PropOp57
 70
     1
  0
XRECORD
  5
347
102
{ACAD_REACTORS
330
346
102
}
330
346
100
AcDbXrecord
280
     1
102
RTVSPost2010Prop28
280
     0
102
RTVSPost2010PropOp28
 70
     1
102
RTVSPost2010Prop29
280
     1
102
RTVSPost2010PropOp29
 70
     1
102
RTVSPost2010Prop30
280
     1
102
RTVSPost2010PropOp30
 70
     1
102
RTVSPost2010Prop31
280
     0
102
RTVSPost2010PropOp31
 70
     1
102
RTVSPost2010Prop32
280
     0
102
RTVSPost2010PropOp32
 70
     1
102
RTVSPost2010Prop33
280
     0
102
RTVSPost2010PropOp33
 70
     1
102
RTVSPost2010Prop34
280
     0
102
RTVSPost2010PropOp34
 70
     1
102
RTVSPost2010Prop35
280
     0
102
RTVSPost2010PropOp35
 70
     1
102
RTVSPost2010Prop36
280
     0
102
RTVSPost2010PropOp36
 70
     1
102
RTVSPost2010Prop37
 90
       50
102
RTVSPost2010PropOp37
 70
     1
102
RTVSPost2010Prop38
140
0.0
102
RTVSPost2010PropOp38
 70
     1
102
RTVSPost2010Prop39
140
1.0
102
RTVSPost2010PropOp39
 70
     1
102
RTVSPost2010Prop40
 90
        0
102
RTVSPost2010PropOp40
 70
     1
102
RTVSPost2010Prop41ColorIndex
 90
       18
102
RTVSPost2010Prop41ColorRGB
 90
        0
102
RTVSPost2010PropOp41
 70
     1
102
RTVSPost2010Prop42
 90
       50
102
RTVSPost2010PropOp42
 70
     1
102
RTVSPost2010Prop43
 90
        3
102
RTVSPost2010PropOp43
 70
     1
102
RTVSPost2010Prop44ColorIndex
 90
        5
102
RTVSPost2010Prop44ColorRGB
 90
      255
102
RTVSPost2010PropOp44
 70
     1
102
RTVSPost2010Prop45
280
     0
102
RTVSPost2010PropOp45
 70
     1
102
RTVSPost2010Prop46
 90
       50
102
RTVSPost2010PropOp46
 70
     1
102
RTVSPost2010Prop47
 90
       50
102
RTVSPost2010PropOp47
 70
     1
102
RTVSPost2010Prop48
 90
       50
102
RTVSPost2010PropOp48
 70
     1
102
RTVSPost2010Prop49
280
     0
102
RTVSPost2010PropOp49
 70
     1
102
RTVSPost2010Prop50
 90
       50
102
RTVSPost2010PropOp50
 70
     1
102
RTVSPost2010Prop51ColorIndex
 90
      256
102
RTVSPost2010Prop51ColorRGB
 90
-16777216
102
RTVSPost2010PropOp51
 70
     0
102
RTVSPost2010Prop52
140
1.0
102
RTVSPost2010PropOp52
 70
     0
102
RTVSPost2010Prop53
 90
        2
102
RTVSPost2010PropOp53
 70
     1
102
RTVSPost2010Prop54
  1
strokes_ogs.tif
102
RTVSPost2010PropOp54
 70
     1
102
RTVSPost2010Prop55
280
     0
102
RTVSPost2010PropOp55
 70
     1
102
RTVSPost2010Prop56
140
1.0
102
RTVSPost2010PropOp56
 70
     1
102
RTVSPost2010Prop57
140
1.0
102
RTVSPost2010PropOp57
 70
     1
  0
XRECORD
  5
339
102
{ACAD_REACTORS
330
338
102
}
330
338
100
AcDbXrecord
280
     1
102
RTVSPost2010Prop28
280
     0
102
RTVSPost2010PropOp28
 70
     1
102
RTVSPost2010Prop29
280
     1
102
RTVSPost2010PropOp29
 70
     1
102
RTVSPost2010Prop30
280
     1
102
RTVSPost2010PropOp30
 70
     1
102
RTVSPost2010Prop31
280
     0
102
RTVSPost2010PropOp31
 70
     1
102
RTVSPost2010Prop32
280
     0
102
RTVSPost2010PropOp32
 70
     1
102
RTVSPost2010Prop33
280
     0
102
RTVSPost2010PropOp33
 70
     1
102
RTVSPost2010Prop34
280
     0
102
RTVSPost2010PropOp34
 70
     1
102
RTVSPost2010Prop35
280
     0
102
RTVSPost2010PropOp35
 70
     1
102
RTVSPost2010Prop36
280
     0
102
RTVSPost2010PropOp36
 70
     1
102
RTVSPost2010Prop37
 90
       50
102
RTVSPost2010PropOp37
 70
     1
102
RTVSPost2010Prop38
140
0.0
102
RTVSPost2010PropOp38
 70
     1
102
RTVSPost2010Prop39
140
1.0
102
RTVSPost2010PropOp39
 70
     1
102
RTVSPost2010Prop40
 90
        0
102
RTVSPost2010PropOp40
 70
     1
102
RTVSPost2010Prop41ColorIndex
 90
       18
102
RTVSPost2010Prop41ColorRGB
 90
        0
102
RTVSPost2010PropOp41
 70
     1
102
RTVSPost2010Prop42
 90
       50
102
RTVSPost2010PropOp42
 70
     1
102
RTVSPost2010Prop43
 90
        3
102
RTVSPost2010PropOp43
 70
     1
102
RTVSPost2010Prop44ColorIndex
 90
        5
102
RTVSPost2010Prop44ColorRGB
 90
      255
102
RTVSPost2010PropOp44
 70
     1
102
RTVSPost2010Prop45
280
     0
102
RTVSPost2010PropOp45
 70
     1
102
RTVSPost2010Prop46
 90
       50
102
RTVSPost2010PropOp46
 70
     1
102
RTVSPost2010Prop47
 90
       50
102
RTVSPost2010PropOp47
 70
     1
102
RTVSPost2010Prop48
 90
       50
102
RTVSPost2010PropOp48
 70
     1
102
RTVSPost2010Prop49
280
     0
102
RTVSPost2010PropOp49
 70
     1
102
RTVSPost2010Prop50
 90
       50
102
RTVSPost2010PropOp50
 70
     1
102
RTVSPost2010Prop51ColorIndex
 90
      256
102
RTVSPost2010Prop51ColorRGB
 90
-16777216
102
RTVSPost2010PropOp51
 70
     0
102
RTVSPost2010Prop52
140
1.0
102
RTVSPost2010PropOp52
 70
     0
102
RTVSPost2010Prop53
 90
        2
102
RTVSPost2010PropOp53
 70
     1
102
RTVSPost2010Prop54
  1
strokes_ogs.tif
102
RTVSPost2010PropOp54
 70
     1
102
RTVSPost2010Prop55
280
     0
102
RTVSPost2010PropOp55
 70
     1
102
RTVSPost2010Prop56
140
1.0
102
RTVSPost2010PropOp56
 70
     1
102
RTVSPost2010Prop57
140
1.0
102
RTVSPost2010PropOp57
 70
     1
  0
XRECORD
  5
341
102
{ACAD_REACTORS
330
340
102
}
330
340
100
AcDbXrecord
280
     1
102
RTVSPost2010Prop28
280
     0
102
RTVSPost2010PropOp28
 70
     1
102
RTVSPost2010Prop29
280
     1
102
RTVSPost2010PropOp29
 70
     1
102
RTVSPost2010Prop30
280
     1
102
RTVSPost2010PropOp30
 70
     1
102
RTVSPost2010Prop31
280
     0
102
RTVSPost2010PropOp31
 70
     1
102
RTVSPost2010Prop32
280
     0
102
RTVSPost2010PropOp32
 70
     1
102
RTVSPost2010Prop33
280
     0
102
RTVSPost2010PropOp33
 70
     1
102
RTVSPost2010Prop34
280
     0
102
RTVSPost2010PropOp34
 70
     1
102
RTVSPost2010Prop35
280
     0
102
RTVSPost2010PropOp35
 70
     1
102
RTVSPost2010Prop36
280
     0
102
RTVSPost2010PropOp36
 70
     1
102
RTVSPost2010Prop37
 90
       50
102
RTVSPost2010PropOp37
 70
     1
102
RTVSPost2010Prop38
140
0.0
102
RTVSPost2010PropOp38
 70
     1
102
RTVSPost2010Prop39
140
1.0
102
RTVSPost2010PropOp39
 70
     1
102
RTVSPost2010Prop40
 90
        0
102
RTVSPost2010PropOp40
 70
     1
102
RTVSPost2010Prop41ColorIndex
 90
       18
102
RTVSPost2010Prop41ColorRGB
 90
        0
102
RTVSPost2010PropOp41
 70
     1
102
RTVSPost2010Prop42
 90
       50
102
RTVSPost2010PropOp42
 70
     1
102
RTVSPost2010Prop43
 90
        3
102
RTVSPost2010PropOp43
 70
     1
102
RTVSPost2010Prop44ColorIndex
 90
        5
102
RTVSPost2010Prop44ColorRGB
 90
      255
102
RTVSPost2010PropOp44
 70
     1
102
RTVSPost2010Prop45
280
     0
102
RTVSPost2010PropOp45
 70
     1
102
RTVSPost2010Prop46
 90
       50
102
RTVSPost2010PropOp46
 70
     1
102
RTVSPost2010Prop47
 90
       50
102
RTVSPost2010PropOp47
 70
     1
102
RTVSPost2010Prop48
 90
       50
102
RTVSPost2010PropOp48
 70
     1
102
RTVSPost2010Prop49
280
     0
102
RTVSPost2010PropOp49
 70
     1
102
RTVSPost2010Prop50
 90
       50
102
RTVSPost2010PropOp50
 70
     1
102
RTVSPost2010Prop51ColorIndex
 90
      256
102
RTVSPost2010Prop51ColorRGB
 90
-16777216
102
RTVSPost2010PropOp51
 70
     0
102
RTVSPost2010Prop52
140
1.0
102
RTVSPost2010PropOp52
 70
     0
102
RTVSPost2010Prop53
 90
        2
102
RTVSPost2010PropOp53
 70
     1
102
RTVSPost2010Prop54
  1
strokes_ogs.tif
102
RTVSPost2010PropOp54
 70
     1
102
RTVSPost2010Prop55
280
     0
102
RTVSPost2010PropOp55
 70
     1
102
RTVSPost2010Prop56
140
1.0
102
RTVSPost2010PropOp56
 70
     1
102
RTVSPost2010Prop57
140
1.0
102
RTVSPost2010PropOp57
 70
     1
  0
XRECORD
  5
349
102
{ACAD_REACTORS
330
348
102
}
330
348
100
AcDbXrecord
280
     1
102
RTVSPost2010Prop28
280
     0
102
RTVSPost2010PropOp28
 70
     1
102
RTVSPost2010Prop29
280
     1
102
RTVSPost2010PropOp29
 70
     1
102
RTVSPost2010Prop30
280
     1
102
RTVSPost2010PropOp30
 70
     1
102
RTVSPost2010Prop31
280
     0
102
RTVSPost2010PropOp31
 70
     1
102
RTVSPost2010Prop32
280
     0
102
RTVSPost2010PropOp32
 70
     1
102
RTVSPost2010Prop33
280
     0
102
RTVSPost2010PropOp33
 70
     1
102
RTVSPost2010Prop34
280
     0
102
RTVSPost2010PropOp34
 70
     1
102
RTVSPost2010Prop35
280
     0
102
RTVSPost2010PropOp35
 70
     1
102
RTVSPost2010Prop36
280
     0
102
RTVSPost2010PropOp36
 70
     1
102
RTVSPost2010Prop37
 90
       50
102
RTVSPost2010PropOp37
 70
     1
102
RTVSPost2010Prop38
140
0.0
102
RTVSPost2010PropOp38
 70
     1
102
RTVSPost2010Prop39
140
1.0
102
RTVSPost2010PropOp39
 70
     1
102
RTVSPost2010Prop40
 90
        0
102
RTVSPost2010PropOp40
 70
     1
102
RTVSPost2010Prop41ColorIndex
 90
       18
102
RTVSPost2010Prop41ColorRGB
 90
        0
102
RTVSPost2010PropOp41
 70
     1
102
RTVSPost2010Prop42
 90
       50
102
RTVSPost2010PropOp42
 70
     1
102
RTVSPost2010Prop43
 90
        3
102
RTVSPost2010PropOp43
 70
     1
102
RTVSPost2010Prop44ColorIndex
 90
        5
102
RTVSPost2010Prop44ColorRGB
 90
      255
102
RTVSPost2010PropOp44
 70
     1
102
RTVSPost2010Prop45
280
     0
102
RTVSPost2010PropOp45
 70
     1
102
RTVSPost2010Prop46
 90
       50
102
RTVSPost2010PropOp46
 70
     1
102
RTVSPost2010Prop47
 90
       50
102
RTVSPost2010PropOp47
 70
     1
102
RTVSPost2010Prop48
 90
       50
102
RTVSPost2010PropOp48
 70
     1
102
RTVSPost2010Prop49
280
     0
102
RTVSPost2010PropOp49
 70
     1
102
RTVSPost2010Prop50
 90
       50
102
RTVSPost2010PropOp50
 70
     1
102
RTVSPost2010Prop51ColorIndex
 90
      256
102
RTVSPost2010Prop51ColorRGB
 90
-16777216
102
RTVSPost2010PropOp51
 70
     0
102
RTVSPost2010Prop52
140
1.0
102
RTVSPost2010PropOp52
 70
     0
102
RTVSPost2010Prop53
 90
        2
102
RTVSPost2010PropOp53
 70
     1
102
RTVSPost2010Prop54
  1
strokes_ogs.tif
102
RTVSPost2010PropOp54
 70
     1
102
RTVSPost2010Prop55
280
     0
102
RTVSPost2010PropOp55
 70
     1
102
RTVSPost2010Prop56
140
1.0
102
RTVSPost2010PropOp56
 70
     1
102
RTVSPost2010Prop57
140
1.0
102
RTVSPost2010PropOp57
 70
     1
  0
ENDSEC
  0
EOF
