  0
SECTION
  2
HEADER
  9
$ACADVER
  1
AC1024
  9
$ACADMAINTVER
 70
   226
  9
$DWGCODEPAGE
  3
ANSI_1252
  9
$LASTSAVEDBY
  1
RubenvandenEijkel
  9
$INSBASE
 10
0.0
 20
0.0
 30
0.0
  9
$EXTMIN
 10
-0.0320410123467809
 20
-0.0453151460337722
 30
-0.0320410123467809
  9
$EXTMAX
 10
1050.032045901794
 20
1485.045322061103
 30
0.0480664079636881
  9
$LIMMIN
 10
0.0
 20
0.0
  9
$LIMMAX
 10
1050.000000000004
 20
1485.0
  9
$ORTHOMODE
 70
     0
  9
$REGENMODE
 70
     1
  9
$FILLMODE
 70
     1
  9
$QTEXTMODE
 70
     0
  9
$MIRRTEXT
 70
     1
  9
$LTSCALE
 40
1.0
  9
$ATTMODE
 70
     1
  9
$TEXTSIZE
 40
0.2
  9
$TRACEWID
 40
0.05
  9
$TEXTSTYLE
  7
Standard
  9
$CLAYER
  8
0
  9
$CELTYPE
  6
ByLayer
  9
$CECOLOR
 62
   256
  9
$CELTSCALE
 40
1.0
  9
$DISPSILH
 70
     0
  9
$DIMSCALE
 40
1.0
  9
$DIMASZ
 40
0.18
  9
$DIMEXO
 40
0.0625
  9
$DIMDLI
 40
0.38
  9
$DIMRND
 40
0.0
  9
$DIMDLE
 40
0.0
  9
$DIMEXE
 40
0.18
  9
$DIMTP
 40
0.0
  9
$DIMTM
 40
0.0
  9
$DIMTXT
 40
0.18
  9
$DIMCEN
 40
0.09
  9
$DIMTSZ
 40
0.0
  9
$DIMTOL
 70
     0
  9
$DIMLIM
 70
     0
  9
$DIMTIH
 70
     1
  9
$DIMTOH
 70
     1
  9
$DIMSE1
 70
     0
  9
$DIMSE2
 70
     0
  9
$DIMTAD
 70
     0
  9
$DIMZIN
 70
     0
  9
$DIMBLK
  1

  9
$DIMASO
 70
     1
  9
$DIMSHO
 70
     1
  9
$DIMPOST
  1

  9
$DIMAPOST
  1

  9
$DIMALT
 70
     0
  9
$DIMALTD
 70
     2
  9
$DIMALTF
 40
25.4
  9
$DIMLFAC
 40
1.0
  9
$DIMTOFL
 70
     0
  9
$DIMTVP
 40
0.0
  9
$DIMTIX
 70
     0
  9
$DIMSOXD
 70
     0
  9
$DIMSAH
 70
     0
  9
$DIMBLK1
  1

  9
$DIMBLK2
  1

  9
$DIMSTYLE
  2
Standard
  9
$DIMCLRD
 70
     0
  9
$DIMCLRE
 70
     0
  9
$DIMCLRT
 70
     0
  9
$DIMTFAC
 40
1.0
  9
$DIMGAP
 40
0.09
  9
$DIMJUST
 70
     0
  9
$DIMSD1
 70
     0
  9
$DIMSD2
 70
     0
  9
$DIMTOLJ
 70
     1
  9
$DIMTZIN
 70
     0
  9
$DIMALTZ
 70
     0
  9
$DIMALTTZ
 70
     0
  9
$DIMUPT
 70
     0
  9
$DIMDEC
 70
     4
  9
$DIMTDEC
 70
     4
  9
$DIMALTU
 70
     2
  9
$DIMALTTD
 70
     2
  9
$DIMTXSTY
  7
Standard
  9
$DIMAUNIT
 70
     0
  9
$DIMADEC
 70
     0
  9
$DIMALTRND
 40
0.0
  9
$DIMAZIN
 70
     0
  9
$DIMDSEP
 70
    46
  9
$DIMATFIT
 70
     3
  9
$DIMFRAC
 70
     0
  9
$DIMLDRBLK
  1

  9
$DIMLUNIT
 70
     2
  9
$DIMLWD
 70
    -2
  9
$DIMLWE
 70
    -2
  9
$DIMTMOVE
 70
     0
  9
$DIMFXL
 40
1.0
  9
$DIMFXLON
 70
     0
  9
$DIMJOGANG
 40
0.7853981633974483
  9
$DIMTFILL
 70
     0
  9
$DIMTFILLCLR
 70
     0
  9
$DIMARCSYM
 70
     0
  9
$DIMLTYPE
  6

  9
$DIMLTEX1
  6

  9
$DIMLTEX2
  6

  9
$DIMTXTDIRECTION
 70
     0
  9
$LUNITS
 70
     2
  9
$LUPREC
 70
     4
  9
$SKETCHINC
 40
0.1
  9
$FILLETRAD
 40
0.5
  9
$AUNITS
 70
     0
  9
$AUPREC
 70
     0
  9
$MENU
  1
.
  9
$ELEVATION
 40
0.0
  9
$PELEVATION
 40
0.0
  9
$THICKNESS
 40
0.0
  9
$LIMCHECK
 70
     0
  9
$CHAMFERA
 40
0.5
  9
$CHAMFERB
 40
0.5
  9
$CHAMFERC
 40
1.0
  9
$CHAMFERD
 40
0.0
  9
$SKPOLY
 70
     0
  9
$TDCREATE
 40
2459306.421458333
  9
$TDUCREATE
 40
2459306.338130521
  9
$TDUPDATE
 40
2459306.648703704
  9
$TDUUPDATE
 40
2459306.565370370
  9
$TDINDWG
 40
0.1179398264
  9
$TDUSRTIMER
 40
0.1179398264
  9
$USRTIMER
 70
     1
  9
$ANGBASE
 50
0.0
  9
$ANGDIR
 70
     0
  9
$PDMODE
 70
    65
  9
$PDSIZE
 40
0.0
  9
$PLINEWID
 40
0.0
  9
$SPLFRAME
 70
     0
  9
$SPLINETYPE
 70
     6
  9
$SPLINESEGS
 70
     8
  9
$HANDSEED
  5
3F3
  9
$SURFTAB1
 70
     6
  9
$SURFTAB2
 70
     6
  9
$SURFTYPE
 70
     6
  9
$SURFU
 70
     6
  9
$SURFV
 70
     6
  9
$UCSBASE
  2

  9
$UCSNAME
  2

  9
$UCSORG
 10
0.0
 20
0.0
 30
0.0
  9
$UCSXDIR
 10
1.0
 20
0.0
 30
0.0
  9
$UCSYDIR
 10
0.0
 20
1.0
 30
0.0
  9
$UCSORTHOREF
  2

  9
$UCSORTHOVIEW
 70
     0
  9
$UCSORGTOP
 10
0.0
 20
0.0
 30
0.0
  9
$UCSORGBOTTOM
 10
0.0
 20
0.0
 30
0.0
  9
$UCSORGLEFT
 10
0.0
 20
0.0
 30
0.0
  9
$UCSORGRIGHT
 10
0.0
 20
0.0
 30
0.0
  9
$UCSORGFRONT
 10
0.0
 20
0.0
 30
0.0
  9
$UCSORGBACK
 10
0.0
 20
0.0
 30
0.0
  9
$PUCSBASE
  2

  9
$PUCSNAME
  2

  9
$PUCSORG
 10
0.0
 20
0.0
 30
0.0
  9
$PUCSXDIR
 10
1.0
 20
0.0
 30
0.0
  9
$PUCSYDIR
 10
0.0
 20
1.0
 30
0.0
  9
$PUCSORTHOREF
  2

  9
$PUCSORTHOVIEW
 70
     0
  9
$PUCSORGTOP
 10
0.0
 20
0.0
 30
0.0
  9
$PUCSORGBOTTOM
 10
0.0
 20
0.0
 30
0.0
  9
$PUCSORGLEFT
 10
0.0
 20
0.0
 30
0.0
  9
$PUCSORGRIGHT
 10
0.0
 20
0.0
 30
0.0
  9
$PUCSORGFRONT
 10
0.0
 20
0.0
 30
0.0
  9
$PUCSORGBACK
 10
0.0
 20
0.0
 30
0.0
  9
$USERI1
 70
     0
  9
$USERI2
 70
     0
  9
$USERI3
 70
     0
  9
$USERI4
 70
     0
  9
$USERI5
 70
     0
  9
$USERR1
 40
0.0
  9
$USERR2
 40
0.0
  9
$USERR3
 40
0.0
  9
$USERR4
 40
0.0
  9
$USERR5
 40
0.0
  9
$WORLDVIEW
 70
     1
  9
$SHADEDGE
 70
     3
  9
$SHADEDIF
 70
    70
  9
$TILEMODE
 70
     1
  9
$MAXACTVP
 70
    64
  9
$PINSBASE
 10
0.0
 20
0.0
 30
0.0
  9
$PLIMCHECK
 70
     0
  9
$PEXTMIN
 10
1.000000000000000E+20
 20
1.000000000000000E+20
 30
1.000000000000000E+20
  9
$PEXTMAX
 10
-1.000000000000000E+20
 20
-1.000000000000000E+20
 30
-1.000000000000000E+20
  9
$PLIMMIN
 10
0.0
 20
0.0
  9
$PLIMMAX
 10
12.0
 20
9.0
  9
$UNITMODE
 70
     0
  9
$VISRETAIN
 70
     1
  9
$PLINEGEN
 70
     0
  9
$PSLTSCALE
 70
     1
  9
$TREEDEPTH
 70
  3020
  9
$CMLSTYLE
  2
Standard
  9
$CMLJUST
 70
     0
  9
$CMLSCALE
 40
1.0
  9
$PROXYGRAPHICS
 70
     1
  9
$MEASUREMENT
 70
     1
  9
$CELWEIGHT
370
    -1
  9
$ENDCAPS
280
     0
  9
$JOINSTYLE
280
     0
  9
$LWDISPLAY
290
     0
  9
$INSUNITS
 70
     4
  9
$HYPERLINKBASE
  1

  9
$STYLESHEET
  1

  9
$XEDIT
290
     1
  9
$CEPSNTYPE
380
     0
  9
$PSTYLEMODE
290
     1
  9
$FINGERPRINTGUID
  2
{C87FEC2B-D2E3-433D-80E5-E7FB71181988}
  9
$VERSIONGUID
  2
{07CFDAF0-752F-1A4F-8C47-40C0CCC06E2F}
  9
$EXTNAMES
290
     1
  9
$PSVPSCALE
 40
0.0
  9
$OLESTARTUP
290
     0
  9
$SORTENTS
280
   127
  9
$INDEXCTL
280
     0
  9
$HIDETEXT
280
     1
  9
$XCLIPFRAME
280
     2
  9
$HALOGAP
280
     0
  9
$OBSCOLOR
 70
   257
  9
$OBSLTYPE
280
     0
  9
$INTERSECTIONDISPLAY
280
     0
  9
$INTERSECTIONCOLOR
 70
   257
  9
$DIMASSOC
280
     2
  9
$PROJECTNAME
  1

  9
$CAMERADISPLAY
290
     0
  9
$LENSLENGTH
 40
50.0
  9
$CAMERAHEIGHT
 40
0.0
  9
$STEPSPERSEC
 40
2.0
  9
$STEPSIZE
 40
6.0
  9
$3DDWFPREC
 40
2.0
  9
$PSOLWIDTH
 40
0.25
  9
$PSOLHEIGHT
 40
4.0
  9
$LOFTANG1
 40
1.570796326794896
  9
$LOFTANG2
 40
1.570796326794896
  9
$LOFTMAG1
 40
0.0
  9
$LOFTMAG2
 40
0.0
  9
$LOFTPARAM
 70
     7
  9
$LOFTNORMALS
280
     1
  9
$LATITUDE
 40
37.795
  9
$LONGITUDE
 40
-122.394
  9
$NORTHDIRECTION
 40
0.0
  9
$TIMEZONE
 70
 -8000
  9
$LIGHTGLYPHDISPLAY
280
     1
  9
$TILEMODELIGHTSYNCH
280
     1
  9
$CMATERIAL
347
3C
  9
$SOLIDHIST
280
     1
  9
$SHOWHIST
280
     1
  9
$DWFFRAME
280
     2
  9
$DGNFRAME
280
     2
  9
$REALWORLDSCALE
290
     1
  9
$INTERFERECOLOR
 62
   256
  9
$INTERFEREOBJVS
345
33
  9
$INTERFEREVPVS
346
1C0
  9
$CSHADOW
280
     0
  9
$SHADOWPLANELOCATION
 40
0.0
  0
ENDSEC
  0
SECTION
  2
CLASSES
  0
CLASS
  1
ACDBDICTIONARYWDFLT
  2
AcDbDictionaryWithDefault
  3
ObjectDBX Classes
 90
        0
 91
        1
280
     0
281
     0
  0
CLASS
  1
VISUALSTYLE
  2
AcDbVisualStyle
  3
ObjectDBX Classes
 90
     4095
 91
       26
280
     0
281
     0
  0
CLASS
  1
MATERIAL
  2
AcDbMaterial
  3
ObjectDBX Classes
 90
     1153
 91
        3
280
     0
281
     0
  0
CLASS
  1
SCALE
  2
AcDbScale
  3
ObjectDBX Classes
 90
     1153
 91
       33
280
     0
281
     0
  0
CLASS
  1
SORTENTSTABLE
  2
AcDbSortentsTable
  3
ObjectDBX Classes
 90
        0
 91
        1
280
     0
281
     0
  0
CLASS
  1
DICTIONARYVAR
  2
AcDbDictionaryVar
  3
ObjectDBX Classes
 90
        0
 91
       21
280
     0
281
     0
  0
CLASS
  1
TABLESTYLE
  2
AcDbTableStyle
  3
ObjectDBX Classes
 90
     4095
 91
        1
280
     0
281
     0
  0
CLASS
  1
MLEADERSTYLE
  2
AcDbMLeaderStyle
  3
ACDB_MLEADERSTYLE_CLASS
 90
     4095
 91
        1
280
     0
281
     0
  0
CLASS
  1
ACDBSECTIONVIEWSTYLE
  2
AcDbSectionViewStyle
  3
ObjectDBX Classes
 90
     1025
 91
        1
280
     0
281
     0
  0
CLASS
  1
ACDBDETAILVIEWSTYLE
  2
AcDbDetailViewStyle
  3
ObjectDBX Classes
 90
     1025
 91
        1
280
     0
281
     0
  0
CLASS
  1
CELLSTYLEMAP
  2
AcDbCellStyleMap
  3
ObjectDBX Classes
 90
     1152
 91
        1
280
     0
281
     0
  0
ENDSEC
  0
SECTION
  2
TABLES
  0
TABLE
  2
VPORT
  5
8
330
0
100
AcDbSymbolTable
 70
     1
  0
VPORT
  5
29
330
8
100
AcDbSymbolTableRecord
100
AcDbViewportTableRecord
  2
*Active
 70
     0
 10
0.0
 20
0.0
 11
1.0
 21
1.0
 12
525.0000024447236
 22
742.5000034575348
 13
0.0
 23
0.0
 14
0.5
 24
0.5
 15
0.5
 25
0.5
 16
0.0
 26
0.0
 36
1.0
 17
0.0
 27
0.0
 37
0.0
 40
1496.784463262199
 41
1.806451612903225
 42
50.0
 43
0.0
 44
0.0
 50
0.0
 51
0.0
 71
     0
 72
   100
 73
     1
 74
     3
 75
     0
 76
     0
 77
     0
 78
     0
281
     0
 65
     1
110
0.0
120
0.0
130
0.0
111
1.0
121
0.0
131
0.0
112
0.0
122
1.0
132
0.0
 79
     0
146
0.0
348
2F
 60
     3
 61
     5
292
     1
282
     1
141
0.0
142
0.0
 63
   250
1001
ACAD_NAV_VCDISPLAY
1070
     3
  0
ENDTAB
  0
TABLE
  2
LTYPE
  5
5
330
0
100
AcDbSymbolTable
 70
     7
  0
LTYPE
  5
14
330
5
100
AcDbSymbolTableRecord
100
AcDbLinetypeTableRecord
  2
ByBlock
 70
     0
  3

 72
    65
 73
     0
 40
0.0
  0
LTYPE
  5
15
330
5
100
AcDbSymbolTableRecord
100
AcDbLinetypeTableRecord
  2
ByLayer
 70
     0
  3

 72
    65
 73
     0
 40
0.0
  0
LTYPE
  5
16
330
5
100
AcDbSymbolTableRecord
100
AcDbLinetypeTableRecord
  2
Continuous
 70
     0
  3
Solid line
 72
    65
 73
     0
 40
0.0
  0
LTYPE
  5
41
330
5
100
AcDbSymbolTableRecord
100
AcDbLinetypeTableRecord
  2
ALL_S17
 70
     0
  3
Dotted
 72
    65
 73
     2
 40
3.5
 49
0.0
 74
     0
 49
-3.5
 74
     0
  0
LTYPE
  5
42
330
5
100
AcDbSymbolTableRecord
100
AcDbLinetypeTableRecord
  2
PUNKT2_S9
 70
     0
  3
Eng Punktiert
 72
    65
 73
     2
 40
5.0
 49
0.0
 74
     0
 49
-5.0
 74
     0
  0
LTYPE
  5
43
330
5
100
AcDbSymbolTableRecord
100
AcDbLinetypeTableRecord
  2
STRICHLINIE2_S3
 70
     0
  3
Gestrichelt
 72
    65
 73
     2
 40
25.0
 49
20.0
 74
     0
 49
-5.0
 74
     0
  0
LTYPE
  5
44
330
5
100
AcDbSymbolTableRecord
100
AcDbLinetypeTableRecord
  2
STRICHPUNKT2_S5
 70
     0
  3
Lang eng gestrichelt bzw. punktiert
 72
    65
 73
     4
 40
55.0
 49
40.0
 74
     0
 49
-5.0
 74
     0
 49
5.0
 74
     0
 49
-5.0
 74
     0
  0
LTYPE
  5
45
330
5
100
AcDbSymbolTableRecord
100
AcDbLinetypeTableRecord
  2
VERDECKT2_S2
 70
     0
  3
Kurzgestrichelt
 72
    65
 73
     2
 40
13.5
 49
10.0
 74
     0
 49
-3.5
 74
     0
  0
ENDTAB
  0
TABLE
  2
LAYER
  5
2
102
{ACAD_XDICTIONARY
360
26E
102
}
330
0
100
AcDbSymbolTable
 70
    14
  0
LAYER
  5
10
330
2
100
AcDbSymbolTableRecord
100
AcDbLayerTableRecord
  2
0
 70
     0
 62
     7
  6
Continuous
370
    -3
390
F
347
3E
  0
LAYER
  5
46
330
2
100
AcDbSymbolTableRecord
100
AcDbLayerTableRecord
  2
AANHAALLIJN
 70
     0
 62
     7
  6
Continuous
370
    18
390
F
347
3E
1001
AcAecLayerStandard
1000

1000
000101, on
  0
LAYER
  5
48
330
2
100
AcDbSymbolTableRecord
100
AcDbLayerTableRecord
  2
AFBREEKLIJNEN
 70
     0
 62
     7
  6
Continuous
370
    35
390
F
347
3E
1001
AcAecLayerStandard
1000

1000
000201, on
  0
LAYER
  5
49
330
2
100
AcDbSymbolTableRecord
100
AcDbLayerTableRecord
  2
BAKSTEEN
 70
     0
 62
    30
  6
Continuous
370
    70
390
F
347
3E
1001
AcAecLayerStandard
1000

1000
21121, on
  0
LAYER
  5
4A
330
2
100
AcDbSymbolTableRecord
100
AcDbLayerTableRecord
  2
DILALATIEVOEG EN AFDICHTING
 70
     0
 62
     5
  6
Continuous
370
    35
390
F
347
3E
1001
AcAecLayerStandard
1000

1000
211031, on
  0
LAYER
  5
4B
330
2
100
AcDbSymbolTableRecord
100
AcDbLayerTableRecord
  2
HOUT
 70
     0
 62
     5
  6
Continuous
370
    35
390
F
347
3E
1001
AcAecLayerStandard
1000

1000
43261, on
  0
LAYER
  5
4C
330
2
100
AcDbSymbolTableRecord
100
AcDbLayerTableRecord
  2
KALKZANDSTEEN
 70
     0
 62
     2
  6
Continuous
370
   100
390
F
347
3E
1001
AcAecLayerStandard
1000

1000
22223, on
  0
LAYER
  5
4D
330
2
100
AcDbSymbolTableRecord
100
AcDbLayerTableRecord
  2
KANAALPLAATVLOEREN
 70
     0
 62
     2
  6
Continuous
370
   100
390
F
347
3E
1001
AcAecLayerStandard
1000

1000
23212, on
  0
LAYER
  5
4E
330
2
100
AcDbSymbolTableRecord
100
AcDbLayerTableRecord
  2
Maatlijnen 1_5
 70
     0
 62
     7
  6
Continuous
370
    18
390
F
347
3E
1001
AcAecLayerStandard
1000

1000
ML_5, on
  0
LAYER
  5
4F
330
2
100
AcDbSymbolTableRecord
100
AcDbLayerTableRecord
  2
POLYISOCYANURAAT (PIR)
 70
     0
 62
     5
  6
Continuous
370
    35
390
F
347
3E
1001
AcAecLayerStandard
1000

1000
223116, on
  0
LAYER
  5
50
330
2
100
AcDbSymbolTableRecord
100
AcDbLayerTableRecord
  2
STEENWOL
 70
     0
 62
     5
  6
Continuous
370
    35
390
F
347
3E
1001
AcAecLayerStandard
1000

1000
223111, on
  0
LAYER
  5
51
330
2
100
AcDbSymbolTableRecord
100
AcDbLayerTableRecord
  2
VLOERBEDEKKING
 70
     0
 62
     5
  6
Continuous
370
    35
390
F
347
3E
1001
AcAecLayerStandard
1000

1000
43222, on
  0
LAYER
  5
52
330
2
100
AcDbSymbolTableRecord
100
AcDbLayerTableRecord
  2
ZANDCEMENT DEKVLOEREN
 70
     0
 62
     5
  6
Continuous
370
    35
390
F
347
3E
1001
AcAecLayerStandard
1000

1000
432111, on
  0
LAYER
  5
B2
330
2
100
AcDbSymbolTableRecord
100
AcDbLayerTableRecord
  2
DEFPOINTS
 70
     0
 62
     7
  6
Continuous
290
     0
370
    -3
390
F
347
3E
  0
ENDTAB
  0
TABLE
  2
STYLE
  5
3
330
0
100
AcDbSymbolTable
 70
     4
  0
STYLE
  5
11
330
3
100
AcDbSymbolTableRecord
100
AcDbTextStyleTableRecord
  2
Standard
 70
     0
 40
0.0
 41
1.0
 50
0.0
 71
     0
 42
0.2
  3
txt
  4

  0
STYLE
  5
3F
330
3
100
AcDbSymbolTableRecord
100
AcDbTextStyleTableRecord
  2
ARIAL
 70
     0
 40
0.0
 41
1.0
 50
0.0
 71
     0
 42
0.0
  3
ARIAL.TTF
  4

1001
ACAD
1000
Arial
1071
       34
  0
STYLE
  5
40
330
3
100
AcDbSymbolTableRecord
100
AcDbTextStyleTableRecord
  2
TAHOMA
 70
     0
 40
0.0
 41
1.0
 50
0.0
 71
     0
 42
0.0
  3
TAHOMA.TTF
  4

1001
ACAD
1000
Tahoma
1071
       34
  0
STYLE
  5
53
330
3
100
AcDbSymbolTableRecord
100
AcDbTextStyleTableRecord
  2
Trebuchet MS
 70
     0
 40
0.0
 41
1.0
 50
0.0
 71
     0
 42
0.0
  3
Trebuchet MS
  4

1001
ACAD
1000
Trebuchet MS
1071
        0
  0
ENDTAB
  0
TABLE
  2
VIEW
  5
6
330
0
100
AcDbSymbolTable
 70
     4
  0
ENDTAB
  0
TABLE
  2
UCS
  5
7
330
0
100
AcDbSymbolTable
 70
     0
  0
ENDTAB
  0
TABLE
  2
APPID
  5
9
330
0
100
AcDbSymbolTable
 70
     5
  0
APPID
  5
12
330
9
100
AcDbSymbolTableRecord
100
AcDbRegAppTableRecord
  2
ACAD
 70
     0
  0
APPID
  5
47
330
9
100
AcDbSymbolTableRecord
100
AcDbRegAppTableRecord
  2
AcAecLayerStandard
 70
     0
  0
APPID
  5
C4
330
9
100
AcDbSymbolTableRecord
100
AcDbRegAppTableRecord
  2
NEM_ODX
 70
     0
  0
APPID
  5
268
330
9
100
AcDbSymbolTableRecord
100
AcDbRegAppTableRecord
  2
ACAD_EXEMPT_FROM_CAD_STANDARDS
 70
     0
  0
APPID
  5
274
330
9
100
AcDbSymbolTableRecord
100
AcDbRegAppTableRecord
  2
ACAD_NAV_VCDISPLAY
 70
     0
  0
ENDTAB
  0
TABLE
  2
DIMSTYLE
  5
A
330
0
100
AcDbSymbolTable
 70
     5
100
AcDbDimStyleTable
 71
     4
340
111
340
C3
340
27
340
D0
  0
DIMSTYLE
105
27
330
A
100
AcDbSymbolTableRecord
100
AcDbDimStyleTableRecord
  2
Standard
 70
     0
340
11
  0
DIMSTYLE
105
C3
330
A
100
AcDbSymbolTableRecord
100
AcDbDimStyleTableRecord
  2
_DIMSTYLE_2
 70
     0
  3
<>
 41
15.0
 42
0.001
 43
0.0
 44
0.0
 45
0.1
 73
     0
 74
     0
 75
     1
 76
     1
 77
     2
 78
    12
140
10.0
141
0.0
147
5.0
172
     1
173
     1
174
     1
176
    30
177
    30
178
    30
271
     0
272
     0
274
     0
278
     0
279
     2
283
     0
340
53
343
B3
344
B3
371
     0
372
    18
  0
DIMSTYLE
105
D0
102
{ACAD_REACTORS
330
DD
330
D1
330
C5
330
1AE
330
1A3
330
198
330
18D
330
180
102
}
330
A
100
AcDbSymbolTableRecord
100
AcDbDimStyleTableRecord
  2
_DIMSTYLE_3
 70
     0
  3
<>
 41
15.0
 42
0.001
 43
0.0
 44
0.0
 45
0.1
 73
     0
 74
     0
 75
     1
 76
     1
 77
     2
 78
    12
140
10.0
141
0.0
147
5.0
172
     1
173
     1
174
     1
176
    30
177
    30
178
    30
271
     0
272
     0
274
     0
278
     0
279
     2
283
     0
340
53
343
B3
344
B3
371
     0
372
    18
  0
DIMSTYLE
105
DC
330
A
100
AcDbSymbolTableRecord
100
AcDbDimStyleTableRecord
  2
_DIMSTYLE_4
 70
     0
  3
<>
 41
15.0
 42
0.001
 43
0.0
 44
0.0
 45
0.1
 73
     0
 74
     0
 75
     1
 76
     1
 77
     2
 78
    12
140
10.0
141
0.0
145
1.199999999999999
147
5.0
172
     1
173
     1
174
     1
176
    30
177
    30
178
    30
271
     0
272
     0
274
     0
278
     0
279
     2
283
     0
340
53
343
B3
344
B3
371
     0
372
    18
  0
DIMSTYLE
105
111
102
{ACAD_REACTORS
330
112
102
}
330
A
100
AcDbSymbolTableRecord
100
AcDbDimStyleTableRecord
  2
_DIMSTYLE_5
 70
     0
  3
<> - 20 mm
 41
15.0
 42
0.001
 43
0.0
 44
0.0
 45
10.0
 73
     0
 74
     0
 75
     1
 76
     1
 77
     2
 78
    12
140
10.0
141
0.0
145
1.199999999999999
147
5.0
172
     1
173
     1
174
     1
176
    30
177
    30
178
    30
271
     0
272
     0
274
     0
278
     0
279
     2
283
     0
340
53
343
FF
344
FF
371
     0
372
    18
  0
ENDTAB
  0
TABLE
  2
BLOCK_RECORD
  5
1
330
0
100
AcDbSymbolTable
 70
    18
  0
BLOCK_RECORD
  5
1F
102
{ACAD_XDICTIONARY
360
1B9
102
}
330
1
100
AcDbSymbolTableRecord
100
AcDbBlockTableRecord
  2
*Model_Space
340
22
 70
     0
280
     1
281
     0
  0
BLOCK_RECORD
  5
1B
330
1
100
AcDbSymbolTableRecord
100
AcDbBlockTableRecord
  2
*Paper_Space
340
1E
 70
     0
280
     1
281
     0
  0
BLOCK_RECORD
  5
23
330
1
100
AcDbSymbolTableRecord
100
AcDbBlockTableRecord
  2
*Paper_Space0
340
26
 70
     0
280
     1
281
     0
  0
BLOCK_RECORD
  5
54
330
1
100
AcDbSymbolTableRecord
100
AcDbBlockTableRecord
  2
NSY140
340
0
 70
     4
280
     1
281
     0
  0
BLOCK_RECORD
  5
5A
330
1
100
AcDbSymbolTableRecord
100
AcDbBlockTableRecord
  2
NSY141
340
0
 70
     4
280
     1
281
     0
  0
BLOCK_RECORD
  5
62
330
1
100
AcDbSymbolTableRecord
100
AcDbBlockTableRecord
  2
NSY154
340
0
102
{BLKREFS
331
1B5
331
1B6
331
12A
331
12B
331
12C
331
12D
331
12E
331
12F
331
130
331
131
331
133
331
139
331
143
331
14B
331
14C
102
}
 70
     4
280
     1
281
     0
  0
BLOCK_RECORD
  5
83
330
1
100
AcDbSymbolTableRecord
100
AcDbBlockTableRecord
  2
HATCHING_0
340
0
102
{BLKREFS
331
B0
102
}
 70
     4
280
     1
281
     0
  0
BLOCK_RECORD
  5
B3
330
1
100
AcDbSymbolTableRecord
100
AcDbBlockTableRecord
  2
ALL_ML_STRICH
340
0
102
{BLKREFS
331
21E
331
21F
331
225
331
226
331
22C
331
22D
331
233
331
234
331
23A
331
23B
331
243
331
244
331
24A
331
24B
331
251
331
252
102
}
 70
     4
280
     1
281
     0
  0
BLOCK_RECORD
  5
B9
330
1
100
AcDbSymbolTableRecord
100
AcDbBlockTableRecord
  2
*D6
340
0
 70
     4
280
     1
281
     0
  0
BLOCK_RECORD
  5
C6
330
1
100
AcDbSymbolTableRecord
100
AcDbBlockTableRecord
  2
*D7
340
0
 70
     4
280
     1
281
     0
  0
BLOCK_RECORD
  5
D2
330
1
100
AcDbSymbolTableRecord
100
AcDbBlockTableRecord
  2
*D8
340
0
 70
     4
280
     1
281
     0
  0
BLOCK_RECORD
  5
DE
330
1
100
AcDbSymbolTableRecord
100
AcDbBlockTableRecord
  2
COMPLEXOBJECT_0
340
0
102
{BLKREFS
331
F6
102
}
 70
     4
280
     1
281
     0
  0
BLOCK_RECORD
  5
FF
330
1
100
AcDbSymbolTableRecord
100
AcDbBlockTableRecord
  2
ALL_ML_PFEIL
340
0
102
{BLKREFS
331
263
331
264
102
}
 70
     4
280
     1
281
     0
  0
BLOCK_RECORD
  5
107
330
1
100
AcDbSymbolTableRecord
100
AcDbBlockTableRecord
  2
*D11
340
0
 70
     4
280
     1
281
     0
  0
BLOCK_RECORD
  5
13A
330
1
100
AcDbSymbolTableRecord
100
AcDbBlockTableRecord
  2
COMPLEXOBJECT_1
340
0
102
{BLKREFS
331
141
102
}
 70
     4
280
     1
281
     0
  0
BLOCK_RECORD
  5
176
330
1
100
AcDbSymbolTableRecord
100
AcDbBlockTableRecord
  2
*D13
340
0
 70
     4
280
     1
281
     0
  0
BLOCK_RECORD
  5
183
330
1
100
AcDbSymbolTableRecord
100
AcDbBlockTableRecord
  2
*D14
340
0
 70
     4
280
     1
281
     0
  0
BLOCK_RECORD
  5
18E
330
1
100
AcDbSymbolTableRecord
100
AcDbBlockTableRecord
  2
*D15
340
0
 70
     4
280
     1
281
     0
  0
BLOCK_RECORD
  5
199
330
1
100
AcDbSymbolTableRecord
100
AcDbBlockTableRecord
  2
*D16
340
0
 70
     4
280
     1
281
     0
  0
BLOCK_RECORD
  5
1A4
330
1
100
AcDbSymbolTableRecord
100
AcDbBlockTableRecord
  2
*D17
340
0
 70
     4
280
     1
281
     0
  0
ENDTAB
  0
ENDSEC
  0
SECTION
  2
BLOCKS
  0
BLOCK
  5
20
330
1F
100
AcDbEntity
  8
0
100
AcDbBlockBegin
  2
*Model_Space
 70
     0
 10
0.0
 20
0.0
 30
0.0
  3
*Model_Space
  1

  0
ENDBLK
  5
21
330
1F
100
AcDbEntity
  8
0
100
AcDbBlockEnd
  0
BLOCK
  5
1C
330
1B
100
AcDbEntity
 67
     1
  8
0
100
AcDbBlockBegin
  2
*Paper_Space
 70
     0
 10
0.0
 20
0.0
 30
0.0
  3
*Paper_Space
  1

  0
ENDBLK
  5
1D
330
1B
100
AcDbEntity
 67
     1
  8
0
100
AcDbBlockEnd
  0
BLOCK
  5
24
330
23
100
AcDbEntity
 67
     1
  8
0
100
AcDbBlockBegin
  2
*Paper_Space0
 70
     0
 10
0.0
 20
0.0
 30
0.0
  3
*Paper_Space0
  1

  0
ENDBLK
  5
25
330
23
100
AcDbEntity
 67
     1
  8
0
100
AcDbBlockEnd
  0
BLOCK
  5
55
330
54
100
AcDbEntity
  8
0
100
AcDbBlockBegin
  2
NSY140
 70
     0
 10
0.0
 20
0.0
 30
0.0
  3
NSY140
  1

  0
LINE
  5
57
330
54
100
AcDbEntity
  8
0
  6
ByBlock
 62
     0
370
    -2
100
AcDbLine
 10
0.0
 20
-2.5
 30
0.0
 11
0.0
 21
2.5
 31
0.0
  0
LINE
  5
58
330
54
100
AcDbEntity
  8
0
  6
ByBlock
 62
     0
370
    -2
100
AcDbLine
 10
-2.5
 20
0.0
 30
0.0
 11
2.5
 21
0.0
 31
0.0
  0
LINE
  5
59
330
54
100
AcDbEntity
  8
0
  6
ByBlock
 62
     0
370
    -2
100
AcDbLine
 10
-1.499999999999999
 20
-1.499999999999999
 30
0.0
 11
1.499999999999999
 21
1.499999999999999
 31
0.0
  0
ENDBLK
  5
56
330
54
100
AcDbEntity
  8
0
100
AcDbBlockEnd
  0
BLOCK
  5
5B
330
5A
100
AcDbEntity
  8
0
100
AcDbBlockBegin
  2
NSY141
 70
     0
 10
0.0
 20
0.0
 30
0.0
  3
NSY141
  1

  0
LINE
  5
5D
330
5A
100
AcDbEntity
  8
0
  6
ByBlock
 62
     0
370
    -2
100
AcDbLine
 10
0.0
 20
-2.5
 30
0.0
 11
0.0
 21
2.5
 31
0.0
  0
LINE
  5
5E
330
5A
100
AcDbEntity
  8
0
  6
ByBlock
 62
     0
370
    -2
100
AcDbLine
 10
0.0
 20
0.0
 30
0.0
 11
-3.75
 21
0.5
 31
0.0
  0
LINE
  5
5F
330
5A
100
AcDbEntity
  8
0
  6
ByBlock
 62
     0
370
    -2
100
AcDbLine
 10
-3.75
 20
0.5
 30
0.0
 11
-3.75
 21
-0.5
 31
0.0
  0
LINE
  5
60
330
5A
100
AcDbEntity
  8
0
  6
ByBlock
 62
     0
370
    -2
100
AcDbLine
 10
-3.75
 20
-0.5
 30
0.0
 11
0.0
 21
0.0
 31
0.0
  0
LINE
  5
61
330
5A
100
AcDbEntity
  8
0
  6
ByBlock
 62
     0
370
    -2
100
AcDbLine
 10
0.0
 20
0.0
 30
0.0
 11
-5.25
 21
0.0
 31
0.0
  0
ENDBLK
  5
5C
330
5A
100
AcDbEntity
  8
0
100
AcDbBlockEnd
  0
BLOCK
  5
63
330
62
100
AcDbEntity
  8
0
100
AcDbBlockBegin
  2
NSY154
 70
     0
 10
0.0
 20
0.0
 30
0.0
  3
NSY154
  1

  0
LINE
  5
65
330
62
100
AcDbEntity
  8
0
  6
ByBlock
 62
     0
370
    -2
100
AcDbLine
 10
-0.0000000000000002
 20
-2.625
 30
0.0
 11
0.0000000000000002
 21
2.625
 31
0.0
  0
CIRCLE
  5
66
330
62
100
AcDbEntity
  8
0
  6
ByBlock
 62
     0
370
    -2
100
AcDbCircle
 10
0.0
 20
0.0
 30
0.0
 40
2.625
  0
LINE
  5
67
330
62
100
AcDbEntity
  8
0
  6
ByBlock
 62
     0
370
    -2
100
AcDbLine
 10
-2.621249999999999
 20
0.0000000000000002
 30
0.0
 11
2.625
 21
-0.0000000000000002
 31
0.0
  0
ARC
  5
68
330
62
100
AcDbEntity
  8
0
  6
ByBlock
 62
     0
370
    -2
100
AcDbCircle
 10
0.0
 20
0.0
 30
0.0
 40
0.375
100
AcDbArc
 50
0.0
 51
90.0
  0
ARC
  5
69
330
62
100
AcDbEntity
  8
0
  6
ByBlock
 62
     0
370
    -2
100
AcDbCircle
 10
0.0
 20
0.0
 30
0.0
 40
0.75
100
AcDbArc
 50
0.0
 51
90.0
  0
ARC
  5
6A
330
62
100
AcDbEntity
  8
0
  6
ByBlock
 62
     0
370
    -2
100
AcDbCircle
 10
0.0
 20
0.0
 30
0.0
 40
1.125
100
AcDbArc
 50
0.0
 51
90.0
  0
ARC
  5
6B
330
62
100
AcDbEntity
  8
0
  6
ByBlock
 62
     0
370
    -2
100
AcDbCircle
 10
0.0
 20
0.0
 30
0.0
 40
1.875
100
AcDbArc
 50
0.0
 51
90.0
  0
ARC
  5
6C
330
62
100
AcDbEntity
  8
0
  6
ByBlock
 62
     0
370
    -2
100
AcDbCircle
 10
0.0
 20
0.0
 30
0.0
 40
1.5
100
AcDbArc
 50
0.0
 51
90.0
  0
ARC
  5
6D
330
62
100
AcDbEntity
  8
0
  6
ByBlock
 62
     0
370
    -2
100
AcDbCircle
 10
0.0
 20
0.0
 30
0.0
 40
2.25
100
AcDbArc
 50
0.0
 51
90.0
  0
ARC
  5
6E
330
62
100
AcDbEntity
  8
0
  6
ByBlock
 62
     0
370
    -2
100
AcDbCircle
 10
0.0
 20
0.0
 30
0.0
 40
0.375
100
AcDbArc
 50
180.0
 51
270.0
  0
ARC
  5
6F
330
62
100
AcDbEntity
  8
0
  6
ByBlock
 62
     0
370
    -2
100
AcDbCircle
 10
0.0
 20
0.0
 30
0.0
 40
0.75
100
AcDbArc
 50
180.0
 51
270.0
  0
ARC
  5
70
330
62
100
AcDbEntity
  8
0
  6
ByBlock
 62
     0
370
    -2
100
AcDbCircle
 10
0.0
 20
0.0
 30
0.0
 40
1.125
100
AcDbArc
 50
180.0
 51
270.0
  0
ARC
  5
71
330
62
100
AcDbEntity
  8
0
  6
ByBlock
 62
     0
370
    -2
100
AcDbCircle
 10
0.0
 20
0.0
 30
0.0
 40
1.875
100
AcDbArc
 50
180.0
 51
270.0
  0
ARC
  5
72
330
62
100
AcDbEntity
  8
0
  6
ByBlock
 62
     0
370
    -2
100
AcDbCircle
 10
0.0
 20
0.0
 30
0.0
 40
1.5
100
AcDbArc
 50
180.0
 51
270.0
  0
ARC
  5
73
330
62
100
AcDbEntity
  8
0
  6
ByBlock
 62
     0
370
    -2
100
AcDbCircle
 10
0.0
 20
0.0
 30
0.0
 40
2.25
100
AcDbArc
 50
180.0
 51
270.0
  0
LINE
  5
74
330
62
100
AcDbEntity
  8
0
  6
ByBlock
 62
     0
370
    -2
100
AcDbLine
 10
-0.0000000000000002
 20
-3.75
 30
0.0
 11
0.0000000000000002
 21
3.75
 31
0.0
  0
LINE
  5
75
330
62
100
AcDbEntity
  8
0
  6
ByBlock
 62
     0
370
    -2
100
AcDbLine
 10
-3.75
 20
0.0000000000000002
 30
0.0
 11
3.75
 21
-0.0000000000000002
 31
0.0
  0
ENDBLK
  5
64
330
62
100
AcDbEntity
  8
0
100
AcDbBlockEnd
  0
BLOCK
  5
84
330
83
100
AcDbEntity
  8
0
100
AcDbBlockBegin
  2
HATCHING_0
 70
     0
 10
0.0
 20
0.0
 30
0.0
  3
HATCHING_0
  1

  0
LINE
  5
86
330
83
100
AcDbEntity
  8
KANAALPLAATVLOEREN
  6
Continuous
 62
     7
370
    25
100
AcDbLine
 10
573.6075365390298
 20
573.6075365390298
 30
0.0
 11
639.7150771976599
 21
639.7150771976599
 31
0.0
  0
LINE
  5
87
330
83
100
AcDbEntity
  8
KANAALPLAATVLOEREN
  6
Continuous
 62
     7
370
    25
100
AcDbLine
 10
704.7150730780593
 20
704.7150730780592
 30
0.0
 11
720.2513049446846
 21
720.2513049446846
 31
0.0
  0
LINE
  5
88
330
83
100
AcDbEntity
  8
KANAALPLAATVLOEREN
  6
Continuous
 62
     7
370
    25
100
AcDbLine
 10
720.2513049446846
 20
720.2513049446846
 30
0.0
 11
724.5923907861073
 21
724.5923907861071
 31
0.0
  0
LINE
  5
89
330
83
100
AcDbEntity
  8
KANAALPLAATVLOEREN
  6
Continuous
 62
     7
370
    25
100
AcDbLine
 10
724.5923907861073
 20
724.5923907861071
 30
0.0
 11
772.5000129489459
 21
772.5000129489458
 31
0.0
  0
LINE
  5
8A
330
83
100
AcDbEntity
  8
KANAALPLAATVLOEREN
  6
Continuous
 62
     7
370
    25
100
AcDbLine
 10
749.2766952966369
 20
572.5
 30
0.0
 11
781.0300913178092
 21
604.2533960211723
 31
0.0
  0
LINE
  5
8B
330
83
100
AcDbEntity
  8
KANAALPLAATVLOEREN
  6
Continuous
 62
     7
370
    25
100
AcDbLine
 10
802.9616597408981
 20
626.1849644442612
 30
0.0
 11
839.7150758558417
 21
662.9383805592047
 31
0.0
  0
LINE
  5
8C
330
83
100
AcDbEntity
  8
KANAALPLAATVLOEREN
  6
Continuous
 62
     7
370
    25
100
AcDbLine
 10
901.0286028356031
 20
724.2519075389663
 30
0.0
 11
922.2150731041544
 21
745.4383778075176
 31
0.0
  0
LINE
  5
8D
330
83
100
AcDbEntity
  8
KANAALPLAATVLOEREN
  6
Continuous
 62
     7
370
    25
100
AcDbLine
 10
589.7150730780594
 20
766.4917683746963
 30
0.0
 11
595.7233051290014
 21
772.5000004256383
 31
0.0
  0
ENDBLK
  5
85
330
83
100
AcDbEntity
  8
0
100
AcDbBlockEnd
  0
BLOCK
  5
B4
330
B3
100
AcDbEntity
  8
0
100
AcDbBlockBegin
  2
ALL_ML_STRICH
 70
     0
 10
0.0
 20
0.0
 30
0.0
  3
ALL_ML_STRICH
  1

  0
LINE
  5
B6
330
B3
100
AcDbEntity
  8
0
  6
ByBlock
 62
     0
370
    -2
100
AcDbLine
 10
-1.0
 20
0.0
 30
0.0
 11
0.5
 21
0.0
 31
0.0
  0
LINE
  5
B7
330
B3
100
AcDbEntity
  8
0
  6
ByBlock
 62
     0
370
    -2
100
AcDbLine
 10
0.0
 20
-0.5
 30
0.0
 11
0.0
 21
0.5
 31
0.0
  0
LINE
  5
B8
330
B3
100
AcDbEntity
  8
0
  6
ByBlock
 62
     0
370
    -2
100
AcDbLine
 10
-0.3
 20
-0.3
 30
0.0
 11
0.3
 21
0.3
 31
0.0
  0
ENDBLK
  5
B5
330
B3
100
AcDbEntity
  8
0
100
AcDbBlockEnd
  0
BLOCK
  5
BA
330
B9
100
AcDbEntity
  8
0
100
AcDbBlockBegin
  2
*D6
 70
     1
 10
0.0
 20
0.0
 30
0.0
  3
*D6
  1

  0
LINE
  5
22A
330
B9
100
AcDbEntity
  8
Maatlijnen 1_5
  6
Continuous
 62
    30
440
 16777216
370
     0
100
AcDbLine
 10
952.2150729102801
 20
587.4999971010804
 30
0.0
 11
952.2150729102801
 21
757.5000239558615
 31
0.0
  0
MTEXT
  5
22B
330
B9
100
AcDbEntity
  8
Maatlijnen 1_5
  6
Continuous
 62
    30
440
 16777216
370
    18
100
AcDbMText
 10
942.0785541389486
 20
672.2116146240339
 30
0.0
 40
10.0
 41
21.0
 46
0.0
 71
     5
 72
     1
  1
200
  7
Trebuchet MS
 11
0.0000000000000001
 21
1.0
 31
0.0
 73
     1
 44
1.0
  0
INSERT
  5
22C
330
B9
100
AcDbEntity
  8
Maatlijnen 1_5
  6
Continuous
 62
    30
440
 16777216
370
     0
100
AcDbBlockReference
  2
ALL_ML_STRICH
 10
952.2150729102801
 20
572.4999971010804
 30
0.0
 41
15.0
 42
15.0
 43
15.0
 50
270.0
  0
INSERT
  5
22D
330
B9
100
AcDbEntity
  8
Maatlijnen 1_5
  6
Continuous
 62
    30
440
 16777216
370
     0
100
AcDbBlockReference
  2
ALL_ML_STRICH
 10
952.2150729102801
 20
772.5000239558617
 30
0.0
 41
15.0
 42
15.0
 43
15.0
 50
90.0
  0
POINT
  5
22E
330
B9
100
AcDbEntity
  8
DEFPOINTS
  6
Continuous
 62
     0
440
 16777216
100
AcDbPoint
 10
922.21607291028
 20
572.4999971010804
 30
0.0
  0
POINT
  5
22F
330
B9
100
AcDbEntity
  8
DEFPOINTS
  6
Continuous
 62
     0
440
 16777216
100
AcDbPoint
 10
922.2160733109925
 20
772.5000239558617
 30
0.0
  0
POINT
  5
230
330
B9
100
AcDbEntity
  8
DEFPOINTS
  6
Continuous
 62
     0
440
 16777216
100
AcDbPoint
 10
952.2150729102801
 20
772.5000239558617
 30
0.0
  0
ENDBLK
  5
BB
330
B9
100
AcDbEntity
  8
0
100
AcDbBlockEnd
  0
BLOCK
  5
C7
330
C6
100
AcDbEntity
  8
0
100
AcDbBlockBegin
  2
*D7
 70
     1
 10
0.0
 20
0.0
 30
0.0
  3
*D7
  1

  0
LINE
  5
223
330
C6
100
AcDbEntity
  8
Maatlijnen 1_5
  6
Continuous
 62
    30
440
 16777216
370
     0
100
AcDbLine
 10
952.2150729102801
 20
787.5000239558617
 30
0.0
 11
952.2150729102801
 21
807.5000239558544
 31
0.0
  0
MTEXT
  5
224
330
C6
100
AcDbEntity
  8
Maatlijnen 1_5
  6
Continuous
 62
    30
440
 16777216
370
    18
100
AcDbMText
 10
942.0785541389486
 20
797.3771570616596
 30
0.0
 40
10.0
 41
14.0
 46
0.0
 71
     5
 72
     1
  1
50
  7
Trebuchet MS
 11
0.0000000000000001
 21
1.0
 31
0.0
 73
     1
 44
1.0
  0
INSERT
  5
225
330
C6
100
AcDbEntity
  8
Maatlijnen 1_5
  6
Continuous
 62
    30
440
 16777216
370
     0
100
AcDbBlockReference
  2
ALL_ML_STRICH
 10
952.2150729102801
 20
772.5000239558617
 30
0.0
 41
15.0
 42
15.0
 43
15.0
 50
270.0
  0
INSERT
  5
226
330
C6
100
AcDbEntity
  8
Maatlijnen 1_5
  6
Continuous
 62
    30
440
 16777216
370
     0
100
AcDbBlockReference
  2
ALL_ML_STRICH
 10
952.2150729102801
 20
822.5000239558545
 30
0.0
 41
15.0
 42
15.0
 43
15.0
 50
90.0
  0
POINT
  5
227
330
C6
100
AcDbEntity
  8
DEFPOINTS
  6
Continuous
 62
     0
440
 16777216
100
AcDbPoint
 10
922.2160733109925
 20
772.5000239558617
 30
0.0
  0
POINT
  5
228
330
C6
100
AcDbEntity
  8
DEFPOINTS
  6
Continuous
 62
     0
440
 16777216
100
AcDbPoint
 10
922.2160733109925
 20
822.5000239558545
 30
0.0
  0
POINT
  5
229
330
C6
100
AcDbEntity
  8
DEFPOINTS
  6
Continuous
 62
     0
440
 16777216
100
AcDbPoint
 10
952.2150729102801
 20
822.5000239558545
 30
0.0
  0
ENDBLK
  5
C8
330
C6
100
AcDbEntity
  8
0
100
AcDbBlockEnd
  0
BLOCK
  5
D3
330
D2
100
AcDbEntity
  8
0
100
AcDbBlockBegin
  2
*D8
 70
     1
 10
0.0
 20
0.0
 30
0.0
  3
*D8
  1

  0
LINE
  5
21A
330
D2
100
AcDbEntity
  8
Maatlijnen 1_5
  6
Continuous
 62
    30
440
 16777216
370
     0
100
AcDbLine
 10
952.2150729102801
 20
807.5000239558544
 30
0.0
 11
952.2150729102801
 21
792.5000239558544
 31
0.0
  0
LINE
  5
21B
330
D2
100
AcDbEntity
  8
Maatlijnen 1_5
  6
Continuous
 62
    30
440
 16777216
370
     0
100
AcDbLine
 10
952.2150729102801
 20
857.5000239558544
 30
0.0
 11
952.2150729102801
 21
872.5000239558545
 31
0.0
  0
MTEXT
  5
21C
330
D2
100
AcDbEntity
  8
Maatlijnen 1_5
  6
Continuous
 62
    30
440
 16777216
370
    18
100
AcDbMText
 10
942.0785541389486
 20
854.0000239558539
 30
0.0
 40
10.0
 41
14.0
 46
0.0
 71
     5
 72
     1
  1
20
  7
Trebuchet MS
 11
0.0000000000000001
 21
1.0
 31
0.0
 73
     1
 44
1.0
  0
LINE
  5
21D
330
D2
100
AcDbEntity
  8
Maatlijnen 1_5
  6
Continuous
 62
    30
440
 16777216
370
     0
100
AcDbLine
 10
952.2150729102801
 20
822.5000239558545
 30
0.0
 11
952.2150729102801
 21
842.5000239558544
 31
0.0
  0
INSERT
  5
21E
330
D2
100
AcDbEntity
  8
Maatlijnen 1_5
  6
Continuous
 62
    30
440
 16777216
370
     0
100
AcDbBlockReference
  2
ALL_ML_STRICH
 10
952.2150729102801
 20
822.5000239558545
 30
0.0
 41
15.0
 42
15.0
 43
15.0
 50
90.0
  0
INSERT
  5
21F
330
D2
100
AcDbEntity
  8
Maatlijnen 1_5
  6
Continuous
 62
    30
440
 16777216
370
     0
100
AcDbBlockReference
  2
ALL_ML_STRICH
 10
952.2150729102801
 20
842.5000239558544
 30
0.0
 41
15.0
 42
15.0
 43
15.0
 50
270.0
  0
POINT
  5
220
330
D2
100
AcDbEntity
  8
DEFPOINTS
  6
Continuous
 62
     0
440
 16777216
100
AcDbPoint
 10
922.2160733109925
 20
822.5000239558545
 30
0.0
  0
POINT
  5
221
330
D2
100
AcDbEntity
  8
DEFPOINTS
  6
Continuous
 62
     0
440
 16777216
100
AcDbPoint
 10
922.2160733109925
 20
842.5000239558544
 30
0.0
  0
POINT
  5
222
330
D2
100
AcDbEntity
  8
DEFPOINTS
  6
Continuous
 62
     0
440
 16777216
100
AcDbPoint
 10
952.2150729102801
 20
842.5000239558544
 30
0.0
  0
ENDBLK
  5
D4
330
D2
100
AcDbEntity
  8
0
100
AcDbBlockEnd
  0
BLOCK
  5
DF
330
DE
100
AcDbEntity
  8
0
100
AcDbBlockBegin
  2
COMPLEXOBJECT_0
 70
     0
 10
0.0
 20
0.0
 30
0.0
  3
COMPLEXOBJECT_0
  1

  0
LINE
  5
E1
330
DE
100
AcDbEntity
  8
DILALATIEVOEG EN AFDICHTING
  6
Continuous
 62
    30
370
    18
100
AcDbLine
 10
625.7150736788644
 20
564.9999833377342
 30
0.0
 11
603.7150736788644
 21
564.9999833377342
 31
0.0
  0
LINE
  5
E2
330
DE
100
AcDbEntity
  8
DILALATIEVOEG EN AFDICHTING
  6
Continuous
 62
    30
370
    18
100
AcDbLine
 10
625.7150736788644
 20
557.4999833377378
 30
0.0
 11
603.7150736788644
 21
557.4999833377378
 31
0.0
  0
CIRCLE
  5
E3
330
DE
100
AcDbEntity
  8
DILALATIEVOEG EN AFDICHTING
  6
Continuous
 62
    30
370
    18
100
AcDbCircle
 10
614.7150736788644
 20
550.199983337734
 30
0.0
 40
1.950000000000045
  0
CIRCLE
  5
E4
330
DE
100
AcDbEntity
  8
DILALATIEVOEG EN AFDICHTING
  6
Continuous
 62
    30
370
    18
100
AcDbCircle
 10
614.7150736788644
 20
541.8749833377368
 30
0.0
 40
3.5
  0
CIRCLE
  5
E5
330
DE
100
AcDbEntity
  8
DILALATIEVOEG EN AFDICHTING
  6
Continuous
 62
    30
370
    18
100
AcDbCircle
 10
614.7150736788644
 20
520.9999833377369
 30
0.0
 40
3.5
  0
CIRCLE
  5
E6
330
DE
100
AcDbEntity
  8
DILALATIEVOEG EN AFDICHTING
  6
Continuous
 62
    30
370
    18
100
AcDbCircle
 10
614.7150736788644
 20
511.5499833377326
 30
0.0
 40
1.950000000000045
  0
LINE
  5
E7
330
DE
100
AcDbEntity
  8
DILALATIEVOEG EN AFDICHTING
  6
Continuous
 62
    30
370
    18
100
AcDbLine
 10
603.7150736788644
 20
572.4999833377341
 30
0.0
 11
603.7150736788644
 21
553.9999833377378
 31
0.0
  0
ARC
  5
E8
330
DE
100
AcDbEntity
  8
DILALATIEVOEG EN AFDICHTING
  6
Continuous
 62
    30
370
    18
100
AcDbCircle
 10
603.7150736788644
 20
550.4999833377369
 30
0.0
 40
3.5
100
AcDbArc
 50
270.0
 51
90.0
  0
LINE
  5
E9
330
DE
100
AcDbEntity
  8
DILALATIEVOEG EN AFDICHTING
  6
Continuous
 62
    30
370
    18
100
AcDbLine
 10
603.7150736788644
 20
546.9999833377378
 30
0.0
 11
603.7150736788644
 21
535.4999833377378
 31
0.0
  0
ARC
  5
EA
330
DE
100
AcDbEntity
  8
DILALATIEVOEG EN AFDICHTING
  6
Continuous
 62
    30
370
    18
100
AcDbCircle
 10
603.7150736788644
 20
531.9999833377369
 30
0.0
 40
3.5
100
AcDbArc
 50
270.0
 51
90.0
  0
LINE
  5
EB
330
DE
100
AcDbEntity
  8
DILALATIEVOEG EN AFDICHTING
  6
Continuous
 62
    30
370
    18
100
AcDbLine
 10
603.7150736788644
 20
528.4999833377378
 30
0.0
 11
603.7150736788644
 21
516.9999833377378
 31
0.0
  0
ARC
  5
EC
330
DE
100
AcDbEntity
  8
DILALATIEVOEG EN AFDICHTING
  6
Continuous
 62
    30
370
    18
100
AcDbCircle
 10
603.7150736788644
 20
513.4999833377369
 30
0.0
 40
3.5
100
AcDbArc
 50
270.0
 51
90.0
  0
LWPOLYLINE
  5
ED
330
DE
100
AcDbEntity
  8
DILALATIEVOEG EN AFDICHTING
  6
Continuous
 62
    30
370
    18
100
AcDbPolyline
 90
        4
 70
     0
 43
0.0
 10
603.7150736788644
 20
509.9999833377369
 10
603.7150736788644
 20
504.2499833377369
 10
625.7150736788644
 20
504.2499833377369
 10
625.7150736788644
 20
509.9999833377369
  0
ARC
  5
EE
330
DE
100
AcDbEntity
  8
DILALATIEVOEG EN AFDICHTING
  6
Continuous
 62
    30
370
    18
100
AcDbCircle
 10
625.7150736788644
 20
513.4999833377369
 30
0.0
 40
3.5
100
AcDbArc
 50
90.0
 51
270.0
  0
LINE
  5
EF
330
DE
100
AcDbEntity
  8
DILALATIEVOEG EN AFDICHTING
  6
Continuous
 62
    30
370
    18
100
AcDbLine
 10
625.7150736788644
 20
516.9999833377378
 30
0.0
 11
625.7150736788644
 21
528.4999833377378
 31
0.0
  0
ARC
  5
F0
330
DE
100
AcDbEntity
  8
DILALATIEVOEG EN AFDICHTING
  6
Continuous
 62
    30
370
    18
100
AcDbCircle
 10
625.7150736788644
 20
531.9999833377369
 30
0.0
 40
3.5
100
AcDbArc
 50
90.0
 51
270.0
  0
LINE
  5
F1
330
DE
100
AcDbEntity
  8
DILALATIEVOEG EN AFDICHTING
  6
Continuous
 62
    30
370
    18
100
AcDbLine
 10
625.7150736788644
 20
535.4999833377378
 30
0.0
 11
625.7150736788644
 21
546.9999833377378
 31
0.0
  0
ARC
  5
F2
330
DE
100
AcDbEntity
  8
DILALATIEVOEG EN AFDICHTING
  6
Continuous
 62
    30
370
    18
100
AcDbCircle
 10
625.7150736788644
 20
550.4999833377369
 30
0.0
 40
3.5
100
AcDbArc
 50
90.0
 51
270.0
  0
LINE
  5
F3
330
DE
100
AcDbEntity
  8
DILALATIEVOEG EN AFDICHTING
  6
Continuous
 62
    30
370
    18
100
AcDbLine
 10
625.7150736788644
 20
553.9999833377378
 30
0.0
 11
625.7150736788644
 21
572.4999833377341
 31
0.0
  0
LWPOLYLINE
  5
F4
330
DE
100
AcDbEntity
  8
DILALATIEVOEG EN AFDICHTING
  6
Continuous
 62
    30
370
    18
100
AcDbPolyline
 90
        2
 70
     1
 43
0.0
 10
625.7150736788644
 20
504.2499833377369
 10
625.7150736788644
 20
504.2499833377369
  0
LINE
  5
F5
330
DE
100
AcDbEntity
  8
DILALATIEVOEG EN AFDICHTING
  6
Continuous
 62
    30
370
    18
100
AcDbLine
 10
603.7150736788644
 20
572.4999833377341
 30
0.0
 11
625.7150736788644
 21
572.4999833377341
 31
0.0
  0
ENDBLK
  5
E0
330
DE
100
AcDbEntity
  8
0
100
AcDbBlockEnd
  0
BLOCK
  5
100
330
FF
100
AcDbEntity
  8
0
100
AcDbBlockBegin
  2
ALL_ML_PFEIL
 70
     0
 10
0.0
 20
0.0
 30
0.0
  3
ALL_ML_PFEIL
  1

  0
LINE
  5
102
330
FF
100
AcDbEntity
  8
0
  6
ByBlock
 62
     0
370
    -2
100
AcDbLine
 10
-1.0
 20
0.0
 30
0.0
 11
0.0
 21
0.0
 31
0.0
  0
LINE
  5
103
330
FF
100
AcDbEntity
  8
0
  6
ByBlock
 62
     0
370
    -2
100
AcDbLine
 10
0.0
 20
-0.5
 30
0.0
 11
0.0
 21
0.5
 31
0.0
  0
LINE
  5
104
330
FF
100
AcDbEntity
  8
0
  6
ByBlock
 62
     0
370
    -2
100
AcDbLine
 10
0.0
 20
0.0
 30
0.0
 11
-0.75
 21
0.1
 31
0.0
  0
LINE
  5
105
330
FF
100
AcDbEntity
  8
0
  6
ByBlock
 62
     0
370
    -2
100
AcDbLine
 10
0.0
 20
0.0
 30
0.0
 11
-0.75
 21
-0.1
 31
0.0
  0
LINE
  5
106
330
FF
100
AcDbEntity
  8
0
  6
ByBlock
 62
     0
370
    -2
100
AcDbLine
 10
-0.75
 20
-0.1
 30
0.0
 11
-0.75
 21
0.1
 31
0.0
  0
ENDBLK
  5
101
330
FF
100
AcDbEntity
  8
0
100
AcDbBlockEnd
  0
BLOCK
  5
108
330
107
100
AcDbEntity
  8
0
100
AcDbBlockBegin
  2
*D11
 70
     1
 10
0.0
 20
0.0
 30
0.0
  3
*D11
  1

  0
LINE
  5
25F
330
107
100
AcDbEntity
  8
Maatlijnen 1_5
  6
Continuous
 62
    30
440
 16777216
370
     0
100
AcDbLine
 10
694.7150736788646
 20
542.4999833377298
 30
0.0
 11
694.7150736788646
 21
527.4999833377298
 31
0.0
  0
LINE
  5
260
330
107
100
AcDbEntity
  8
Maatlijnen 1_5
  6
Continuous
 62
    30
440
 16777216
370
     0
100
AcDbLine
 10
694.7150736788646
 20
587.4999826429196
 30
0.0
 11
694.7150736788646
 21
602.4999826429195
 31
0.0
  0
MTEXT
  5
261
330
107
100
AcDbEntity
  8
Maatlijnen 1_5
  6
Continuous
 62
    30
440
 16777216
370
    18
100
AcDbMText
 10
684.5785549075335
 20
513.1211437472859
 30
0.0
 40
10.0
 41
70.0
 46
0.0
 71
     5
 72
     1
  1
10 - 20 mm
  7
Trebuchet MS
 11
0.0000000000000001
 21
1.0
 31
0.0
 73
     1
 44
1.0
  0
LINE
  5
262
330
107
100
AcDbEntity
  8
Maatlijnen 1_5
  6
Continuous
 62
    30
440
 16777216
370
     0
100
AcDbLine
 10
694.7150736788646
 20
557.4999833377298
 30
0.0
 11
694.7150736788646
 21
572.4999826429195
 31
0.0
  0
INSERT
  5
263
330
107
100
AcDbEntity
  8
Maatlijnen 1_5
  6
Continuous
 62
    30
440
 16777216
370
     0
100
AcDbBlockReference
  2
ALL_ML_PFEIL
 10
694.7150736788646
 20
557.4999833377298
 30
0.0
 41
15.0
 42
15.0
 43
15.0
 50
90.0
  0
INSERT
  5
264
330
107
100
AcDbEntity
  8
Maatlijnen 1_5
  6
Continuous
 62
    30
440
 16777216
370
     0
100
AcDbBlockReference
  2
ALL_ML_PFEIL
 10
694.7150736788646
 20
572.4999826429195
 30
0.0
 41
15.0
 42
15.0
 43
15.0
 50
270.0
  0
POINT
  5
265
330
107
100
AcDbEntity
  8
DEFPOINTS
  6
Continuous
 62
     0
440
 16777216
100
AcDbPoint
 10
684.7160736788646
 20
557.4999833377298
 30
0.0
  0
POINT
  5
266
330
107
100
AcDbEntity
  8
DEFPOINTS
  6
Continuous
 62
     0
440
 16777216
100
AcDbPoint
 10
684.7160736788646
 20
572.4999826429195
 30
0.0
  0
POINT
  5
267
330
107
100
AcDbEntity
  8
DEFPOINTS
  6
Continuous
 62
     0
440
 16777216
100
AcDbPoint
 10
694.7150736788646
 20
572.4999826429195
 30
0.0
  0
ENDBLK
  5
109
330
107
100
AcDbEntity
  8
0
100
AcDbBlockEnd
  0
BLOCK
  5
13B
330
13A
100
AcDbEntity
  8
0
100
AcDbBlockBegin
  2
COMPLEXOBJECT_1
 70
     0
 10
0.0
 20
0.0
 30
0.0
  3
COMPLEXOBJECT_1
  1

  0
LINE
  5
13D
330
13A
100
AcDbEntity
  8
DILALATIEVOEG EN AFDICHTING
  6
VERDECKT2_S2
 62
     5
370
    13
100
AcDbLine
 10
616.2150736788644
 20
572.4999833377341
 30
0.0
 11
616.2150736788644
 21
587.4999833377342
 31
0.0
  0
LINE
  5
13E
330
13A
100
AcDbEntity
  8
DILALATIEVOEG EN AFDICHTING
  6
VERDECKT2_S2
 62
     5
370
    13
100
AcDbLine
 10
614.7150736788644
 20
572.4999833377341
 30
0.0
 11
614.7150736788644
 21
602.4999833377342
 31
0.0
  0
LINE
  5
13F
330
13A
100
AcDbEntity
  8
DILALATIEVOEG EN AFDICHTING
  6
VERDECKT2_S2
 62
     5
370
    13
100
AcDbLine
 10
612.2150736788644
 20
572.4999833377341
 30
0.0
 11
617.2150736788644
 21
572.4999833377341
 31
0.0
  0
LINE
  5
140
330
13A
100
AcDbEntity
  8
DILALATIEVOEG EN AFDICHTING
  6
VERDECKT2_S2
 62
     5
370
    13
100
AcDbLine
 10
613.2150736788644
 20
572.4999833377341
 30
0.0
 11
613.2150736788644
 21
587.4999833377342
 31
0.0
  0
ENDBLK
  5
13C
330
13A
100
AcDbEntity
  8
0
100
AcDbBlockEnd
  0
BLOCK
  5
177
330
176
100
AcDbEntity
  8
0
100
AcDbBlockBegin
  2
*D13
 70
     1
 10
0.0
 20
0.0
 30
0.0
  3
*D13
  1

  0
LINE
  5
24F
330
176
100
AcDbEntity
  8
Maatlijnen 1_5
  6
Continuous
 62
    30
440
 16777216
370
     0
100
AcDbLine
 10
299.7153315356882
 20
192.5000122970814
 30
0.0
 11
649.7185790937074
 21
192.5000122970814
 31
0.0
  0
MTEXT
  5
250
330
176
100
AcDbEntity
  8
Maatlijnen 1_5
  6
Continuous
 62
    30
440
 16777216
370
    18
100
AcDbMText
 10
474.4285594102609
 20
202.6365310684125
 30
0.0
 40
10.0
 41
21.0
 46
0.0
 71
     5
 72
     1
  1
380
  7
Trebuchet MS
 73
     1
 44
1.0
  0
INSERT
  5
251
330
176
100
AcDbEntity
  8
Maatlijnen 1_5
  6
Continuous
 62
    30
440
 16777216
370
     0
100
AcDbBlockReference
  2
ALL_ML_STRICH
 10
284.7153315356882
 20
192.5000122970814
 30
0.0
 41
15.0
 42
15.0
 43
15.0
 50
180.0
  0
INSERT
  5
252
330
176
100
AcDbEntity
  8
Maatlijnen 1_5
  6
Continuous
 62
    30
440
 16777216
370
     0
100
AcDbBlockReference
  2
ALL_ML_STRICH
 10
664.7185790937073
 20
192.5000122970814
 30
0.0
 41
15.0
 42
15.0
 43
15.0
  0
POINT
  5
253
330
176
100
AcDbEntity
  8
DEFPOINTS
  6
Continuous
 62
     0
440
 16777216
100
AcDbPoint
 10
284.7153315356882
 20
252.4990122970778
 30
0.0
  0
POINT
  5
254
330
176
100
AcDbEntity
  8
DEFPOINTS
  6
Continuous
 62
     0
440
 16777216
100
AcDbPoint
 10
664.7185790937073
 20
252.4990122970814
 30
0.0
  0
POINT
  5
255
330
176
100
AcDbEntity
  8
DEFPOINTS
  6
Continuous
 62
     0
440
 16777216
100
AcDbPoint
 10
664.7185790937073
 20
192.5000122970814
 30
0.0
  0
ENDBLK
  5
178
330
176
100
AcDbEntity
  8
0
100
AcDbBlockEnd
  0
BLOCK
  5
184
330
183
100
AcDbEntity
  8
0
100
AcDbBlockBegin
  2
*D14
 70
     1
 10
0.0
 20
0.0
 30
0.0
  3
*D14
  1

  0
LINE
  5
248
330
183
100
AcDbEntity
  8
Maatlijnen 1_5
  6
Continuous
 62
    30
440
 16777216
370
     0
100
AcDbLine
 10
299.7153315356882
 20
222.5000122970814
 30
0.0
 11
369.7153315356882
 21
222.5000122970814
 31
0.0
  0
MTEXT
  5
249
330
183
100
AcDbEntity
  8
Maatlijnen 1_5
  6
Continuous
 62
    30
440
 16777216
370
    18
100
AcDbMText
 10
334.4269356312513
 20
232.6365310684125
 30
0.0
 40
10.0
 41
21.0
 46
0.0
 71
     5
 72
     1
  1
100
  7
Trebuchet MS
 73
     1
 44
1.0
  0
INSERT
  5
24A
330
183
100
AcDbEntity
  8
Maatlijnen 1_5
  6
Continuous
 62
    30
440
 16777216
370
     0
100
AcDbBlockReference
  2
ALL_ML_STRICH
 10
284.7153315356882
 20
222.5000122970814
 30
0.0
 41
15.0
 42
15.0
 43
15.0
 50
180.0
  0
INSERT
  5
24B
330
183
100
AcDbEntity
  8
Maatlijnen 1_5
  6
Continuous
 62
    30
440
 16777216
370
     0
100
AcDbBlockReference
  2
ALL_ML_STRICH
 10
384.7153315356882
 20
222.5000122970814
 30
0.0
 41
15.0
 42
15.0
 43
15.0
  0
POINT
  5
24C
330
183
100
AcDbEntity
  8
DEFPOINTS
  6
Continuous
 62
     0
440
 16777216
100
AcDbPoint
 10
284.7153315356882
 20
252.4990122970778
 30
0.0
  0
POINT
  5
24D
330
183
100
AcDbEntity
  8
DEFPOINTS
  6
Continuous
 62
     0
440
 16777216
100
AcDbPoint
 10
384.7153315356882
 20
252.4990122970778
 30
0.0
  0
POINT
  5
24E
330
183
100
AcDbEntity
  8
DEFPOINTS
  6
Continuous
 62
     0
440
 16777216
100
AcDbPoint
 10
384.7153315356882
 20
222.5000122970814
 30
0.0
  0
ENDBLK
  5
185
330
183
100
AcDbEntity
  8
0
100
AcDbBlockEnd
  0
BLOCK
  5
18F
330
18E
100
AcDbEntity
  8
0
100
AcDbBlockBegin
  2
*D15
 70
     1
 10
0.0
 20
0.0
 30
0.0
  3
*D15
  1

  0
LINE
  5
23F
330
18E
100
AcDbEntity
  8
Maatlijnen 1_5
  6
Continuous
 62
    30
440
 16777216
370
     0
100
AcDbLine
 10
369.7153315356882
 20
222.5000122970814
 30
0.0
 11
354.7153315356882
 21
222.5000122970814
 31
0.0
  0
LINE
  5
240
330
18E
100
AcDbEntity
  8
Maatlijnen 1_5
  6
Continuous
 62
    30
440
 16777216
370
     0
100
AcDbLine
 10
439.7153315356717
 20
222.5000122970814
 30
0.0
 11
454.7153315356718
 21
222.5000122970814
 31
0.0
  0
MTEXT
  5
241
330
18E
100
AcDbEntity
  8
Maatlijnen 1_5
  6
Continuous
 62
    30
440
 16777216
370
    18
100
AcDbMText
 10
404.592464641482
 20
232.6365310684125
 30
0.0
 40
10.0
 41
14.0
 46
0.0
 71
     5
 72
     1
  1
40
  7
Trebuchet MS
 73
     1
 44
1.0
  0
LINE
  5
242
330
18E
100
AcDbEntity
  8
Maatlijnen 1_5
  6
Continuous
 62
    30
440
 16777216
370
     0
100
AcDbLine
 10
384.7153315356882
 20
222.5000122970814
 30
0.0
 11
424.7153315356717
 21
222.5000122970814
 31
0.0
  0
INSERT
  5
243
330
18E
100
AcDbEntity
  8
Maatlijnen 1_5
  6
Continuous
 62
    30
440
 16777216
370
     0
100
AcDbBlockReference
  2
ALL_ML_STRICH
 10
384.7153315356882
 20
222.5000122970814
 30
0.0
 41
15.0
 42
15.0
 43
15.0
  0
INSERT
  5
244
330
18E
100
AcDbEntity
  8
Maatlijnen 1_5
  6
Continuous
 62
    30
440
 16777216
370
     0
100
AcDbBlockReference
  2
ALL_ML_STRICH
 10
424.7153315356717
 20
222.5000122970814
 30
0.0
 41
15.0
 42
15.0
 43
15.0
 50
180.0
  0
POINT
  5
245
330
18E
100
AcDbEntity
  8
DEFPOINTS
  6
Continuous
 62
     0
440
 16777216
100
AcDbPoint
 10
384.7153315356882
 20
252.4990122970778
 30
0.0
  0
POINT
  5
246
330
18E
100
AcDbEntity
  8
DEFPOINTS
  6
Continuous
 62
     0
440
 16777216
100
AcDbPoint
 10
424.7153315356717
 20
252.4990122970759
 30
0.0
  0
POINT
  5
247
330
18E
100
AcDbEntity
  8
DEFPOINTS
  6
Continuous
 62
     0
440
 16777216
100
AcDbPoint
 10
424.7153315356717
 20
222.5000122970814
 30
0.0
  0
ENDBLK
  5
190
330
18E
100
AcDbEntity
  8
0
100
AcDbBlockEnd
  0
BLOCK
  5
19A
330
199
100
AcDbEntity
  8
0
100
AcDbBlockBegin
  2
*D16
 70
     1
 10
0.0
 20
0.0
 30
0.0
  3
*D16
  1

  0
LINE
  5
238
330
199
100
AcDbEntity
  8
Maatlijnen 1_5
  6
Continuous
 62
    30
440
 16777216
370
     0
100
AcDbLine
 10
439.7153315356717
 20
222.5000122970814
 30
0.0
 11
549.7153315356772
 21
222.5000122970814
 31
0.0
  0
MTEXT
  5
239
330
199
100
AcDbEntity
  8
Maatlijnen 1_5
  6
Continuous
 62
    30
440
 16777216
370
    18
100
AcDbMText
 10
494.4269356312376
 20
232.6365310684125
 30
0.0
 40
10.0
 41
21.0
 46
0.0
 71
     5
 72
     1
  1
140
  7
Trebuchet MS
 73
     1
 44
1.0
  0
INSERT
  5
23A
330
199
100
AcDbEntity
  8
Maatlijnen 1_5
  6
Continuous
 62
    30
440
 16777216
370
     0
100
AcDbBlockReference
  2
ALL_ML_STRICH
 10
424.7153315356717
 20
222.5000122970814
 30
0.0
 41
15.0
 42
15.0
 43
15.0
 50
180.0
  0
INSERT
  5
23B
330
199
100
AcDbEntity
  8
Maatlijnen 1_5
  6
Continuous
 62
    30
440
 16777216
370
     0
100
AcDbBlockReference
  2
ALL_ML_STRICH
 10
564.7153315356773
 20
222.5000122970814
 30
0.0
 41
15.0
 42
15.0
 43
15.0
  0
POINT
  5
23C
330
199
100
AcDbEntity
  8
DEFPOINTS
  6
Continuous
 62
     0
440
 16777216
100
AcDbPoint
 10
424.7153315356717
 20
252.4990122970759
 30
0.0
  0
POINT
  5
23D
330
199
100
AcDbEntity
  8
DEFPOINTS
  6
Continuous
 62
     0
440
 16777216
100
AcDbPoint
 10
564.7153315356773
 20
252.4990122970957
 30
0.0
  0
POINT
  5
23E
330
199
100
AcDbEntity
  8
DEFPOINTS
  6
Continuous
 62
     0
440
 16777216
100
AcDbPoint
 10
564.7153315356773
 20
222.5000122970814
 30
0.0
  0
ENDBLK
  5
19B
330
199
100
AcDbEntity
  8
0
100
AcDbBlockEnd
  0
BLOCK
  5
1A5
330
1A4
100
AcDbEntity
  8
0
100
AcDbBlockBegin
  2
*D17
 70
     1
 10
0.0
 20
0.0
 30
0.0
  3
*D17
  1

  0
LINE
  5
231
330
1A4
100
AcDbEntity
  8
Maatlijnen 1_5
  6
Continuous
 62
    30
440
 16777216
370
     0
100
AcDbLine
 10
579.7153315356772
 20
222.5000122970814
 30
0.0
 11
649.7185790937074
 21
222.5000122970814
 31
0.0
  0
MTEXT
  5
232
330
1A4
100
AcDbEntity
  8
Maatlijnen 1_5
  6
Continuous
 62
    30
440
 16777216
370
    18
100
AcDbMText
 10
614.4285594102555
 20
232.6365310684125
 30
0.0
 40
10.0
 41
21.0
 46
0.0
 71
     5
 72
     1
  1
100
  7
Trebuchet MS
 73
     1
 44
1.0
  0
INSERT
  5
233
330
1A4
100
AcDbEntity
  8
Maatlijnen 1_5
  6
Continuous
 62
    30
440
 16777216
370
     0
100
AcDbBlockReference
  2
ALL_ML_STRICH
 10
564.7153315356773
 20
222.5000122970814
 30
0.0
 41
15.0
 42
15.0
 43
15.0
 50
180.0
  0
INSERT
  5
234
330
1A4
100
AcDbEntity
  8
Maatlijnen 1_5
  6
Continuous
 62
    30
440
 16777216
370
     0
100
AcDbBlockReference
  2
ALL_ML_STRICH
 10
664.7185790937073
 20
222.5000122970814
 30
0.0
 41
15.0
 42
15.0
 43
15.0
  0
POINT
  5
235
330
1A4
100
AcDbEntity
  8
DEFPOINTS
  6
Continuous
 62
     0
440
 16777216
100
AcDbPoint
 10
564.7153315356773
 20
252.4990122970957
 30
0.0
  0
POINT
  5
236
330
1A4
100
AcDbEntity
  8
DEFPOINTS
  6
Continuous
 62
     0
440
 16777216
100
AcDbPoint
 10
664.7185790937073
 20
252.4990122970814
 30
0.0
  0
POINT
  5
237
330
1A4
100
AcDbEntity
  8
DEFPOINTS
  6
Continuous
 62
     0
440
 16777216
100
AcDbPoint
 10
664.7185790937073
 20
222.5000122970814
 30
0.0
  0
ENDBLK
  5
1A6
330
1A4
100
AcDbEntity
  8
0
100
AcDbBlockEnd
  0
ENDSEC
  0
SECTION
  2
ENTITIES
  0
LWPOLYLINE
  5
76
330
1F
100
AcDbEntity
  8
AANHAALLIJN
  6
Continuous
 62
     7
370
    25
100
AcDbPolyline
 90
        5
 70
     0
 43
0.0
 10
1050.0
 20
0.0
 10
0.0
 20
0.0
 10
0.0
 20
1485.0
 10
1050.000000000004
 20
1485.0
 10
1050.000000000004
 20
0.0
  0
LWPOLYLINE
  5
77
330
1F
100
AcDbEntity
  8
DEFPOINTS
  6
PUNKT2_S9
 62
     7
370
    13
100
AcDbPolyline
 90
        5
 70
     1
 43
0.0
 10
990.0
 20
60.0
 10
60.0
 20
60.0
 10
60.0
 20
1260.0
 10
990.0
 20
1260.0
 10
990.0
 20
60.0
  0
LWPOLYLINE
  5
78
330
1F
100
AcDbEntity
  8
DILALATIEVOEG EN AFDICHTING
  6
Continuous
 62
     5
370
    13
100
AcDbPolyline
 90
        5
 70
     1
 43
0.0
 10
561.7150730780594
 20
617.4999999999999
 10
561.7150730780594
 20
512.5
 10
562.7150730780595
 20
512.5
 10
562.7150730780595
 20
617.4999999999999
 10
561.7150730780594
 20
617.4999999999999
  0
HATCH
  5
79
330
1F
100
AcDbEntity
  8
DILALATIEVOEG EN AFDICHTING
  6
Continuous
 62
   250
370
    25
100
AcDbHatch
 10
0.0
 20
0.0
 30
0.0
210
0.0
220
0.0
230
1.0
  2
SOLID
 70
     1
 71
     0
 91
        1
 92
        3
 72
     0
 73
     1
 93
        4
 10
561.7150730780594
 20
512.5
 10
562.7150730780595
 20
512.5
 10
562.7150730780595
 20
617.4999999999999
 10
561.7150730780594
 20
617.4999999999999
 97
        0
 75
     0
 76
     1
 98
        0
450
        0
451
        0
460
0.0
461
0.0
452
        1
462
0.0
453
        0
470

  0
LWPOLYLINE
  5
7A
330
1F
100
AcDbEntity
  8
DILALATIEVOEG EN AFDICHTING
  6
Continuous
 62
     5
370
    13
100
AcDbPolyline
 90
        5
 70
     1
 43
0.0
 10
561.7150730780594
 20
832.4999999999999
 10
561.7150730780594
 20
727.5
 10
562.7150730780595
 20
727.5
 10
562.7150730780595
 20
832.4999999999999
 10
561.7150730780594
 20
832.4999999999999
  0
HATCH
  5
7B
330
1F
100
AcDbEntity
  8
DILALATIEVOEG EN AFDICHTING
  6
Continuous
 62
   250
370
    25
100
AcDbHatch
 10
0.0
 20
0.0
 30
0.0
210
0.0
220
0.0
230
1.0
  2
SOLID
 70
     1
 71
     0
 91
        1
 92
        3
 72
     0
 73
     1
 93
        4
 10
561.7150730780594
 20
727.5
 10
562.7150730780595
 20
727.5
 10
562.7150730780595
 20
832.4999999999999
 10
561.7150730780594
 20
832.4999999999999
 97
        0
 75
     0
 76
     1
 98
        0
450
        0
451
        0
460
0.0
461
0.0
452
        1
462
0.0
453
        0
470

  0
HATCH
  5
7C
330
1F
100
AcDbEntity
  8
KANAALPLAATVLOEREN
  6
Continuous
 62
     9
370
    18
100
AcDbHatch
 10
0.0
 20
0.0
 30
0.0
210
0.0
220
0.0
230
1.0
  2
SOLID
 70
     1
 71
     0
 91
        1
 92
        3
 72
     0
 73
     1
 93
        8
 10
595.3719320780619
 20
687.245176999997
 10
600.3216730780586
 20
721.8933999999972
 10
589.7150730780595
 20
732.5
 10
589.7150730780595
 20
772.5
 10
564.7150730780595
 20
772.5
 10
564.7150730780595
 20
592.4999999999999
 10
569.7150730780594
 20
592.4999999999999
 10
581.229791078058
 20
673.1030360000004
 97
        0
 75
     0
 76
     1
 98
        0
450
        0
451
        0
460
0.0
461
0.0
452
        1
462
0.0
453
        0
470

  0
LWPOLYLINE
  5
7D
330
1F
100
AcDbEntity
  8
KANAALPLAATVLOEREN
  6
Continuous
 62
    30
370
    18
100
AcDbPolyline
 90
        9
 70
     1
 43
0.0
 10
589.7150730780595
 20
772.5
 10
564.7150730780595
 20
772.5
 10
564.7150730780595
 20
592.4999999999999
 10
569.7150730780594
 20
592.4999999999999
 10
581.229791078058
 20
673.1030360000004
 10
595.3719320780619
 20
687.245176999997
 10
600.3216730780586
 20
721.8933999999972
 10
589.7150730780595
 20
732.5
 10
589.7150730780595
 20
772.5
  0
LWPOLYLINE
  5
7E
330
1F
100
AcDbEntity
  8
KANAALPLAATVLOEREN
  6
Continuous
 62
     3
370
    70
100
AcDbPolyline
 90
       19
 70
     1
 43
0.0
 10
704.7150730780595
 20
634.9999758864287
 10
702.2411578854553
 20
622.5627643544285
 10
695.1960434628963
 20
612.0190054409795
 10
684.6522841486257
 20
604.9738911234745
 10
672.215073283507
 20
602.4999777148441
 10
659.7778614513263
 20
604.9738904706937
 10
649.2341013129007
 20
612.0190056890205
 10
642.1889886712087
 20
622.5627669465466
 10
639.7150774740257
 20
634.9999751577925
 10
639.7150730780595
 20
709.9999758864287
 10
642.1889886712087
 20
722.4371848263108
 10
649.2341013129007
 20
732.9809460838369
 10
659.7778614513263
 20
740.0260613021637
 10
672.215073283507
 20
742.4999740580133
 10
684.6522841486257
 20
740.026060649383
 10
695.1960434628963
 20
732.9809463318779
 10
702.2411578854553
 20
722.4371874184289
 10
704.7150730780595
 20
709.9999758864287
 10
704.7150730780595
 20
634.9999758864287
  0
LWPOLYLINE
  5
7F
330
1F
100
AcDbEntity
  8
KANAALPLAATVLOEREN
  6
Continuous
 62
     3
370
    70
100
AcDbPolyline
 90
       19
 70
     1
 43
0.0
 10
804.7150752954076
 20
634.9999796962656
 10
802.2411601028069
 20
622.5627681642618
 10
795.1960456802444
 20
612.0190092508164
 10
784.6522863659738
 20
604.9738949333077
 10
772.2150755008551
 20
602.499981524681
 10
759.7778636686744
 20
604.9738942805269
 10
749.2341035302488
 20
612.0190094988575
 10
742.1889908885568
 20
622.5627707563835
 10
739.7150796913738
 20
634.9999789676294
 10
739.7150752954075
 20
709.9999796962656
 10
742.1889908885568
 20
722.4371886361478
 10
749.2341035302488
 20
732.9809498936701
 10
759.7778636686744
 20
740.0260651120007
 10
772.2150755008551
 20
742.4999778678466
 10
784.6522863659738
 20
740.0260644592199
 10
795.1960456802444
 20
732.9809501417112
 10
802.2411601028069
 20
722.4371912282658
 10
804.7150752954076
 20
709.9999796962656
 10
804.7150752954076
 20
634.9999796962656
  0
LWPOLYLINE
  5
80
330
1F
100
AcDbEntity
  8
KANAALPLAATVLOEREN
  6
Continuous
 62
     3
370
    70
100
AcDbPolyline
 90
       19
 70
     1
 43
0.0
 10
904.715073097428
 20
634.9999790907713
 10
902.2411579048238
 20
622.5627675587674
 10
895.196043482265
 20
612.0190086453221
 10
884.6522841679943
 20
604.9738943278135
 10
872.2150733028756
 20
602.4999809191868
 10
859.777861470695
 20
604.9738936750364
 10
849.2341013322693
 20
612.0190088933632
 10
842.1889886905738
 20
622.5627701508856
 10
839.7150774933907
 20
634.9999783621351
 10
839.7150730974281
 20
709.9999790907713
 10
842.1889886905738
 20
722.4371880306534
 10
849.2341013322693
 20
732.9809492881759
 10
859.777861470695
 20
740.0260645065063
 10
872.2150733028756
 20
742.4999772623559
 10
884.6522841679943
 20
740.0260638537256
 10
895.196043482265
 20
732.9809495362205
 10
902.2411579048238
 20
722.4371906227716
 10
904.715073097428
 20
709.9999790907713
 10
904.715073097428
 20
634.9999790907713
  0
LINE
  5
81
330
1F
100
AcDbEntity
  8
AFBREEKLIJNEN
  6
STRICHPUNKT2_S5
 62
     7
370
    25
100
AcDbLine
 10
922.2150732080372
 20
872.4999948371404
 30
0.0
 11
922.2150722254337
 21
542.4999979724488
 31
0.0
  0
LWPOLYLINE
  5
82
330
1F
100
AcDbEntity
  8
KANAALPLAATVLOEREN
  6
Continuous
 62
     3
370
    70
100
AcDbPolyline
 90
       11
 70
     0
 43
0.0
 10
922.2150743431193
 20
572.5
 10
574.7150730780595
 20
572.5
 10
564.7150730780595
 20
582.5
 10
564.7150730780595
 20
592.4999999999999
 10
569.7150730780594
 20
592.4999999999999
 10
581.229791078058
 20
673.1030360000004
 10
595.3719320780619
 20
687.245176999997
 10
600.3216730780586
 20
721.8933999999936
 10
589.7150730780595
 20
732.5
 10
589.7150730780595
 20
772.5
 10
922.2150729102795
 20
772.5000235551378
  0
INSERT
  5
B0
330
1F
100
AcDbEntity
  8
KANAALPLAATVLOEREN
  6
Continuous
 62
     7
370
    25
100
AcDbBlockReference
  2
HATCHING_0
 10
0.0
 20
0.0
 30
0.0
  0
HATCH
  5
B1
330
1F
100
AcDbEntity
  8
KANAALPLAATVLOEREN
  6
Continuous
 62
   253
370
    25
100
AcDbHatch
 10
0.0
 20
0.0
 30
0.0
210
0.0
220
0.0
230
1.0
  2
SOLID
 70
     1
 71
     0
 91
        4
 92
        3
 72
     0
 73
     1
 93
       11
 10
922.2150729102795
 20
772.5000235551378
 10
589.7150730780595
 20
772.5
 10
589.7150730780595
 20
732.5
 10
600.3216730780586
 20
721.8933999999972
 10
595.3719320780619
 20
687.245176999997
 10
581.229791078058
 20
673.1030360000004
 10
569.7150730780594
 20
592.4999999999999
 10
564.7150730780595
 20
592.4999999999999
 10
564.7150730780595
 20
582.5
 10
574.7150730780595
 20
572.5
 10
922.2150743431193
 20
572.5
 97
        0
 92
       18
 72
     0
 73
     1
 93
       18
 10
859.777861470695
 20
604.9738936750364
 10
849.2341013322693
 20
612.0190088933632
 10
842.1889886905738
 20
622.5627701508856
 10
839.7150774933907
 20
634.9999783621351
 10
839.7150730974281
 20
709.9999790907713
 10
842.1889886905738
 20
722.4371880306534
 10
849.2341013322693
 20
732.9809492881759
 10
859.777861470695
 20
740.0260645065063
 10
872.2150733028756
 20
742.4999772623559
 10
884.6522841679943
 20
740.0260638537256
 10
895.196043482265
 20
732.9809495362205
 10
902.2411579048238
 20
722.4371906227716
 10
904.715073097428
 20
709.9999790907713
 10
904.715073097428
 20
634.9999790907713
 10
902.2411579048238
 20
622.5627675587674
 10
895.196043482265
 20
612.0190086453221
 10
884.6522841679943
 20
604.9738943278135
 10
872.2150733028756
 20
602.4999809191868
 97
        0
 92
       18
 72
     0
 73
     1
 93
       18
 10
702.2411578854553
 20
722.4371874184289
 10
704.7150730780595
 20
709.9999758864287
 10
704.7150730780595
 20
634.9999758864287
 10
702.2411578854553
 20
622.5627643544285
 10
695.1960434628963
 20
612.0190054409795
 10
684.6522841486257
 20
604.9738911234745
 10
672.215073283507
 20
602.4999777148441
 10
659.7778614513263
 20
604.9738904706937
 10
649.2341013129007
 20
612.0190056890205
 10
642.1889886712087
 20
622.5627669465466
 10
639.7150774740257
 20
634.9999751577925
 10
639.7150730780595
 20
709.9999758864287
 10
642.1889886712087
 20
722.4371848263108
 10
649.2341013129007
 20
732.9809460838369
 10
659.7778614513263
 20
740.0260613021637
 10
672.215073283507
 20
742.4999740580133
 10
684.6522841486257
 20
740.026060649383
 10
695.1960434628963
 20
732.9809463318779
 97
        0
 92
       18
 72
     0
 73
     1
 93
       18
 10
804.7150752954076
 20
709.9999796962656
 10
804.7150752954076
 20
634.9999796962656
 10
802.2411601028069
 20
622.5627681642618
 10
795.1960456802444
 20
612.0190092508164
 10
784.6522863659738
 20
604.9738949333077
 10
772.2150755008551
 20
602.499981524681
 10
759.7778636686744
 20
604.9738942805269
 10
749.2341035302488
 20
612.0190094988575
 10
742.1889908885568
 20
622.5627707563835
 10
739.7150796913738
 20
634.9999789676294
 10
739.7150752954075
 20
709.9999796962656
 10
742.1889908885568
 20
722.4371886361478
 10
749.2341035302488
 20
732.9809498936701
 10
759.7778636686744
 20
740.0260651120007
 10
772.2150755008551
 20
742.4999778678466
 10
784.6522863659738
 20
740.0260644592199
 10
795.1960456802444
 20
732.9809501417112
 10
802.2411601028069
 20
722.4371912282658
 97
        0
 75
     0
 76
     1
 98
        0
450
        0
451
        0
460
0.0
461
0.0
452
        1
462
0.0
453
        0
470

  0
DIMENSION
  5
C5
330
1F
100
AcDbEntity
  8
Maatlijnen 1_5
  6
Continuous
 62
    30
370
    18
100
AcDbDimension
280
     0
  2
*D6
 10
952.2150729102801
 20
772.5000239558617
 30
0.0
 11
942.0785541389486
 21
672.2116146240339
 31
0.0
 70
   160
  1
<>
 71
     5
 42
200.0000268547811
 73
     0
 74
     0
 75
     0
  3
_DIMSTYLE_3
100
AcDbAlignedDimension
 13
922.2160729102794
 23
572.4999971010801
 33
0.0
 14
922.216073310992
 24
772.5000239558612
 34
0.0
 50
90.0
100
AcDbRotatedDimension
1001
NEM_ODX
1000
MASSLINIE
1002
{
1000
UTF_TYPE
1070
     1
1000
ODXVALUES
1070
     1
1070
     0
1070
   499
1040
0.1
1002
}
  0
DIMENSION
  5
D1
330
1F
100
AcDbEntity
  8
Maatlijnen 1_5
  6
Continuous
 62
    30
370
    18
100
AcDbDimension
280
     0
  2
*D7
 10
952.2150729102801
 20
822.5000239558545
 30
0.0
 11
942.0785541389486
 21
797.3771570616596
 31
0.0
 70
   160
  1
<>
 71
     5
 42
49.99999999999272
 73
     0
 74
     0
 75
     0
  3
_DIMSTYLE_3
100
AcDbAlignedDimension
 13
922.216073310992
 23
772.5000239558612
 33
0.0
 14
922.216073310992
 24
822.5000239558539
 34
0.0
 50
90.0
100
AcDbRotatedDimension
1001
NEM_ODX
1000
MASSLINIE
1002
{
1000
UTF_TYPE
1070
     1
1000
ODXVALUES
1070
     1
1070
     0
1070
   499
1040
0.1
1002
}
  0
DIMENSION
  5
DD
330
1F
100
AcDbEntity
  8
Maatlijnen 1_5
  6
Continuous
 62
    30
370
    18
100
AcDbDimension
280
     0
  2
*D8
 10
952.2150729102801
 20
842.5000239558544
 30
0.0
 11
942.0785541389486
 21
854.0000239558539
 31
0.0
 70
   160
  1
<>
 71
     5
 42
20.0
 73
     0
 74
     0
 75
     0
  3
_DIMSTYLE_3
100
AcDbAlignedDimension
 13
922.216073310992
 23
822.5000239558539
 33
0.0
 14
922.216073310992
 24
842.5000239558539
 34
0.0
 50
90.0
100
AcDbRotatedDimension
1001
NEM_ODX
1000
MASSLINIE
1002
{
1000
UTF_TYPE
1070
     1
1000
ODXVALUES
1070
     1
1070
     0
1070
   499
1040
0.1
1002
}
  0
INSERT
  5
F6
330
1F
100
AcDbEntity
  8
DILALATIEVOEG EN AFDICHTING
  6
Continuous
 62
    30
370
    18
100
AcDbBlockReference
  2
COMPLEXOBJECT_0
 10
0.0
 20
0.0
 30
0.0
  0
LWPOLYLINE
  5
F7
330
1F
100
AcDbEntity
  8
DILALATIEVOEG EN AFDICHTING
  6
Continuous
 62
     5
370
    13
100
AcDbPolyline
 90
       10
 70
     1
 43
0.0
 10
654.7150741577606
 20
572.4999831773893
 10
664.7150741577607
 20
572.4999831773893
 10
663.8865778316103
 20
570.073219433274
 10
663.3836789994092
 20
567.5587252138575
 10
663.2150741621153
 20
564.9999831891181
 10
663.3836790448949
 20
562.4412412938327
 10
663.8865777555074
 20
559.9267469458863
 10
664.7150736788644
 20
557.4999833377296
 10
654.7150741577606
 20
557.4999831773893
 10
654.7150741577606
 20
572.4999831773893
  0
HATCH
  5
F8
330
1F
100
AcDbEntity
  8
DILALATIEVOEG EN AFDICHTING
  6
Continuous
 62
     8
370
    25
100
AcDbHatch
 10
0.0
 20
0.0
 30
0.0
210
0.0
220
0.0
230
1.0
  2
SOLID
 70
     1
 71
     0
 91
        1
 92
        3
 72
     0
 73
     1
 93
        9
 10
664.7150741577607
 20
572.4999831773893
 10
654.7150741577606
 20
572.4999831773893
 10
654.7150741577606
 20
557.4999831773893
 10
664.7150736788644
 20
557.4999833377296
 10
663.8865777555074
 20
559.9267469458863
 10
663.3836790448949
 20
562.4412412938327
 10
663.2150741621153
 20
564.9999831891181
 10
663.3836789994092
 20
567.5587252138575
 10
663.8865778316103
 20
570.073219433274
 97
        0
 75
     0
 76
     1
 98
        0
450
        0
451
        0
460
0.0
461
0.0
452
        1
462
0.0
453
        0
470

  0
LWPOLYLINE
  5
F9
330
1F
100
AcDbEntity
  8
DILALATIEVOEG EN AFDICHTING
  6
Continuous
 62
     5
370
    13
100
AcDbPolyline
 90
        5
 70
     1
 43
0.0
 10
644.7150741577607
 20
572.499983017049
 10
654.7150741577606
 20
572.4999831773893
 10
654.7150741577606
 20
557.4999831773893
 10
644.7150741577607
 20
557.499983017049
 10
644.7150741577607
 20
572.499983017049
  0
LINE
  5
FA
330
1F
100
AcDbEntity
  8
DILALATIEVOEG EN AFDICHTING
  6
Continuous
 62
     5
370
    13
100
AcDbLine
 10
654.7150741577606
 20
572.4999831773902
 30
0.0
 11
644.7150741577607
 21
557.4999831773903
 31
0.0
  0
LINE
  5
FB
330
1F
100
AcDbEntity
  8
DILALATIEVOEG EN AFDICHTING
  6
Continuous
 62
     5
370
    13
100
AcDbLine
 10
644.7150741577607
 20
572.4999830170499
 30
0.0
 11
654.7150741577606
 21
557.4999831773903
 31
0.0
  0
LWPOLYLINE
  5
FC
330
1F
100
AcDbEntity
  8
DILALATIEVOEG EN AFDICHTING
  6
Continuous
 62
     5
370
    13
100
AcDbPolyline
 90
        6
 70
     1
 43
0.0
 10
564.7150736788644
 20
557.4999833377368
 10
644.7150741577643
 20
557.4999831773893
 10
644.7150741577643
 20
572.4999831773966
 10
574.7150736691946
 20
572.4999833485708
 10
564.7150736691947
 20
582.4999833485708
 10
564.7150736788644
 20
557.4999833377368
  0
HATCH
  5
FD
330
1F
100
AcDbEntity
  8
DILALATIEVOEG EN AFDICHTING
  6
Continuous
 62
   254
370
    13
100
AcDbHatch
 10
0.0
 20
0.0
 30
0.0
210
0.0
220
0.0
230
1.0
  2
SOLID
 70
     1
 71
     0
 91
        1
 92
        0
 93
        5
 72
     1
 10
564.7150736691947
 20
582.4999833485708
 11
564.7150736788644
 21
557.4999833377368
 72
     1
 10
564.7150736788644
 20
557.4999833377368
 11
644.7150741577643
 21
557.4999831773893
 72
     1
 10
644.7150741577643
 20
557.4999831773893
 11
644.7150741577643
 21
572.4999831773966
 72
     1
 10
644.7150741577643
 20
572.4999831773966
 11
574.7150736691946
 21
572.4999833485708
 72
     1
 10
574.7150736691946
 20
572.4999833485708
 11
564.7150736691947
 21
582.4999833485708
 97
        0
 75
     0
 76
     1
 98
        0
450
        0
451
        0
460
0.0
461
0.0
452
        1
462
0.0
453
        0
470

1001
ACAD
1010
0.0
1020
0.0
1030
0.0
1001
NEM_ODX
1002
{
1000
BZM_DEPEND
1070
     1
1000
BZM_SCALE
1040
5.0
1000
HATCHING_8
1002
}
  0
HATCH
  5
FE
330
1F
100
AcDbEntity
  8
DILALATIEVOEG EN AFDICHTING
  6
Continuous
 62
     7
370
    13
100
AcDbHatch
 10
0.0
 20
0.0
 30
0.0
210
0.0
220
0.0
230
1.0
  2
HATCHING_8
 70
     0
 71
     0
 91
        1
 92
        0
 93
        5
 72
     1
 10
564.7150736691947
 20
582.4999833485708
 11
564.7150736788644
 21
557.4999833377368
 72
     1
 10
564.7150736788644
 20
557.4999833377368
 11
644.7150741577643
 21
557.4999831773893
 72
     1
 10
644.7150741577643
 20
557.4999831773893
 11
644.7150741577643
 21
572.4999831773966
 72
     1
 10
644.7150741577643
 20
572.4999831773966
 11
574.7150736691946
 21
572.4999833485708
 72
     1
 10
574.7150736691946
 20
572.4999833485708
 11
564.7150736691947
 21
582.4999833485708
 97
        0
 75
     0
 76
     2
 52
0.0
 41
5.0
 77
     0
 78
     2
 53
45.0
 43
0.0
 44
0.0
 45
-10.60660171779821
 46
10.60660171779821
 79
     2
 49
10.0
 49
-3.5
 53
45.0
 43
-5.303300858899105
 44
5.303300858899106
 45
-10.60660171779821
 46
10.60660171779821
 79
     2
 49
10.0
 49
-3.5
 98
        0
1001
ACAD
1010
0.0
1020
0.0
1030
0.0
1001
NEM_ODX
1002
{
1000
BZM_DEPEND
1070
     1
1000
BZM_SCALE
1040
5.0
1000
HATCHING_8
1002
}
  0
DIMENSION
  5
112
330
1F
100
AcDbEntity
  8
Maatlijnen 1_5
  6
Continuous
 62
    30
370
    18
100
AcDbDimension
280
     0
  2
*D11
 10
694.7150736788646
 20
572.4999826429195
 30
0.0
 11
684.5785549075335
 21
513.1211437472859
 31
0.0
 70
   160
  1
<>
 71
     5
 42
14.9999993051897
 73
     0
 74
     0
 75
     0
  3
_DIMSTYLE_5
100
AcDbAlignedDimension
 13
684.7160736788644
 23
557.4999833377296
 33
0.0
 14
684.7160736788644
 24
572.4999826429193
 34
0.0
 50
90.0
100
AcDbRotatedDimension
1001
NEM_ODX
1000
MASSLINIE
1002
{
1000
UTF_TYPE
1070
     1
1000
ODXVALUES
1070
     1
1070
     0
1070
   499
1040
10.0
1002
}
  0
LINE
  5
113
330
1F
100
AcDbEntity
  8
Maatlijnen 1_5
  6
ALL_S17
 62
    30
370
    18
100
AcDbLine
 10
664.7150736788644
 20
557.4999833377305
 30
0.0
 11
694.7150736788644
 21
557.4999833377305
 31
0.0
  0
MTEXT
  5
114
330
1F
100
AcDbEntity
  8
AANHAALLIJN
  6
Continuous
 62
    30
370
    18
100
AcDbMText
 10
952.215072910276
 20
520.8333456304189
 30
0.0
 40
12.5
 41
186.0587703712781
 46
0.0
 71
     3
 72
     5
  1
elastische en\Pluchtdichte aansluiting
  7
Trebuchet MS
 73
     1
 44
0.783132530120482
  0
LWPOLYLINE
  5
115
330
1F
100
AcDbEntity
  8
AANHAALLIJN
  6
Continuous
 62
    30
370
    18
100
AcDbPolyline
 90
        3
 70
     0
 43
0.0
 10
952.215072910276
 20
487.5000122970832
 10
713.9981165071767
 20
487.5000122970832
 10
644.7150741577643
 20
564.999983017049
  0
HATCH
  5
116
330
1F
100
AcDbEntity
  8
KALKZANDSTEEN
  6
Continuous
 62
     7
370
    25
100
AcDbHatch
 10
0.0
 20
0.0
 30
0.0
210
0.0
220
0.0
230
1.0
  2
HATCHING_9
 70
     0
 71
     0
 91
        1
 92
        0
 93
        4
 72
     1
 10
664.7150736788644
 20
557.4999833377296
 11
564.7150736788644
 21
557.4999833377332
 72
     1
 10
564.7150736788644
 20
557.4999833377332
 11
564.7153315356881
 21
252.5000122970778
 72
     1
 10
564.7153315356881
 20
252.5000122970778
 11
664.7185790937073
 21
252.5000122970814
 72
     1
 10
664.7185790937073
 20
252.5000122970814
 11
664.7150736788644
 21
557.4999833377296
 97
        0
 75
     0
 76
     2
 52
0.0
 41
5.0
 77
     0
 78
     2
 53
45.0
 43
0.0
 44
0.0
 45
-176.7766952966368
 46
176.7766952966369
 79
     0
 53
45.0
 43
-88.38834764831842
 44
88.38834764831844
 45
-176.7766952966368
 46
176.7766952966369
 79
     0
 98
        0
1001
ACAD
1010
0.0
1020
0.0
1030
0.0
1001
NEM_ODX
1002
{
1000
BZM_DEPEND
1070
     1
1000
BZM_SCALE
1040
5.0
1000
HATCHING_9
1002
}
  0
LWPOLYLINE
  5
117
330
1F
100
AcDbEntity
  8
KALKZANDSTEEN
  6
Continuous
 62
     3
370
    70
100
AcDbPolyline
 90
        4
 70
     0
 43
0.0
 10
564.7153315356881
 20
252.5000122970778
 10
564.7150736788644
 20
557.4999833377368
 10
664.7150736788644
 20
557.4999833377296
 10
664.7185790937073
 20
252.5000122970814
  0
LINE
  5
118
330
1F
100
AcDbEntity
  8
KALKZANDSTEEN
  6
STRICHLINIE2_S3
 62
    30
370
    18
100
AcDbLine
 10
564.7150730780631
 20
867.4999999999963
 30
0.0
 11
664.7150730780631
 21
867.4999999999963
 31
0.0
  0
HATCH
  5
119
330
1F
100
AcDbEntity
  8
DILALATIEVOEG EN AFDICHTING
  6
Continuous
 62
   252
370
    25
100
AcDbHatch
 10
0.0
 20
0.0
 30
0.0
210
0.0
220
0.0
230
1.0
  2
SOLID
 70
     1
 71
     0
 91
        1
 92
        3
 72
     0
 73
     1
 93
        4
 10
664.7150730780631
 20
772.5
 10
664.7150730780631
 20
787.4999999999963
 10
564.7150730780631
 20
787.4999999999963
 10
564.7150730780631
 20
772.5
 97
        0
 75
     0
 76
     1
 98
        0
450
        0
451
        0
460
0.0
461
0.0
452
        1
462
0.0
453
        0
470

  0
LWPOLYLINE
  5
11A
330
1F
100
AcDbEntity
  8
DILALATIEVOEG EN AFDICHTING
  6
Continuous
 62
     7
370
    25
100
AcDbPolyline
 90
        5
 70
     1
 43
0.0
 10
664.7150730780631
 20
772.5
 10
664.7150730780631
 20
787.5
 10
564.7150730780631
 20
787.4999999999963
 10
564.7150730780595
 20
772.5
 10
664.7150730780631
 20
772.5
  0
LWPOLYLINE
  5
11B
330
1F
100
AcDbEntity
  8
DILALATIEVOEG EN AFDICHTING
  6
Continuous
 62
     7
370
    25
100
AcDbPolyline
 90
       13
 70
     0
 43
0.0
 10
664.7150730780631
 20
784.1025403784442
 10
658.0163432672816
 20
772.5
 10
649.3560892294372
 20
787.5
 10
640.6958351915927
 20
772.5
 10
632.035581153752
 20
787.5
 10
623.3753271159075
 20
772.5
 10
614.7150730780631
 20
787.5
 10
606.0548190402187
 20
772.5
 10
597.3945650023779
 20
787.5
 10
588.7343109645335
 20
772.5
 10
580.074056926689
 20
787.5
 10
571.4138028888446
 20
772.5
 10
564.7150730780631
 20
784.1025403784515
  0
HATCH
  5
11C
330
1F
100
AcDbEntity
  8
KALKZANDSTEEN
  6
Continuous
 62
     7
370
    25
100
AcDbHatch
 10
0.0
 20
0.0
 30
0.0
210
0.0
220
0.0
230
1.0
  2
HATCHING_9
 70
     0
 71
     0
 91
        1
 92
        0
 93
        4
 72
     1
 10
664.7150730780631
 20
787.5
 11
664.715073078074
 21
1142.500012297078
 72
     1
 10
664.715073078074
 20
1142.500012297078
 11
564.7150730780704
 21
1142.500012297078
 72
     1
 10
564.7150730780704
 20
1142.500012297078
 11
564.7150730780595
 21
787.5
 72
     1
 10
564.7150730780595
 20
787.5
 11
664.7150730780631
 21
787.5
 97
        0
 75
     0
 76
     2
 52
0.0
 41
5.0
 77
     0
 78
     2
 53
45.0
 43
0.0
 44
0.0
 45
-176.7766952966368
 46
176.7766952966369
 79
     0
 53
45.0
 43
-88.38834764831842
 44
88.38834764831844
 45
-176.7766952966368
 46
176.7766952966369
 79
     0
 98
        0
1001
ACAD
1010
0.0
1020
0.0
1030
0.0
1001
NEM_ODX
1002
{
1000
BZM_DEPEND
1070
     1
1000
BZM_SCALE
1040
5.0
1000
HATCHING_9
1002
}
  0
LWPOLYLINE
  5
11D
330
1F
100
AcDbEntity
  8
KALKZANDSTEEN
  6
Continuous
 62
     3
370
    70
100
AcDbPolyline
 90
        4
 70
     0
 43
0.0
 10
564.715073078074
 20
1142.500012297078
 10
564.7150730780595
 20
787.4999999999963
 10
664.7150730780631
 20
787.5
 10
664.715073078074
 20
1142.500012297078
  0
LINE
  5
11E
330
1F
100
AcDbEntity
  8
POLYISOCYANURAAT (PIR)
  6
Continuous
 62
     7
370
    25
100
AcDbLine
 10
564.7153315356881
 20
252.5000122970778
 30
0.0
 11
564.7153315356881
 21
1142.500012297078
 31
0.0
  0
HATCH
  5
11F
330
1F
100
AcDbEntity
  8
DILALATIEVOEG EN AFDICHTING
  6
Continuous
 62
   255
370
    13
100
AcDbHatch
 10
0.0
 20
0.0
 30
0.0
210
0.0
220
0.0
230
1.0
  2
SOLID
 70
     1
 71
     0
 91
        1
 92
        0
 93
        4
 72
     1
 10
664.715092004837
 20
822.5000108152871
 11
674.715092004837
 21
822.5000108152871
 72
     1
 10
674.715092004837
 20
822.5000108152871
 11
674.715092004837
 21
842.5000108152872
 72
     1
 10
674.715092004837
 20
842.5000108152872
 11
664.715092004837
 21
842.5000108152872
 72
     1
 10
664.715092004837
 20
842.5000108152872
 11
664.715092004837
 21
822.5000108152871
 97
        0
 75
     0
 76
     1
 98
        0
450
        0
451
        0
460
1.570796326794896
461
0.0
452
        1
462
0.0
453
        0
470

1001
ACAD
1010
694.7150730780631
1020
847.4999999999999
1030
0.0
1001
NEM_ODX
1002
{
1000
BZM_DEPEND
1070
     1
1000
BZM_SCALE
1040
5.0
1000
HATCHING_341
1002
}
  0
HATCH
  5
120
330
1F
100
AcDbEntity
  8
DILALATIEVOEG EN AFDICHTING
  6
Continuous
 62
     7
370
    13
100
AcDbHatch
 10
0.0
 20
0.0
 30
0.0
210
0.0
220
0.0
230
1.0
  2
HATCHING_341
 70
     0
 71
     0
 91
        1
 92
        0
 93
        4
 72
     1
 10
664.715092004837
 20
822.5000108152871
 11
674.715092004837
 21
822.5000108152871
 72
     1
 10
674.715092004837
 20
822.5000108152871
 11
674.715092004837
 21
842.5000108152872
 72
     1
 10
674.715092004837
 20
842.5000108152872
 11
664.715092004837
 21
842.5000108152872
 72
     1
 10
664.715092004837
 20
842.5000108152872
 11
664.715092004837
 21
822.5000108152871
 97
        0
 75
     0
 76
     2
 52
90.00000000000001
 41
5.0
 77
     0
 78
     2
 53
180.0
 43
0.0
 44
0.0
 45
-0.0000000000000018
 46
-15.0
 79
     0
 53
180.0
 43
0.0000000000000003
 44
-7.5
 45
-0.0000000000000018
 46
-15.0
 79
     0
 98
        0
1001
ACAD
1010
694.7150730780631
1020
847.4999999999999
1030
0.0
1001
NEM_ODX
1002
{
1000
BZM_DEPEND
1070
     1
1000
BZM_SCALE
1040
5.0
1000
HATCHING_341
1002
}
  0
LWPOLYLINE
  5
121
330
1F
100
AcDbEntity
  8
DILALATIEVOEG EN AFDICHTING
  6
Continuous
 62
     5
370
    13
100
AcDbPolyline
 90
        5
 70
     1
 43
0.0
 10
674.715092004837
 20
822.5000108152871
 10
664.715092004837
 20
822.5000108152871
 10
664.715092004837
 20
842.5000108152872
 10
674.715092004837
 20
842.5000108152872
 10
674.715092004837
 20
822.5000108152871
  0
LWPOLYLINE
  5
122
330
1F
100
AcDbEntity
  8
DILALATIEVOEG EN AFDICHTING
  6
Continuous
 62
     5
370
    13
100
AcDbPolyline
 90
        5
 70
     1
 43
0.0
 10
674.7150730780631
 20
772.5
 10
664.7150730780631
 20
772.5
 10
664.715092004837
 20
822.5000108152871
 10
674.715092004837
 20
822.5000108152871
 10
674.7150730780631
 20
772.5
  0
HATCH
  5
123
330
1F
100
AcDbEntity
  8
DILALATIEVOEG EN AFDICHTING
  6
Continuous
 62
     5
370
    13
100
AcDbHatch
 10
0.0
 20
0.0
 30
0.0
210
0.0
220
0.0
230
1.0
  2
HATCHING_341
 70
     0
 71
     0
 91
        1
 92
        0
 93
        4
 72
     1
 10
664.7150730780631
 20
772.5
 11
674.7150730780631
 21
772.5
 72
     1
 10
674.7150730780631
 20
772.5
 11
674.715092004837
 21
822.5000108152871
 72
     1
 10
674.715092004837
 20
822.5000108152871
 11
664.715092004837
 21
822.5000108152871
 72
     1
 10
664.715092004837
 20
822.5000108152871
 11
664.7150730780631
 21
772.5
 97
        0
 75
     0
 76
     2
 52
90.00000000000001
 41
5.0
 77
     0
 78
     2
 53
180.0
 43
0.0
 44
0.0
 45
-0.0000000000000018
 46
-15.0
 79
     0
 53
180.0
 43
0.0000000000000003
 44
-7.5
 45
-0.0000000000000018
 46
-15.0
 79
     0
 98
        0
1001
ACAD
1010
694.7150730780631
1020
797.5
1030
0.0
1001
NEM_ODX
1002
{
1000
BZM_DEPEND
1070
     1
1000
BZM_SCALE
1040
5.0
1000
HATCHING_341
1002
}
  0
LWPOLYLINE
  5
124
330
1F
100
AcDbEntity
  8
HOUT
  6
Continuous
 62
    30
370
    18
100
AcDbPolyline
 90
        6
 70
     1
 43
0.0
 10
664.7150730780631
 20
853.5
 10
670.7150730780631
 20
847.4999999999999
 10
676.7150730780631
 20
847.4999999999999
 10
676.7150730780631
 20
902.5
 10
664.7150730780631
 20
902.5
 10
664.7150730780631
 20
853.5
  0
HATCH
  5
125
330
1F
100
AcDbEntity
  8
HOUT
  6
Continuous
 62
     5
370
    13
100
AcDbHatch
 10
0.0
 20
0.0
 30
0.0
210
0.0
220
0.0
230
1.0
  2
HATCHING
 70
     0
 71
     0
 91
        1
 92
        0
 93
        5
 72
     1
 10
676.7150730780631
 20
847.4999999999999
 11
676.7150730780631
 21
902.5
 72
     1
 10
676.7150730780631
 20
902.5
 11
664.7150730780631
 21
902.5
 72
     1
 10
664.7150730780631
 20
902.5
 11
664.7150730780631
 21
853.5
 72
     1
 10
664.7150730780631
 20
853.5
 11
670.7150730780631
 21
847.4999999999999
 72
     1
 10
670.7150730780631
 20
847.4999999999999
 11
676.7150730780631
 21
847.4999999999999
 97
        0
 75
     0
 76
     2
 52
0.0
 41
5.0
 77
     0
 78
     2
 53
45.0
 43
-10.00009590137954
 44
10.00009590137954
 45
-3.535533905932737
 46
3.535533905932737
 79
     0
 53
135.0
 43
-10.00009590137954
 44
-10.00009590137954
 45
-3.535533905932737
 46
-3.535533905932737
 79
     0
 98
        0
1001
ACAD
1010
670.7150730780631
1020
875.0
1030
0.0
1001
NEM_ODX
1002
{
1000
BZM_DEPEND
1070
     1
1000
BZM_SCALE
1040
5.0
1000
HATCHING
1002
}
  0
LWPOLYLINE
  5
126
330
1F
100
AcDbEntity
  8
ZANDCEMENT DEKVLOEREN
  6
Continuous
 62
    30
370
    18
100
AcDbPolyline
 90
        6
 70
     0
 43
0.0
 10
674.7150730780631
 20
772.5
 10
724.7150724620187
 20
822.4999993839556
 10
774.7150730780631
 20
772.4999987679112
 10
824.7150724620187
 20
822.4999981518667
 10
874.7150730780631
 20
772.4999975358205
 10
922.2150730517132
 20
819.9999975094725
  0
LINE
  5
127
330
1F
100
AcDbEntity
  8
VLOERBEDEKKING
  6
VERDECKT2_S2
 62
    30
370
    18
100
AcDbLine
 10
664.716978554923
 20
842.5000108154982
 30
0.0
 11
922.2150729102795
 21
842.5000235551397
 31
0.0
  0
HATCH
  5
128
330
1F
100
AcDbEntity
  8
ZANDCEMENT DEKVLOEREN
  6
Continuous
 62
   254
370
    25
100
AcDbHatch
 10
0.0
 20
0.0
 30
0.0
210
0.0
220
0.0
230
1.0
  2
SOLID
 70
     1
 71
     0
 91
        1
 92
        3
 72
     0
 73
     1
 93
        4
 10
674.7150730780631
 20
772.5
 10
922.2150729102795
 20
772.5000235551378
 10
922.2150729102795
 20
822.5000235551378
 10
674.715092004837
 20
822.5000108152871
 97
        0
 75
     0
 76
     1
 98
        0
450
        0
451
        0
460
0.0
461
0.0
452
        1
462
0.0
453
        0
470

  0
LWPOLYLINE
  5
129
330
1F
100
AcDbEntity
  8
ZANDCEMENT DEKVLOEREN
  6
Continuous
 62
     7
370
    25
100
AcDbPolyline
 90
        4
 70
     0
 43
0.0
 10
922.2150729102795
 20
772.5000235551378
 10
674.7150730780631
 20
772.5
 10
674.715092004837
 20
822.5000108152871
 10
922.2150729102795
 20
822.5000235551378
  0
INSERT
  5
12A
330
1F
100
AcDbEntity
  8
AANHAALLIJN
  6
Continuous
 62
    30
370
    18
100
AcDbBlockReference
  2
NSY154
 10
669.7131877408137
 20
797.4999989446224
 30
0.0
 41
1.962533333333333
 42
1.962533333333333
 43
1.962533333333333
  0
INSERT
  5
12B
330
1F
100
AcDbEntity
  8
AANHAALLIJN
  6
Continuous
 62
    30
370
    18
100
AcDbBlockReference
  2
NSY154
 10
772.2153912603681
 20
797.499683135662
 30
0.0
 41
1.962533333333333
 42
1.962533333333333
 43
1.962533333333333
  0
INSERT
  5
12C
330
1F
100
AcDbEntity
  8
AANHAALLIJN
  6
Continuous
 62
    30
370
    18
100
AcDbBlockReference
  2
NSY154
 10
772.2153912603935
 20
832.4996831356621
 30
0.0
 41
1.962533333333333
 42
1.962533333333333
 43
1.962533333333333
  0
INSERT
  5
12D
330
1F
100
AcDbEntity
  8
AANHAALLIJN
  6
Continuous
 62
    30
370
    18
100
AcDbBlockReference
  2
NSY154
 10
772.2150755008551
 20
757.4999779064892
 30
0.0
 41
1.962533333333333
 42
1.962533333333333
 43
1.962533333333333
  0
INSERT
  5
12E
330
1F
100
AcDbEntity
  8
AANHAALLIJN
  6
Continuous
 62
    30
370
    18
100
AcDbBlockReference
  2
NSY154
 10
614.7150730780631
 20
779.9999999999963
 30
0.0
 41
1.962533333333333
 42
1.962533333333333
 43
1.962533333333333
  0
INSERT
  5
12F
330
1F
100
AcDbEntity
  8
AANHAALLIJN
  6
Continuous
 62
    30
370
    18
100
AcDbBlockReference
  2
NSY154
 10
614.7150947086447
 20
827.4999783693928
 30
0.0
 41
1.962533333333333
 42
1.962533333333333
 43
1.962533333333333
  0
INSERT
  5
130
330
1F
100
AcDbEntity
  8
AANHAALLIJN
  6
Continuous
 62
    30
370
    18
100
AcDbBlockReference
  2
NSY154
 10
561.7150730780594
 20
517.5000122970796
 30
0.0
 41
1.962533333333333
 42
1.962533333333333
 43
1.962533333333333
  0
INSERT
  5
131
330
1F
100
AcDbEntity
  8
AANHAALLIJN
  6
Continuous
 62
    30
370
    18
100
AcDbBlockReference
  2
NSY154
 10
561.7150730780594
 20
757.5000122970814
 30
0.0
 41
1.962533333333333
 42
1.962533333333333
 43
1.962533333333333
  0
LINE
  5
132
330
1F
100
AcDbEntity
  8
DILALATIEVOEG EN AFDICHTING
  6
VERDECKT2_S2
 62
     7
370
    25
100
AcDbLine
 10
564.7150730780595
 20
775.500100000002
 30
0.0
 11
664.7150742137055
 21
775.5001001584178
 31
0.0
  0
INSERT
  5
133
330
1F
100
AcDbEntity
  8
AANHAALLIJN
  6
Continuous
 62
    30
370
    18
100
AcDbBlockReference
  2
NSY154
 10
639.7150742137055
 20
775.5001001584169
 30
0.0
 41
1.962533333333333
 42
1.962533333333333
 43
1.962533333333333
  0
MTEXT
  5
134
330
1F
100
AcDbEntity
  8
AANHAALLIJN
  6
Continuous
 62
    30
370
    18
100
AcDbMText
 10
952.2150729887325
 20
968.3333302873473
 30
0.0
 40
12.5
 41
137.1663723511603
 46
0.0
 71
     3
 72
     5
  1
{\Lvloeropbouw}\Pvloerafwerking\Pdekvloer\Pkanaalplaatvloer
  7
Trebuchet MS
 73
     1
 44
0.783132530120482
  0
LWPOLYLINE
  5
135
330
1F
100
AcDbEntity
  8
AANHAALLIJN
  6
Continuous
 62
    30
370
    18
100
AcDbPolyline
 90
        3
 70
     0
 43
0.0
 10
952.2150729887325
 20
902.4999969540148
 10
772.2150759998185
 20
902.4999969033306
 10
772.2150755008551
 20
757.4999779064892
  0
LWPOLYLINE
  5
136
330
1F
100
AcDbEntity
  8
AANHAALLIJN
  6
Continuous
 62
    30
370
    18
100
AcDbPolyline
 90
        3
 70
     0
 43
0.0
 10
952.2150729887325
 20
982.4999969540149
 10
740.1552787150249
 20
982.499996864688
 10
669.7131877408137
 20
797.4999989446224
  0
MTEXT
  5
137
330
1F
100
AcDbEntity
  8
AANHAALLIJN
  6
Continuous
 62
    30
370
    18
100
AcDbMText
 10
952.2150729887325
 20
987.0833302873489
 30
0.0
 40
12.5
 41
87.08333333333348
 46
0.0
 71
     9
 72
     5
  1
kantstrook
  7
Trebuchet MS
 73
     1
 44
1.0
  0
MTEXT
  5
138
330
1F
100
AcDbEntity
  8
AANHAALLIJN
  6
Continuous
 62
    30
370
    18
100
AcDbMText
 10
952.2150729760944
 20
1045.833330287349
 30
0.0
 40
12.5
 41
166.1268520037176
 46
0.0
 71
     3
 72
     5
  1
folie ter voorkoming\Pvan scheurvorming
  7
Trebuchet MS
 73
     1
 44
0.783132530120482
  0
INSERT
  5
139
330
1F
100
AcDbEntity
  8
AANHAALLIJN
  6
Continuous
 62
    30
370
    18
100
AcDbBlockReference
  2
NSY154
 10
580.9374950735691
 20
705.5820672987593
 30
0.0
 41
1.962533333333333
 42
1.962533333333333
 43
1.962533333333333
  0
INSERT
  5
141
330
1F
100
AcDbEntity
  8
DILALATIEVOEG EN AFDICHTING
  6
VERDECKT2_S2
 62
     5
370
    13
100
AcDbBlockReference
  2
COMPLEXOBJECT_1
 10
0.0
 20
0.0
 30
0.0
  0
LINE
  5
142
330
1F
100
AcDbEntity
  8
POLYISOCYANURAAT (PIR)
  6
Continuous
 62
     7
370
    25
100
AcDbLine
 10
564.7153315356954
 20
1142.500012297078
 30
0.0
 11
564.7153315356773
 21
252.5000122970959
 31
0.0
  0
INSERT
  5
143
330
1F
100
AcDbEntity
  8
AANHAALLIJN
  6
Continuous
 62
    30
100
AcDbBlockReference
  2
NSY154
 10
625.7150736788644
 20
528.4999833377368
 30
0.0
 41
1.962533333333333
 42
1.962533333333333
 43
1.962533333333333
  0
MTEXT
  5
144
330
1F
100
AcDbEntity
  8
AANHAALLIJN
  6
Continuous
 62
     5
370
    13
100
AcDbMText
 10
70.00000000000001
 20
43.0
 30
0.0
 40
7.5
 41
440.1289571934895
 46
0.0
 71
     1
 72
     5
  1
\W1.00;ROCKWOOL\~bouwdetails\~ontwikkeld\~door\~Archidat\~Bouwformatie\~-\~bouwdetails.bouwformatie.nl
  7
TAHOMA
 73
     1
 44
1.0
  0
LINE
  5
145
330
1F
100
AcDbEntity
  8
AANHAALLIJN
  6
Continuous
 62
    30
370
    18
100
AcDbLine
 10
614.7150947086447
 20
827.4999783693928
 30
0.0
 11
499.7153315356881
 21
877.5000122970778
 31
0.0
  0
LWPOLYLINE
  5
146
330
1F
100
AcDbEntity
  8
AANHAALLIJN
  6
Continuous
 62
    30
370
    18
100
AcDbPolyline
 90
        5
 70
     1
 43
0.0
 10
69.99999999999637
 20
70.0
 10
193.4479768359555
 20
69.99999999999996
 10
193.4479768359555
 20
89.99999999999991
 10
69.99999999999637
 20
89.99999999999992
 10
69.99999999999637
 20
70.0
  0
HATCH
  5
147
330
1F
100
AcDbEntity
  8
AANHAALLIJN
  6
Continuous
 62
   255
370
    25
100
AcDbHatch
 10
0.0
 20
0.0
 30
0.0
210
0.0
220
0.0
230
1.0
  2
SOLID
 70
     1
 71
     0
 91
        1
 92
        3
 72
     0
 73
     1
 93
        4
 10
193.4479768359556
 20
69.99999999999978
 10
193.4479768359555
 20
89.99999999999985
 10
69.99999999999637
 20
89.99999999999985
 10
69.99999999999639
 20
69.9999999999999
 97
        0
 75
     0
 76
     1
 98
        0
450
        0
451
        0
460
0.0
461
0.0
452
        1
462
0.0
453
        0
470

  0
LINE
  5
148
330
1F
100
AcDbEntity
  8
POLYISOCYANURAAT (PIR)
  6
Continuous
 62
     7
370
    25
100
AcDbLine
 10
564.7153315356945
 20
1142.50001229708
 30
0.0
 11
564.7153315356773
 21
252.5000122970957
 31
0.0
  0
LINE
  5
149
330
1F
100
AcDbEntity
  8
POLYISOCYANURAAT (PIR)
  6
Continuous
 62
     7
370
    25
100
AcDbLine
 10
564.7153315356945
 20
1142.50001229708
 30
0.0
 11
564.7153315356773
 21
252.5000122970957
 31
0.0
  0
LWPOLYLINE
  5
14A
330
1F
100
AcDbEntity
  8
AANHAALLIJN
  6
Continuous
 62
    30
370
    18
100
AcDbPolyline
 90
        3
 70
     0
 43
0.0
 10
952.2150729760943
 20
1012.499996954015
 10
729.9570660039181
 20
1012.499996990041
 10
639.7150742137055
 20
775.5001001584169
  0
INSERT
  5
14B
330
1F
100
AcDbEntity
  8
AANHAALLIJN
  6
Continuous
 62
    30
370
    18
100
AcDbBlockReference
  2
NSY154
 10
614.7153315356954
 20
277.5000122970778
 30
0.0
 41
1.962533333333333
 42
1.962533333333333
 43
1.962533333333333
  0
INSERT
  5
14C
330
1F
100
AcDbEntity
  8
AANHAALLIJN
  6
Continuous
 62
    30
370
    18
100
AcDbBlockReference
  2
NSY154
 10
494.7153315356709
 20
277.5000122970787
 30
0.0
 41
1.962533333333333
 42
1.962533333333333
 43
1.962533333333333
  0
LWPOLYLINE
  5
14D
330
1F
100
AcDbEntity
  8
AANHAALLIJN
  6
Continuous
 62
    30
370
    18
100
AcDbPolyline
 90
        3
 70
     0
 43
0.0
 10
952.215072910276
 20
457.5000122970832
 10
682.6033850241707
 20
457.5000122970832
 10
625.7150736788644
 20
528.4999833377368
  0
MTEXT
  5
14E
330
1F
100
AcDbEntity
  8
AANHAALLIJN
  6
Continuous
 62
    30
370
    18
100
AcDbMText
 10
952.215072910276
 20
462.0833456304165
 30
0.0
 40
12.5
 41
82.91666666666662
 46
0.0
 71
     9
 72
     5
  1
veeranker
  7
Trebuchet MS
 73
     1
 44
1.0
  0
MTEXT
  5
14F
330
1F
100
AcDbEntity
  8
AANHAALLIJN
  6
Continuous
 62
     5
370
    18
100
AcDbMText
 10
51.5
 20
1283.000000000002
 30
0.0
 40
10.0
 41
555.232658072437
 46
0.0
 71
     1
 72
     5
  1
{\fArial|i0|b0;\H10.000000;\W1.000000;\C5;Bouwdetail gebaseerd op:     Rc wand ≥ \fArial|i0|b1;4,7 m² K/W      \fArial|i0|b0;qv10-waarde\fArial|i0|b1; \fArial|i0|b0;≤ \fArial|i0|b1;0,4 dm³/s per m²}\P
  7
ARIAL
 73
     1
 44
1.0
  0
MTEXT
  5
150
330
1F
100
AcDbEntity
  8
AANHAALLIJN
  6
Continuous
 62
    30
370
    25
100
AcDbMText
 10
51.50000000000363
 20
1431.749999999997
 30
0.0
 40
17.5
 41
512.2323659575216
 46
0.0
 71
     1
 72
     5
  1
{\fArial|i0|b1;\H17.500000;\W1.000000;\C30;ROCKWOOL - bouwdetail 038}\P{\fArial|i0|b0;\H17.500000;\W1.000000;\C30;Buitenwand met verdiepingsvloer (langsgevel)}\P
  7
ARIAL
 73
     1
 44
0.9036144578313253
  0
MTEXT
  5
151
330
1F
100
AcDbEntity
  8
AANHAALLIJN
  6
Continuous
 62
    30
370
    18
100
AcDbMText
 10
51.50000000000363
 20
1344.249999999999
 30
0.0
 40
17.5
 41
216.1583545108005
 46
0.0
 71
     1
 72
     5
  1
\W1.00;Rockfit\~Mono\~silver
  7
ARIAL
 73
     1
 44
1.0
  0
MTEXT
  5
152
330
1F
100
AcDbEntity
  8
AANHAALLIJN
  6
Continuous
 62
    30
100
AcDbMText
 10
952.2153315918078
 20
375.8333456304139
 30
0.0
 40
12.5
 41
223.0827719788
 46
0.0
 71
     3
 72
     5
  1
{\Lwandopbouw}\Pmetselwerk\Pniet-geventileerde\Pluchtspouw (≥ 20 mm)\P{\fArial|b1|i0|c0|p34;Rockfit Mono silver*\P}gestapeld binnenspouwblad
  7
Trebuchet MS
 73
     1
 44
0.783132530120482
  0
MTEXT
  5
153
330
1F
100
AcDbEntity
  8
AANHAALLIJN
  6
Continuous
 62
     5
370
    13
100
AcDbMText
 10
76.99999999999637
 20
84.10395476090455
 30
0.0
 40
7.0
 41
113.2343482125849
 46
0.0
 71
     1
 72
     5
  1
*λreken ≤ 0,035 W/(m.K)
  7
TAHOMA
 73
     1
 44
1.0
  0
LINE
  5
154
330
1F
100
AcDbEntity
  8
AANHAALLIJN
  6
Continuous
 62
    30
370
    18
100
AcDbLine
 10
561.7150730780594
 20
517.5000122970796
 30
0.0
 11
84.99999999999635
 21
517.5000122970823
 31
0.0
  0
MTEXT
  5
155
330
1F
100
AcDbEntity
  8
AANHAALLIJN
  6
Continuous
 62
    30
370
    18
100
AcDbMText
 10
84.99999999999637
 20
522.0833456304153
 30
0.0
 40
12.5
 41
172.9166666666667
 46
0.0
 71
     7
 72
     5
  1
luchtdicht membraan
  7
Trebuchet MS
 73
     1
 44
1.0
  0
LINE
  5
156
330
1F
100
AcDbEntity
  8
AANHAALLIJN
  6
Continuous
 62
    30
370
    18
100
AcDbLine
 10
561.7150730780594
 20
757.5000122970796
 30
0.0
 11
85.0
 21
757.5000122970823
 31
0.0
  0
MTEXT
  5
157
330
1F
100
AcDbEntity
  8
AANHAALLIJN
  6
Continuous
 62
    30
370
    18
100
AcDbMText
 10
85.00000000000001
 20
762.0833456304154
 30
0.0
 40
12.5
 41
172.9166666666667
 46
0.0
 71
     7
 72
     5
  1
luchtdicht membraan
  7
Trebuchet MS
 73
     1
 44
1.0
  0
MTEXT
  5
158
330
1F
100
AcDbEntity
  8
AANHAALLIJN
  6
Continuous
 62
    30
370
    18
100
AcDbMText
 10
85.00000000000001
 20
670.8333456304118
 30
0.0
 40
12.5
 41
140.6402134876297
 46
0.0
 71
     1
 72
     5
  1
aanstorten t.b.v.\Pmetselen kim
  7
Trebuchet MS
 73
     1
 44
0.783132530120482
  0
LWPOLYLINE
  5
159
330
1F
100
AcDbEntity
  8
BAKSTEEN
  6
Continuous
 62
     2
370
    35
100
AcDbPolyline
 90
        5
 70
     1
 43
0.0
 10
284.7153315356882
 20
312.5000122970778
 10
384.7153315356882
 20
312.5000122970778
 10
384.7153315356882
 20
362.5000122970778
 10
284.7153315356882
 20
362.5000122970778
 10
284.7153315356882
 20
312.5000122970778
  0
LWPOLYLINE
  5
15A
330
1F
100
AcDbEntity
  8
BAKSTEEN
  6
Continuous
 62
    30
370
    18
100
AcDbPolyline
 90
        5
 70
     1
 43
0.0
 10
286.7153315356882
 20
302.5000122970778
 10
382.7153315356881
 20
302.5000122970778
 10
382.7153315356881
 20
312.5000122970778
 10
286.7153315356882
 20
312.5000122970778
 10
286.7153315356882
 20
302.5000122970778
  0
LWPOLYLINE
  5
15B
330
1F
100
AcDbEntity
  8
BAKSTEEN
  6
Continuous
 62
     2
370
    35
100
AcDbPolyline
 90
        4
 70
     0
 43
0.0
 10
384.7153315356882
 20
252.5000122970778
 10
384.7153315356882
 20
302.5000122970778
 10
284.7153315356882
 20
302.5000122970778
 10
284.7153315356882
 20
252.5000122970778
  0
LWPOLYLINE
  5
15C
330
1F
100
AcDbEntity
  8
BAKSTEEN
  6
Continuous
 62
     2
370
    35
100
AcDbPolyline
 90
        5
 70
     1
 43
0.0
 10
284.7153315356882
 20
372.5000122970778
 10
384.7153315356882
 20
372.5000122970778
 10
384.7153315356882
 20
422.5000122970778
 10
284.7153315356882
 20
422.5000122970778
 10
284.7153315356882
 20
372.5000122970778
  0
LWPOLYLINE
  5
15D
330
1F
100
AcDbEntity
  8
BAKSTEEN
  6
Continuous
 62
    30
370
    18
100
AcDbPolyline
 90
        5
 70
     1
 43
0.0
 10
286.7153315356882
 20
362.5000122970778
 10
382.7153315356881
 20
362.5000122970778
 10
382.7153315356881
 20
372.5000122970778
 10
286.7153315356882
 20
372.5000122970778
 10
286.7153315356882
 20
362.5000122970778
  0
LWPOLYLINE
  5
15E
330
1F
100
AcDbEntity
  8
BAKSTEEN
  6
Continuous
 62
     2
370
    35
100
AcDbPolyline
 90
        5
 70
     1
 43
0.0
 10
284.7153315356882
 20
432.5000122970777
 10
384.7153315356882
 20
432.5000122970777
 10
384.7153315356882
 20
482.5000122970777
 10
284.7153315356882
 20
482.5000122970777
 10
284.7153315356882
 20
432.5000122970777
  0
LWPOLYLINE
  5
15F
330
1F
100
AcDbEntity
  8
BAKSTEEN
  6
Continuous
 62
    30
370
    18
100
AcDbPolyline
 90
        5
 70
     1
 43
0.0
 10
286.7153315356882
 20
422.5000122970778
 10
382.7153315356881
 20
422.5000122970778
 10
382.7153315356881
 20
432.5000122970777
 10
286.7153315356882
 20
432.5000122970777
 10
286.7153315356882
 20
422.5000122970778
  0
LWPOLYLINE
  5
160
330
1F
100
AcDbEntity
  8
BAKSTEEN
  6
Continuous
 62
     2
370
    35
100
AcDbPolyline
 90
        5
 70
     1
 43
0.0
 10
284.7153315356882
 20
492.5000122970778
 10
384.7153315356882
 20
492.5000122970778
 10
384.7153315356882
 20
542.5000122970778
 10
284.7153315356882
 20
542.5000122970778
 10
284.7153315356882
 20
492.5000122970778
  0
LWPOLYLINE
  5
161
330
1F
100
AcDbEntity
  8
BAKSTEEN
  6
Continuous
 62
    30
370
    18
100
AcDbPolyline
 90
        5
 70
     1
 43
0.0
 10
286.7153315356882
 20
482.5000122970777
 10
382.7153315356881
 20
482.5000122970777
 10
382.7153315356881
 20
492.5000122970778
 10
286.7153315356882
 20
492.5000122970778
 10
286.7153315356882
 20
482.5000122970777
  0
LWPOLYLINE
  5
162
330
1F
100
AcDbEntity
  8
BAKSTEEN
  6
Continuous
 62
     2
370
    35
100
AcDbPolyline
 90
        5
 70
     1
 43
0.0
 10
284.7153315356882
 20
552.5000122970777
 10
384.7153315356882
 20
552.5000122970777
 10
384.7153315356882
 20
602.5000122970777
 10
284.7153315356882
 20
602.5000122970777
 10
284.7153315356882
 20
552.5000122970777
  0
LWPOLYLINE
  5
163
330
1F
100
AcDbEntity
  8
BAKSTEEN
  6
Continuous
 62
    30
370
    18
100
AcDbPolyline
 90
        5
 70
     1
 43
0.0
 10
286.7153315356882
 20
542.5000122970778
 10
382.7153315356881
 20
542.5000122970778
 10
382.7153315356881
 20
552.5000122970777
 10
286.7153315356882
 20
552.5000122970777
 10
286.7153315356882
 20
542.5000122970778
  0
LWPOLYLINE
  5
164
330
1F
100
AcDbEntity
  8
BAKSTEEN
  6
Continuous
 62
     2
370
    35
100
AcDbPolyline
 90
        5
 70
     1
 43
0.0
 10
284.7153315356882
 20
612.5000122970777
 10
384.7153315356882
 20
612.5000122970777
 10
384.7153315356882
 20
662.5000122970777
 10
284.7153315356882
 20
662.5000122970777
 10
284.7153315356882
 20
612.5000122970777
  0
LWPOLYLINE
  5
165
330
1F
100
AcDbEntity
  8
BAKSTEEN
  6
Continuous
 62
    30
370
    18
100
AcDbPolyline
 90
        5
 70
     1
 43
0.0
 10
286.7153315356882
 20
602.5000122970777
 10
382.7153315356881
 20
602.5000122970777
 10
382.7153315356881
 20
612.5000122970777
 10
286.7153315356882
 20
612.5000122970777
 10
286.7153315356882
 20
602.5000122970777
  0
LWPOLYLINE
  5
166
330
1F
100
AcDbEntity
  8
BAKSTEEN
  6
Continuous
 62
     2
370
    35
100
AcDbPolyline
 90
        5
 70
     1
 43
0.0
 10
284.7153315356882
 20
672.5000122970778
 10
384.7153315356882
 20
672.5000122970778
 10
384.7153315356882
 20
722.5000122970778
 10
284.7153315356882
 20
722.5000122970778
 10
284.7153315356882
 20
672.5000122970778
  0
LWPOLYLINE
  5
167
330
1F
100
AcDbEntity
  8
BAKSTEEN
  6
Continuous
 62
    30
370
    18
100
AcDbPolyline
 90
        5
 70
     1
 43
0.0
 10
286.7153315356882
 20
662.5000122970777
 10
382.7153315356881
 20
662.5000122970777
 10
382.7153315356881
 20
672.5000122970778
 10
286.7153315356882
 20
672.5000122970778
 10
286.7153315356882
 20
662.5000122970777
  0
LWPOLYLINE
  5
168
330
1F
100
AcDbEntity
  8
BAKSTEEN
  6
Continuous
 62
     2
370
    35
100
AcDbPolyline
 90
        5
 70
     1
 43
0.0
 10
284.7153315356882
 20
732.5000122970777
 10
384.7153315356882
 20
732.5000122970777
 10
384.7153315356882
 20
782.5000122970777
 10
284.7153315356882
 20
782.5000122970777
 10
284.7153315356882
 20
732.5000122970777
  0
LWPOLYLINE
  5
169
330
1F
100
AcDbEntity
  8
BAKSTEEN
  6
Continuous
 62
    30
370
    18
100
AcDbPolyline
 90
        5
 70
     1
 43
0.0
 10
286.7153315356882
 20
722.5000122970778
 10
382.7153315356881
 20
722.5000122970778
 10
382.7153315356881
 20
732.5000122970777
 10
286.7153315356882
 20
732.5000122970777
 10
286.7153315356882
 20
722.5000122970778
  0
LWPOLYLINE
  5
16A
330
1F
100
AcDbEntity
  8
BAKSTEEN
  6
Continuous
 62
     2
370
    35
100
AcDbPolyline
 90
        5
 70
     1
 43
0.0
 10
284.7153315356882
 20
792.5000122970778
 10
384.7153315356882
 20
792.5000122970778
 10
384.7153315356882
 20
842.5000122970777
 10
284.7153315356882
 20
842.5000122970777
 10
284.7153315356882
 20
792.5000122970778
  0
LWPOLYLINE
  5
16B
330
1F
100
AcDbEntity
  8
BAKSTEEN
  6
Continuous
 62
    30
370
    18
100
AcDbPolyline
 90
        5
 70
     1
 43
0.0
 10
286.7153315356882
 20
782.5000122970777
 10
382.7153315356881
 20
782.5000122970777
 10
382.7153315356881
 20
792.5000122970778
 10
286.7153315356882
 20
792.5000122970778
 10
286.7153315356882
 20
782.5000122970777
  0
LWPOLYLINE
  5
16C
330
1F
100
AcDbEntity
  8
BAKSTEEN
  6
Continuous
 62
     2
370
    35
100
AcDbPolyline
 90
        5
 70
     1
 43
0.0
 10
284.7153315356882
 20
852.5000122970777
 10
384.7153315356882
 20
852.5000122970777
 10
384.7153315356882
 20
902.5000122970778
 10
284.7153315356882
 20
902.5000122970778
 10
284.7153315356882
 20
852.5000122970777
  0
LWPOLYLINE
  5
16D
330
1F
100
AcDbEntity
  8
BAKSTEEN
  6
Continuous
 62
    30
370
    18
100
AcDbPolyline
 90
        5
 70
     1
 43
0.0
 10
286.7153315356882
 20
842.5000122970777
 10
382.7153315356881
 20
842.5000122970777
 10
382.7153315356881
 20
852.5000122970777
 10
286.7153315356882
 20
852.5000122970777
 10
286.7153315356882
 20
842.5000122970777
  0
LWPOLYLINE
  5
16E
330
1F
100
AcDbEntity
  8
BAKSTEEN
  6
Continuous
 62
     2
370
    35
100
AcDbPolyline
 90
        5
 70
     1
 43
0.0
 10
284.7153315356882
 20
912.5000122970778
 10
384.7153315356882
 20
912.5000122970778
 10
384.7153315356882
 20
962.5000122970778
 10
284.7153315356882
 20
962.5000122970778
 10
284.7153315356882
 20
912.5000122970778
  0
LWPOLYLINE
  5
16F
330
1F
100
AcDbEntity
  8
BAKSTEEN
  6
Continuous
 62
    30
370
    18
100
AcDbPolyline
 90
        5
 70
     1
 43
0.0
 10
286.7153315356882
 20
902.5000122970778
 10
382.7153315356881
 20
902.5000122970778
 10
382.7153315356881
 20
912.5000122970778
 10
286.7153315356882
 20
912.5000122970778
 10
286.7153315356882
 20
902.5000122970778
  0
LWPOLYLINE
  5
170
330
1F
100
AcDbEntity
  8
BAKSTEEN
  6
Continuous
 62
     2
370
    35
100
AcDbPolyline
 90
        5
 70
     1
 43
0.0
 10
284.7153315356882
 20
972.5000122970778
 10
384.7153315356882
 20
972.5000122970778
 10
384.7153315356882
 20
1022.500012297077
 10
284.7153315356882
 20
1022.500012297077
 10
284.7153315356882
 20
972.5000122970778
  0
LWPOLYLINE
  5
171
330
1F
100
AcDbEntity
  8
BAKSTEEN
  6
Continuous
 62
    30
370
    18
100
AcDbPolyline
 90
        5
 70
     1
 43
0.0
 10
286.7153315356882
 20
962.5000122970778
 10
382.7153315356881
 20
962.5000122970778
 10
382.7153315356881
 20
972.5000122970778
 10
286.7153315356882
 20
972.5000122970778
 10
286.7153315356882
 20
962.5000122970778
  0
LWPOLYLINE
  5
172
330
1F
100
AcDbEntity
  8
BAKSTEEN
  6
Continuous
 62
     2
370
    35
100
AcDbPolyline
 90
        5
 70
     1
 43
0.0
 10
284.7153315356882
 20
1032.500012297077
 10
384.7153315356882
 20
1032.500012297077
 10
384.7153315356882
 20
1082.500012297078
 10
284.7153315356882
 20
1082.500012297078
 10
284.7153315356882
 20
1032.500012297077
  0
LWPOLYLINE
  5
173
330
1F
100
AcDbEntity
  8
BAKSTEEN
  6
Continuous
 62
    30
370
    18
100
AcDbPolyline
 90
        5
 70
     1
 43
0.0
 10
286.7153315356882
 20
1022.500012297077
 10
382.7153315356881
 20
1022.500012297077
 10
382.7153315356881
 20
1032.500012297077
 10
286.7153315356882
 20
1032.500012297077
 10
286.7153315356882
 20
1022.500012297077
  0
LWPOLYLINE
  5
174
330
1F
100
AcDbEntity
  8
BAKSTEEN
  6
Continuous
 62
    30
370
    18
100
AcDbPolyline
 90
        5
 70
     1
 43
0.0
 10
286.7153315356882
 20
1092.500012297078
 10
382.7153315356881
 20
1092.500012297078
 10
382.7153315356881
 20
1082.500012297078
 10
286.7153315356882
 20
1082.500012297078
 10
286.7153315356882
 20
1092.500012297078
  0
LWPOLYLINE
  5
175
330
1F
100
AcDbEntity
  8
BAKSTEEN
  6
Continuous
 62
     2
370
    35
100
AcDbPolyline
 90
        4
 70
     0
 43
0.0
 10
384.7153315356882
 20
1142.500012297078
 10
384.7153315356882
 20
1092.500012297078
 10
284.7153315356882
 20
1092.500012297078
 10
284.7153315356882
 20
1142.500012297078
  0
DIMENSION
  5
180
330
1F
100
AcDbEntity
  8
Maatlijnen 1_5
  6
Continuous
 62
    30
370
    18
100
AcDbDimension
280
     0
  2
*D13
 10
664.7185790937073
 20
192.5000122970814
 30
0.0
 11
474.4285594102609
 21
202.6365310684125
 31
0.0
 70
   160
  1
<>
 71
     5
 42
380.0032475580192
 73
     0
 74
     0
 75
     0
  3
_DIMSTYLE_3
100
AcDbAlignedDimension
 13
284.7153315356882
 23
252.4990122970778
 33
0.0
 14
664.7185790937073
 24
252.4990122970814
 34
0.0
100
AcDbRotatedDimension
1001
NEM_ODX
1000
MASSLINIE
1002
{
1000
UTF_TYPE
1070
     1
1000
ODXVALUES
1070
     1
1070
     0
1070
   499
1040
0.1
1002
}
  0
LINE
  5
181
330
1F
100
AcDbEntity
  8
AFBREEKLIJNEN
  6
STRICHPUNKT2_S5
 62
     7
370
    25
100
AcDbLine
 10
254.7182419492019
 20
252.5000122970814
 30
0.0
 11
694.7183204976463
 21
252.5000122970814
 31
0.0
  0
LINE
  5
182
330
1F
100
AcDbEntity
  8
AFBREEKLIJNEN
  6
STRICHPUNKT2_S5
 62
     7
370
    25
100
AcDbLine
 10
254.7153315356882
 20
1142.500012297078
 30
0.0
 11
694.715073078074
 21
1142.500012297078
 31
0.0
  0
DIMENSION
  5
18D
330
1F
100
AcDbEntity
  8
Maatlijnen 1_5
  6
Continuous
 62
    30
370
    18
100
AcDbDimension
280
     0
  2
*D14
 10
384.7153315356882
 20
222.5000122970814
 30
0.0
 11
334.4269356312513
 21
232.6365310684125
 31
0.0
 70
   160
  1
<>
 71
     5
 42
100.0
 73
     0
 74
     0
 75
     0
  3
_DIMSTYLE_3
100
AcDbAlignedDimension
 13
284.7153315356882
 23
252.4990122970778
 33
0.0
 14
384.7153315356882
 24
252.4990122970778
 34
0.0
100
AcDbRotatedDimension
1001
NEM_ODX
1000
MASSLINIE
1002
{
1000
UTF_TYPE
1070
     1
1000
ODXVALUES
1070
     1
1070
     0
1070
   499
1040
0.1
1002
}
  0
DIMENSION
  5
198
330
1F
100
AcDbEntity
  8
Maatlijnen 1_5
  6
Continuous
 62
    30
370
    18
100
AcDbDimension
280
     0
  2
*D15
 10
424.7153315356717
 20
222.5000122970814
 30
0.0
 11
404.592464641482
 21
232.6365310684125
 31
0.0
 70
   160
  1
<>
 71
     5
 42
39.99999999998363
 73
     0
 74
     0
 75
     0
  3
_DIMSTYLE_3
100
AcDbAlignedDimension
 13
384.7153315356882
 23
252.4990122970778
 33
0.0
 14
424.7153315356717
 24
252.4990122970759
 34
0.0
100
AcDbRotatedDimension
1001
NEM_ODX
1000
MASSLINIE
1002
{
1000
UTF_TYPE
1070
     1
1000
ODXVALUES
1070
     1
1070
     0
1070
   499
1040
0.1
1002
}
  0
DIMENSION
  5
1A3
330
1F
100
AcDbEntity
  8
Maatlijnen 1_5
  6
Continuous
 62
    30
370
    18
100
AcDbDimension
280
     0
  2
*D16
 10
564.7153315356773
 20
222.5000122970814
 30
0.0
 11
494.4269356312376
 21
232.6365310684125
 31
0.0
 70
   160
  1
<>
 71
     5
 42
140.0000000000054
 73
     0
 74
     0
 75
     0
  3
_DIMSTYLE_3
100
AcDbAlignedDimension
 13
424.7153315356717
 23
252.4990122970759
 33
0.0
 14
564.7153315356773
 24
252.4990122970957
 34
0.0
100
AcDbRotatedDimension
1001
NEM_ODX
1000
MASSLINIE
1002
{
1000
UTF_TYPE
1070
     1
1000
ODXVALUES
1070
     1
1070
     0
1070
   499
1040
0.1
1002
}
  0
DIMENSION
  5
1AE
330
1F
100
AcDbEntity
  8
Maatlijnen 1_5
  6
Continuous
 62
    30
370
    18
100
AcDbDimension
280
     0
  2
*D17
 10
664.7185790937073
 20
222.5000122970814
 30
0.0
 11
614.4285594102555
 21
232.6365310684125
 31
0.0
 70
   160
  1
<>
 71
     5
 42
100.0032475580301
 73
     0
 74
     0
 75
     0
  3
_DIMSTYLE_3
100
AcDbAlignedDimension
 13
564.7153315356773
 23
252.4990122970957
 33
0.0
 14
664.7185790937073
 24
252.4990122970814
 34
0.0
100
AcDbRotatedDimension
1001
NEM_ODX
1000
MASSLINIE
1002
{
1000
UTF_TYPE
1070
     1
1000
ODXVALUES
1070
     1
1070
     0
1070
   499
1040
0.1
1002
}
  0
MTEXT
  5
1AF
330
1F
100
AcDbEntity
  8
AANHAALLIJN
  6
Continuous
 62
    30
370
    18
100
AcDbMText
 10
85.00000000000001
 20
882.0833456304111
 30
0.0
 40
12.5
 41
65.83333333333335
 46
0.0
 71
     7
 72
     5
  1
kimblok
  7
Trebuchet MS
 73
     1
 44
1.0
  0
LWPOLYLINE
  5
1B0
330
1F
100
AcDbEntity
  8
AANHAALLIJN
  6
Continuous
 62
    30
370
    18
100
AcDbPolyline
 90
        3
 70
     0
 43
0.0
 10
580.9374950735691
 20
705.5820672987593
 10
499.7150729396308
 20
637.5000122970787
 10
85.0
 20
637.5000122970787
  0
MTEXT
  5
1B1
330
1F
100
AcDbEntity
  8
AANHAALLIJN
  6
Continuous
 62
    30
370
    18
100
AcDbMText
 10
85.00000000000001
 20
822.0833456304081
 30
0.0
 40
12.5
 41
82.50000000000001
 46
0.0
 71
     7
 72
     5
  1
kimspecie
  7
Trebuchet MS
 73
     1
 44
1.0
  0
LWPOLYLINE
  5
1B2
330
1F
100
AcDbEntity
  8
AANHAALLIJN
  6
Continuous
 62
    30
370
    18
100
AcDbPolyline
 90
        3
 70
     0
 43
0.0
 10
614.7150730780631
 20
779.9999999999963
 10
499.7150729396308
 20
817.5000122970777
 10
85.0
 20
817.5000122970777
  0
LINE
  5
1B3
330
1F
100
AcDbEntity
  8
AANHAALLIJN
  6
Continuous
 62
    30
370
    18
100
AcDbLine
 10
499.7153315356881
 20
877.5000122970778
 30
0.0
 11
85.0
 21
877.5000122970778
 31
0.0
  0
LWPOLYLINE
  5
1B4
330
1F
100
AcDbEntity
  8
STEENWOL
  6
Continuous
 62
     7
370
    25
100
AcDbPolyline
 90
        3
 70
     0
 43
0.0
 10
455.4778238168503
 20
252.5000122970814
 10
424.7153315356714
 20
252.500012297077
 10
424.7153315356853
 20
1142.500012297076
  0
INSERT
  5
1B5
330
1F
100
AcDbEntity
  8
AANHAALLIJN
  6
Continuous
 62
    30
370
    18
100
AcDbBlockReference
  2
NSY154
 10
404.7153315356718
 20
277.5000122970782
 30
0.0
 41
1.962533333333333
 42
1.962533333333333
 43
1.962533333333333
  0
INSERT
  5
1B6
330
1F
100
AcDbEntity
  8
AANHAALLIJN
  6
Continuous
 62
    30
370
    18
100
AcDbBlockReference
  2
NSY154
 10
334.7153315356881
 20
277.5000122970776
 30
0.0
 41
1.962533333333333
 42
1.962533333333333
 43
1.962533333333333
  0
LINE
  5
1B7
330
1F
100
AcDbEntity
  8
AANHAALLIJN
  6
Continuous
 62
    30
370
    18
100
AcDbLine
 10
334.7153315356881
 20
277.5000122970776
 30
0.0
 11
952.2153315918076
 21
277.5000122970805
 31
0.0
  0
LWPOLYLINE
  5
1B8
330
1F
100
AcDbEntity
  8
STEENWOL
  6
Continuous
 62
     7
370
    25
100
AcDbPolyline
 90
       13
 70
     0
 43
0.0
 10
493.9511714218389
 20
1142.500012297078
 10
564.7150730780723
 20
1101.644454626943
 10
424.7153315356834
 20
1020.815566160967
 10
564.7150730780658
 20
939.9866776949945
 10
424.7153315356809
 20
859.1577892290207
 10
564.7150730780608
 20
778.3289007630494
 10
424.7153315356784
 20
697.5000122970769
 10
564.7150730780608
 20
616.6711238311043
 10
424.7153315356809
 20
535.8422353651331
 10
564.7150730780658
 20
455.0133468991591
 10
424.7153315356834
 20
374.1844584331867
 10
564.7150730780723
 20
293.3555699672106
 10
493.9511714218389
 20
252.500012297076
  0
ENDSEC
  0
SECTION
  2
OBJECTS
  0
DICTIONARY
  5
C
330
0
100
AcDbDictionary
281
     1
  3
ACAD_CIP_PREVIOUS_PRODUCT_INFO
350
1DB
  3
ACAD_COLOR
350
1CA
  3
ACAD_DETAILVIEWSTYLE
350
1CF
  3
ACAD_GROUP
350
D
  3
ACAD_LAYOUT
350
1A
  3
ACAD_MATERIAL
350
3B
  3
ACAD_MLEADERSTYLE
350
1BE
  3
ACAD_MLINESTYLE
350
17
  3
ACAD_PLOTSETTINGS
350
19
  3
ACAD_PLOTSTYLENAME
350
E
  3
ACAD_SCALELIST
350
8E
  3
ACAD_SECTIONVIEWSTYLE
350
1CD
  3
ACAD_TABLESTYLE
350
1BD
  3
ACAD_VISUALSTYLE
350
2A
  3
ACDB_RECOMPOSE_DATA
350
3B0
  3
AcDbVariableDictionary
350
1BB
  3
AcDsDecomposeData
350
3B6
  0
DICTIONARY
  5
26E
330
2
100
AcDbDictionary
280
     1
281
     1
  3
ACAD_LAYERSTATES
360
26F
  0
DICTIONARY
  5
1B9
330
1F
100
AcDbDictionary
280
     1
281
     1
  3
ACAD_SORTENTS
360
1BA
  0
XRECORD
  5
1DB
102
{ACAD_REACTORS
330
C
102
}
330
C
100
AcDbXrecord
280
     1
300
ACDLT
300
2020
300

  0
DICTIONARY
  5
1CA
102
{ACAD_REACTORS
330
C
102
}
330
C
100
AcDbDictionary
281
     1
  0
DICTIONARY
  5
1CF
102
{ACAD_REACTORS
330
C
102
}
330
C
100
AcDbDictionary
281
     1
  3
Metric50
350
1D0
  0
DICTIONARY
  5
D
102
{ACAD_REACTORS
330
C
102
}
330
C
100
AcDbDictionary
281
     1
  0
DICTIONARY
  5
1A
102
{ACAD_REACTORS
330
C
102
}
330
C
100
AcDbDictionary
281
     1
  3
Layout1
350
1E
  3
Layout2
350
26
  3
Model
350
22
  0
DICTIONARY
  5
3B
102
{ACAD_REACTORS
330
C
102
}
330
C
100
AcDbDictionary
281
     1
  3
ByBlock
350
3D
  3
ByLayer
350
3C
  3
Global
350
3E
  0
DICTIONARY
  5
1BE
102
{ACAD_REACTORS
330
C
102
}
330
C
100
AcDbDictionary
281
     1
  3
Standard
350
1CC
  0
DICTIONARY
  5
17
102
{ACAD_REACTORS
330
C
102
}
330
C
100
AcDbDictionary
281
     1
  3
Standard
350
18
  0
DICTIONARY
  5
19
102
{ACAD_REACTORS
330
C
102
}
330
C
100
AcDbDictionary
281
     1
  0
ACDBDICTIONARYWDFLT
  5
E
102
{ACAD_REACTORS
330
C
102
}
330
C
100
AcDbDictionary
281
     1
  3
Normal
350
F
100
AcDbDictionaryWithDefault
340
F
  0
DICTIONARY
  5
8E
102
{ACAD_REACTORS
330
C
102
}
330
C
100
AcDbDictionary
281
     1
  3
A0
350
8F
  3
A1
350
90
  3
A2
350
91
  3
A3
350
92
  3
A4
350
93
  3
A5
350
94
  3
A6
350
95
  3
A7
350
96
  3
A8
350
97
  3
A9
350
98
  3
B0
350
99
  3
B1
350
9A
  3
B2
350
9B
  3
B3
350
9C
  3
B4
350
9D
  3
B5
350
9E
  3
B6
350
9F
  3
B7
350
A0
  3
B8
350
A1
  3
B9
350
A2
  3
C0
350
A3
  3
C1
350
A4
  3
C2
350
A5
  3
C3
350
A6
  3
C4
350
A7
  3
C5
350
A8
  3
C6
350
A9
  3
C7
350
AA
  3
C8
350
AB
  3
C9
350
AC
  3
D0
350
AD
  3
D1
350
AE
  3
D2
350
AF
  0
DICTIONARY
  5
1CD
102
{ACAD_REACTORS
330
C
102
}
330
C
100
AcDbDictionary
281
     1
  3
Metric50
350
1CE
  0
DICTIONARY
  5
1BD
102
{ACAD_REACTORS
330
C
102
}
330
C
100
AcDbDictionary
281
     1
  3
Standard
350
1CB
  0
DICTIONARY
  5
2A
102
{ACAD_REACTORS
330
C
102
}
330
C
100
AcDbDictionary
281
     1
  3
2dWireframe
350
2F
  3
3D Hidden
350
31
  3
3dWireframe
350
30
  3
Basic
350
32
  3
Brighten
350
36
  3
ColorChange
350
3A
  3
Conceptual
350
34
  3
Dim
350
35
  3
EdgeColorOff
350
1C9
  3
Facepattern
350
39
  3
Flat
350
2B
  3
FlatWithEdges
350
2C
  3
Gouraud
350
2D
  3
GouraudWithEdges
350
2E
  3
Hidden
350
1C1
  3
JitterOff
350
1C7
  3
Linepattern
350
38
  3
OverhangOff
350
1C8
  3
Realistic
350
33
  3
Shaded
350
1C6
  3
Shaded with edges
350
1C5
  3
Shades of Gray
350
1C2
  3
Sketchy
350
1C3
  3
Thicken
350
37
  3
Wireframe
350
1C0
  3
X-Ray
350
1C4
  0
XRECORD
  5
3B0
102
{ACAD_REACTORS
330
C
102
}
330
C
100
AcDbXrecord
280
     1
 90
        1
330
1CB
  0
DICTIONARY
  5
1BB
102
{ACAD_REACTORS
330
C
102
}
330
C
100
AcDbDictionary
281
     1
  3
CANNOSCALE
350
1BC
  3
CMLEADERSTYLE
350
3AB
  3
CTABLESTYLE
350
3AA
  3
CVIEWDETAILSTYLE
350
3AC
  3
CVIEWSECTIONSTYLE
350
3AD
  0
DICTIONARY
  5
3B6
102
{ACAD_REACTORS
330
C
102
}
330
C
100
AcDbDictionary
281
     1
  3
AcDsRecords
350
3B8
  3
AcDsSchemas
350
3B7
1001
ACAD
1070
     2
  0
DICTIONARY
  5
26F
102
{ACAD_REACTORS
330
26E
102
}
330
26E
100
AcDbDictionary
281
     1
  0
SORTENTSTABLE
  5
1BA
102
{ACAD_REACTORS
330
1B9
102
}
330
1B9
100
AcDbSortentsTable
330
1F
331
76
  5
80
331
77
  5
81
331
78
  5
82
331
79
  5
76
331
7A
  5
B0
331
7B
  5
77
331
7C
  5
78
331
7D
  5
B1
331
7E
  5
C5
331
7F
  5
D1
331
80
  5
DD
331
81
  5
F6
331
82
  5
F7
331
B0
  5
F8
331
B1
  5
79
331
C5
  5
F9
331
D1
  5
FA
331
DD
  5
FB
331
F6
  5
FC
331
F7
  5
FD
331
F8
  5
7A
331
F9
  5
FE
331
FA
  5
112
331
FB
  5
113
331
FC
  5
114
331
FD
  5
7B
331
FE
  5
115
331
112
  5
116
331
113
  5
117
331
114
  5
118
331
115
  5
119
331
116
  5
11A
331
117
  5
11B
331
118
  5
11C
331
119
  5
7C
331
11A
  5
11D
331
11B
  5
11E
331
11C
  5
11F
331
11D
  5
120
331
11E
  5
121
331
11F
  5
7D
331
120
  5
122
331
121
  5
123
331
122
  5
124
331
123
  5
125
331
124
  5
126
331
125
  5
127
331
126
  5
128
331
127
  5
129
331
128
  5
7E
331
129
  5
12A
331
12A
  5
12B
331
12B
  5
12C
331
12C
  5
12D
331
12D
  5
12E
331
12E
  5
12F
331
12F
  5
130
331
130
  5
131
331
131
  5
132
331
132
  5
133
331
133
  5
134
331
134
  5
135
331
135
  5
136
331
136
  5
137
331
137
  5
138
331
138
  5
139
331
139
  5
141
331
141
  5
142
331
142
  5
143
331
143
  5
144
331
144
  5
145
331
145
  5
146
331
146
  5
147
331
147
  5
7F
  0
ACDBDETAILVIEWSTYLE
  5
1D0
102
{ACAD_XDICTIONARY
360
3F1
102
}
102
{ACAD_REACTORS
330
1CF
102
}
330
1CF
100
AcDbModelDocViewStyle
 70
     0
  3
Metric50
290
     0
100
AcDbDetailViewStyle
 70
     0
 71
     0
 90
        3
 71
     1
340
11
 62
   256
 40
5.0
340
0
 62
   256
 40
5.0
300

 40
0.0
280
     1
 71
     2
340
16
 90
       25
 62
   256
 71
     3
340
11
 62
   256
 40
5.0
 90
        0
 40
15.0
 90
        1
300
%<\AcVar ViewDetailId>% (%<\AcVar ViewScale \f "%sn">%)
 71
     4
340
16
 90
       25
 62
   256
340
16
 90
       25
 62
   256
280
     0
  0
LAYOUT
  5
1E
102
{ACAD_REACTORS
330
1A
102
}
330
1A
100
AcDbPlotSettings
  1

  2
none_device
  4
none_user_media
  6

 40
6.349999999999999
 41
19.05
 42
6.349974599999999
 43
19.0499873
 44
1500.0
 45
1065.000000000003
 46
7.5
 47
7.5
 48
0.0
 49
0.0
140
0.0
141
0.0
142
1.0
143
1.0
 70
   688
 72
     1
 73
     0
 74
     5
  7

 75
    16
147
1.0
 76
     0
 77
     2
 78
   300
148
0.0
149
0.0
100
AcDbLayout
  1
Layout1
 70
     1
 71
     1
 10
0.0
 20
0.0
 11
12.0
 21
9.0
 12
0.0
 22
0.0
 32
0.0
 14
1.000000000000000E+20
 24
1.000000000000000E+20
 34
1.000000000000000E+20
 15
-1.000000000000000E+20
 25
-1.000000000000000E+20
 35
-1.000000000000000E+20
146
0.0
 13
0.0
 23
0.0
 33
0.0
 16
1.0
 26
0.0
 36
0.0
 17
0.0
 27
1.0
 37
0.0
 76
     0
330
1B
  0
LAYOUT
  5
26
102
{ACAD_REACTORS
330
1A
102
}
330
1A
100
AcDbPlotSettings
  1

  2
none_device
  4

  6

 40
0.0
 41
0.0
 42
0.0
 43
0.0
 44
0.0
 45
0.0
 46
0.0
 47
0.0
 48
0.0
 49
0.0
140
0.0
141
0.0
142
1.0
143
1.0
 70
   688
 72
     0
 73
     0
 74
     5
  7

 75
    16
147
1.0
 76
     0
 77
     2
 78
   300
148
0.0
149
0.0
100
AcDbLayout
  1
Layout2
 70
     1
 71
     2
 10
0.0
 20
0.0
 11
0.0
 21
0.0
 12
0.0
 22
0.0
 32
0.0
 14
0.0
 24
0.0
 34
0.0
 15
0.0
 25
0.0
 35
0.0
146
0.0
 13
0.0
 23
0.0
 33
0.0
 16
1.0
 26
0.0
 36
0.0
 17
0.0
 27
1.0
 37
0.0
 76
     0
330
23
  0
LAYOUT
  5
22
102
{ACAD_REACTORS
330
1A
102
}
330
1A
100
AcDbPlotSettings
  1

  2
none_device
  4

  6

 40
0.0
 41
0.0
 42
0.0
 43
0.0
 44
0.0
 45
0.0
 46
0.0
 47
0.0
 48
0.0
 49
0.0
140
0.0
141
0.0
142
1.0
143
1.0
 70
  1712
 72
     0
 73
     0
 74
     0
  7

 75
     0
147
1.0
 76
     0
 77
     2
 78
   300
148
0.0
149
0.0
100
AcDbLayout
  1
Model
 70
     1
 71
     0
 10
0.0
 20
0.0
 11
1050.000000000004
 21
1485.0
 12
0.0
 22
0.0
 32
0.0
 14
0.0
 24
0.0
 34
0.0
 15
1050.000000000004
 25
1485.0
 35
1050.000000000004
146
0.0
 13
0.0
 23
0.0
 33
0.0
 16
1.0
 26
0.0
 36
0.0
 17
0.0
 27
1.0
 37
0.0
 76
     0
330
1F
331
29
  0
MATERIAL
  5
3D
102
{ACAD_REACTORS
330
3B
102
}
330
3B
100
AcDbMaterial
  1
ByBlock
 73
     1
 78
     1
172
     1
176
     1
270
     1
274
     1
  0
MATERIAL
  5
3C
102
{ACAD_REACTORS
330
3B
102
}
330
3B
100
AcDbMaterial
  1
ByLayer
 73
     1
 78
     1
172
     1
176
     1
270
     1
274
     1
  0
MATERIAL
  5
3E
102
{ACAD_REACTORS
330
3B
102
}
330
3B
100
AcDbMaterial
  1
Global
 73
     1
 78
     1
172
     1
176
     1
270
     1
274
     1
  0
MLEADERSTYLE
  5
1CC
102
{ACAD_XDICTIONARY
360
3ED
102
}
102
{ACAD_REACTORS
330
1BE
102
}
330
1BE
100
AcDbMLeaderStyle
179
     2
170
     2
171
     1
172
     0
 90
        2
 40
0.0
 41
0.0
173
     1
 91
-1056964608
340
14
 92
       -2
290
     1
 42
2.0
291
     1
 43
0.36
  3
Standard
 44
4.0
300

342
11
174
     1
178
     6
175
     1
176
     0
 93
-1056964608
 45
4.0
292
     0
297
     0
 46
4.0
 94
-1056964608
 47
1.0
 49
1.0
140
1.0
293
     1
141
0.0
294
     1
177
     0
142
1.0
295
     0
296
     0
143
0.125
271
     0
272
     9
273
     9
  0
MLINESTYLE
  5
18
102
{ACAD_REACTORS
330
17
102
}
330
17
100
AcDbMlineStyle
  2
STANDARD
 70
     0
  3

 62
   256
 51
90.0
 52
90.0
 71
     2
 49
0.5
 62
   256
  6
BYLAYER
 49
-0.5
 62
   256
  6
BYLAYER
  0
ACDBPLACEHOLDER
  5
F
102
{ACAD_REACTORS
330
E
102
}
330
E
  0
SCALE
  5
8F
102
{ACAD_REACTORS
330
8E
102
}
330
8E
100
AcDbScale
 70
     0
300
1:1
140
1.0
141
1.0
290
     1
  0
SCALE
  5
90
102
{ACAD_REACTORS
330
8E
102
}
330
8E
100
AcDbScale
 70
     0
300
1:2
140
1.0
141
2.0
290
     0
  0
SCALE
  5
91
102
{ACAD_REACTORS
330
8E
102
}
330
8E
100
AcDbScale
 70
     0
300
1:4
140
1.0
141
4.0
290
     0
  0
SCALE
  5
92
102
{ACAD_REACTORS
330
8E
102
}
330
8E
100
AcDbScale
 70
     0
300
1:5
140
1.0
141
5.0
290
     0
  0
SCALE
  5
93
102
{ACAD_REACTORS
330
8E
102
}
330
8E
100
AcDbScale
 70
     0
300
1:8
140
1.0
141
8.0
290
     0
  0
SCALE
  5
94
102
{ACAD_REACTORS
330
8E
102
}
330
8E
100
AcDbScale
 70
     0
300
1:10
140
1.0
141
10.0
290
     0
  0
SCALE
  5
95
102
{ACAD_REACTORS
330
8E
102
}
330
8E
100
AcDbScale
 70
     0
300
1:16
140
1.0
141
16.0
290
     0
  0
SCALE
  5
96
102
{ACAD_REACTORS
330
8E
102
}
330
8E
100
AcDbScale
 70
     0
300
1:20
140
1.0
141
20.0
290
     0
  0
SCALE
  5
97
102
{ACAD_REACTORS
330
8E
102
}
330
8E
100
AcDbScale
 70
     0
300
1:30
140
1.0
141
30.0
290
     0
  0
SCALE
  5
98
102
{ACAD_REACTORS
330
8E
102
}
330
8E
100
AcDbScale
 70
     0
300
1:40
140
1.0
141
40.0
290
     0
  0
SCALE
  5
99
102
{ACAD_REACTORS
330
8E
102
}
330
8E
100
AcDbScale
 70
     0
300
1:50
140
1.0
141
50.0
290
     0
  0
SCALE
  5
9A
102
{ACAD_REACTORS
330
8E
102
}
330
8E
100
AcDbScale
 70
     0
300
1:100
140
1.0
141
100.0
290
     0
  0
SCALE
  5
9B
102
{ACAD_REACTORS
330
8E
102
}
330
8E
100
AcDbScale
 70
     0
300
2:1
140
2.0
141
1.0
290
     0
  0
SCALE
  5
9C
102
{ACAD_REACTORS
330
8E
102
}
330
8E
100
AcDbScale
 70
     0
300
4:1
140
4.0
141
1.0
290
     0
  0
SCALE
  5
9D
102
{ACAD_REACTORS
330
8E
102
}
330
8E
100
AcDbScale
 70
     0
300
8:1
140
8.0
141
1.0
290
     0
  0
SCALE
  5
9E
102
{ACAD_REACTORS
330
8E
102
}
330
8E
100
AcDbScale
 70
     0
300
10:1
140
10.0
141
1.0
290
     0
  0
SCALE
  5
9F
102
{ACAD_REACTORS
330
8E
102
}
330
8E
100
AcDbScale
 70
     0
300
100:1
140
100.0
141
1.0
290
     0
  0
SCALE
  5
A0
102
{ACAD_REACTORS
330
8E
102
}
330
8E
100
AcDbScale
 70
     0
300
1/128" = 1'-0"
140
0.0078125
141
12.0
290
     0
  0
SCALE
  5
A1
102
{ACAD_REACTORS
330
8E
102
}
330
8E
100
AcDbScale
 70
     0
300
1/64" = 1'-0"
140
0.015625
141
12.0
290
     0
  0
SCALE
  5
A2
102
{ACAD_REACTORS
330
8E
102
}
330
8E
100
AcDbScale
 70
     0
300
1/32" = 1'-0"
140
0.03125
141
12.0
290
     0
  0
SCALE
  5
A3
102
{ACAD_REACTORS
330
8E
102
}
330
8E
100
AcDbScale
 70
     0
300
1/16" = 1'-0"
140
0.0625
141
12.0
290
     0
  0
SCALE
  5
A4
102
{ACAD_REACTORS
330
8E
102
}
330
8E
100
AcDbScale
 70
     0
300
3/32" = 1'-0"
140
0.09375
141
12.0
290
     0
  0
SCALE
  5
A5
102
{ACAD_REACTORS
330
8E
102
}
330
8E
100
AcDbScale
 70
     0
300
1/8" = 1'-0"
140
0.125
141
12.0
290
     0
  0
SCALE
  5
A6
102
{ACAD_REACTORS
330
8E
102
}
330
8E
100
AcDbScale
 70
     0
300
3/16" = 1'-0"
140
0.1875
141
12.0
290
     0
  0
SCALE
  5
A7
102
{ACAD_REACTORS
330
8E
102
}
330
8E
100
AcDbScale
 70
     0
300
1/4" = 1'-0"
140
0.25
141
12.0
290
     0
  0
SCALE
  5
A8
102
{ACAD_REACTORS
330
8E
102
}
330
8E
100
AcDbScale
 70
     0
300
3/8" = 1'-0"
140
0.375
141
12.0
290
     0
  0
SCALE
  5
A9
102
{ACAD_REACTORS
330
8E
102
}
330
8E
100
AcDbScale
 70
     0
300
1/2" = 1'-0"
140
0.5
141
12.0
290
     0
  0
SCALE
  5
AA
102
{ACAD_REACTORS
330
8E
102
}
330
8E
100
AcDbScale
 70
     0
300
3/4" = 1'-0"
140
0.75
141
12.0
290
     0
  0
SCALE
  5
AB
102
{ACAD_REACTORS
330
8E
102
}
330
8E
100
AcDbScale
 70
     0
300
1" = 1'-0"
140
1.0
141
12.0
290
     0
  0
SCALE
  5
AC
102
{ACAD_REACTORS
330
8E
102
}
330
8E
100
AcDbScale
 70
     0
300
1-1/2" = 1'-0"
140
1.5
141
12.0
290
     0
  0
SCALE
  5
AD
102
{ACAD_REACTORS
330
8E
102
}
330
8E
100
AcDbScale
 70
     0
300
3" = 1'-0"
140
3.0
141
12.0
290
     0
  0
SCALE
  5
AE
102
{ACAD_REACTORS
330
8E
102
}
330
8E
100
AcDbScale
 70
     0
300
6" = 1'-0"
140
6.0
141
12.0
290
     0
  0
SCALE
  5
AF
102
{ACAD_REACTORS
330
8E
102
}
330
8E
100
AcDbScale
 70
     0
300
1'-0" = 1'-0"
140
12.0
141
12.0
290
     0
  0
ACDBSECTIONVIEWSTYLE
  5
1CE
102
{ACAD_XDICTIONARY
360
3EF
102
}
102
{ACAD_REACTORS
330
1CD
102
}
330
1CD
100
AcDbModelDocViewStyle
 70
     0
  3
Metric50
290
     0
100
AcDbSectionViewStyle
 70
     0
 71
     0
 90
      102
 71
     1
340
11
 62
   256
 40
5.0
340
0
340
0
 62
   256
 40
5.0
300
I, O, Q, S, X, Z
 40
10.0
 90
        0
 40
2.5
 90
        0
 71
     2
340
16
 90
       25
 62
   256
340
16
 90
       50
 62
   256
 40
5.0
 40
2.5
 40
5.0
 71
     3
340
11
 62
   256
 40
5.0
 90
        0
 40
15.0
 90
        1
300
%<\AcVar ViewSectionStartId>%-%<\AcVar ViewSectionEndId>% (%<\AcVar ViewScale \f "%sn">%)
 71
     4
 62
   256
 62
   257
300
ANSI31
 40
1.0
 90
        0
290
     0
290
     0
 90
        6
 40
0.0
 40
1.570796326794896
 40
0.2617993877991494
 40
1.308996938995747
 40
-0.2617993877991494
 40
1.832595714594046
  0
TABLESTYLE
  5
1CB
102
{ACAD_XDICTIONARY
360
3AE
102
}
102
{ACAD_REACTORS
330
1BD
102
}
330
1BD
100
AcDbTableStyle
280
     0
  3
Standard
 70
     0
 71
     0
 40
1.5
 41
1.5
280
     0
281
     0
  7
Standard
140
4.5
170
     2
 62
     0
 63
     7
283
     0
 90
      512
 91
        0
  1

274
    -2
284
     1
 64
     0
275
    -2
285
     1
 65
     0
276
    -2
286
     1
 66
     0
277
    -2
287
     1
 67
     0
278
    -2
288
     1
 68
     0
279
    -2
289
     1
 69
     0
  7
Standard
140
6.0
170
     5
 62
     0
 63
     7
283
     0
 90
      512
 91
        0
  1

274
    -2
284
     1
 64
     0
275
    -2
285
     1
 65
     0
276
    -2
286
     1
 66
     0
277
    -2
287
     1
 67
     0
278
    -2
288
     1
 68
     0
279
    -2
289
     1
 69
     0
  7
Standard
140
4.5
170
     5
 62
     0
 63
     7
283
     0
 90
      512
 91
        0
  1

274
    -2
284
     1
 64
     0
275
    -2
285
     1
 65
     0
276
    -2
286
     1
 66
     0
277
    -2
287
     1
 67
     0
278
    -2
288
     1
 68
     0
279
    -2
289
     1
 69
     0
  0
VISUALSTYLE
  5
2F
102
{ACAD_XDICTIONARY
360
3C1
102
}
102
{ACAD_REACTORS
330
2A
102
}
330
2A
100
AcDbVisualStyle
  2
2dWireframe
 70
     4
177
     2
291
     0
 71
     0
176
     1
 72
     2
176
     1
 73
     0
176
     1
 90
        0
176
     1
 40
0.6
176
     1
 41
30.0
176
     1
 63
     7
421
 16777215
176
     1
 74
     1
176
     1
 91
        4
176
     1
 64
     7
176
     1
 65
   257
176
     1
 75
     1
176
     1
175
     1
176
     1
 42
1.0
176
     1
 92
        0
176
     1
 66
   257
176
     1
 43
1.0
176
     1
 76
     1
176
     1
 77
     6
176
     1
 78
     2
176
     1
 67
     7
176
     1
 79
     5
176
     1
170
     0
176
     1
171
     0
176
     1
290
     0
176
     1
 93
        1
176
     1
 44
0.0
176
     1
173
     0
176
     1
1001
ACAD
1000
AcDbSavedByObjectVersion
1070
     0
  0
VISUALSTYLE
  5
31
102
{ACAD_XDICTIONARY
360
3C5
102
}
102
{ACAD_REACTORS
330
2A
102
}
330
2A
100
AcDbVisualStyle
  2
3D Hidden
 70
     6
177
     2
291
     0
 71
     1
176
     1
 72
     2
176
     1
 73
     2
176
     1
 90
        0
176
     1
 40
0.6
176
     1
 41
30.0
176
     1
 63
     7
421
 16777215
176
     1
 74
     2
176
     1
 91
        2
176
     1
 64
     7
176
     1
 65
   257
176
     1
 75
     2
176
     1
175
     1
176
     1
 42
40.0
176
     1
 92
        0
176
     1
 66
   257
176
     1
 43
1.0
176
     1
 76
     1
176
     1
 77
     6
176
     1
 78
     2
176
     1
 67
     7
176
     1
 79
     3
176
     1
170
     0
176
     1
171
     0
176
     1
290
     0
176
     1
 93
        1
176
     1
 44
0.0
176
     1
173
     0
176
     1
1001
ACAD
1000
AcDbSavedByObjectVersion
1070
     0
  0
VISUALSTYLE
  5
30
102
{ACAD_XDICTIONARY
360
3C3
102
}
102
{ACAD_REACTORS
330
2A
102
}
330
2A
100
AcDbVisualStyle
  2
3dWireframe
 70
     5
177
     2
291
     0
 71
     0
176
     1
 72
     2
176
     1
 73
     0
176
     1
 90
        0
176
     1
 40
0.6
176
     1
 41
30.0
176
     1
 63
     7
421
 16777215
176
     1
 74
     1
176
     1
 91
        4
176
     1
 64
     7
176
     1
 65
   257
176
     1
 75
     1
176
     1
175
     1
176
     1
 42
1.0
176
     1
 92
        0
176
     1
 66
   257
176
     1
 43
1.0
176
     1
 76
     1
176
     1
 77
     6
176
     1
 78
     2
176
     1
 67
     7
176
     1
 79
     5
176
     1
170
     0
176
     1
171
     0
176
     1
290
     0
176
     1
 93
        1
176
     1
 44
0.0
176
     1
173
     0
176
     1
1001
ACAD
1000
AcDbSavedByObjectVersion
1070
     0
  0
VISUALSTYLE
  5
32
102
{ACAD_XDICTIONARY
360
3C7
102
}
102
{ACAD_REACTORS
330
2A
102
}
330
2A
100
AcDbVisualStyle
  2
Basic
 70
     7
177
     2
291
     1
 71
     1
176
     1
 72
     0
176
     1
 73
     1
176
     1
 90
        0
176
     1
 40
0.6
176
     1
 41
30.0
176
     1
 63
     7
421
 16777215
176
     1
 74
     0
176
     1
 91
        4
176
     1
 64
     7
176
     1
 65
   257
176
     1
 75
     1
176
     1
175
     1
176
     1
 42
1.0
176
     1
 92
        8
176
     1
 66
     7
176
     1
 43
1.0
176
     1
 76
     1
176
     1
 77
     6
176
     1
 78
     2
176
     1
 67
     7
176
     1
 79
     5
176
     1
170
     0
176
     1
171
     0
176
     1
290
     0
176
     1
 93
        1
176
     1
 44
0.0
176
     1
173
     0
176
     1
1001
ACAD
1000
AcDbSavedByObjectVersion
1070
     0
  0
VISUALSTYLE
  5
36
102
{ACAD_XDICTIONARY
360
3CF
102
}
102
{ACAD_REACTORS
330
2A
102
}
330
2A
100
AcDbVisualStyle
  2
Brighten
 70
    12
177
     2
291
     1
 71
     2
176
     1
 72
     2
176
     1
 73
     0
176
     1
 90
        0
176
     1
 40
0.6
176
     1
 41
30.0
176
     1
 63
     7
421
 16777215
176
     1
 74
     1
176
     1
 91
        4
176
     1
 64
     7
176
     1
 65
   257
176
     1
 75
     1
176
     1
175
     1
176
     1
 42
1.0
176
     1
 92
        8
176
     1
 66
     7
176
     1
 43
1.0
176
     1
 76
     1
176
     1
 77
     6
176
     1
 78
     2
176
     1
 67
     7
176
     1
 79
     5
176
     1
170
     0
176
     1
171
     0
176
     1
290
     0
176
     1
 93
        1
176
     1
 44
50.0
176
     1
173
     0
176
     1
1001
ACAD
1000
AcDbSavedByObjectVersion
1070
     0
  0
VISUALSTYLE
  5
3A
102
{ACAD_XDICTIONARY
360
3D7
102
}
102
{ACAD_REACTORS
330
2A
102
}
330
2A
100
AcDbVisualStyle
  2
ColorChange
 70
    16
177
     2
291
     1
 71
     2
176
     1
 72
     2
176
     1
 73
     3
176
     1
 90
        0
176
     1
 40
0.6
176
     1
 41
30.0
176
     1
 63
     8
421
  8421504
176
     1
 74
     1
176
     1
 91
        4
176
     1
 64
     7
176
     1
 65
   257
176
     1
 75
     1
176
     1
175
     1
176
     1
 42
1.0
176
     1
 92
        8
176
     1
 66
     8
424
  8421504
176
     1
 43
1.0
176
     1
 76
     1
176
     1
 77
     6
176
     1
 78
     2
176
     1
 67
     7
176
     1
 79
     5
176
     1
170
     0
176
     1
171
     0
176
     1
290
     0
176
     1
 93
        1
176
     1
 44
0.0
176
     1
173
     0
176
     1
1001
ACAD
1000
AcDbSavedByObjectVersion
1070
     0
  0
VISUALSTYLE
  5
34
102
{ACAD_XDICTIONARY
360
3CB
102
}
102
{ACAD_REACTORS
330
2A
102
}
330
2A
100
AcDbVisualStyle
  2
Conceptual
 70
     9
177
     2
291
     0
 71
     3
176
     1
 72
     2
176
     1
 73
     0
176
     1
 90
        0
176
     1
 40
0.6
176
     1
 41
30.0
176
     1
 63
     7
421
 16777215
176
     1
 74
     2
176
     1
 91
        2
176
     1
 64
     7
176
     1
 65
   257
176
     1
 75
     1
176
     1
175
     1
176
     1
 42
40.0
176
     1
 92
        8
176
     1
 66
     7
176
     1
 43
1.0
176
     1
 76
     1
176
     1
 77
     6
176
     1
 78
     2
176
     1
 67
     7
176
     1
 79
     3
176
     1
170
     0
176
     1
171
     0
176
     1
290
     0
176
     1
 93
        1
176
     1
 44
0.0
176
     1
173
     0
176
     1
1001
ACAD
1000
AcDbSavedByObjectVersion
1070
     0
  0
VISUALSTYLE
  5
35
102
{ACAD_XDICTIONARY
360
3CD
102
}
102
{ACAD_REACTORS
330
2A
102
}
330
2A
100
AcDbVisualStyle
  2
Dim
 70
    11
177
     2
291
     1
 71
     2
176
     1
 72
     2
176
     1
 73
     0
176
     1
 90
        0
176
     1
 40
0.6
176
     1
 41
30.0
176
     1
 63
     7
421
 16777215
176
     1
 74
     1
176
     1
 91
        4
176
     1
 64
     7
176
     1
 65
   257
176
     1
 75
     1
176
     1
175
     1
176
     1
 42
1.0
176
     1
 92
        8
176
     1
 66
     7
176
     1
 43
1.0
176
     1
 76
     1
176
     1
 77
     6
176
     1
 78
     2
176
     1
 67
     7
176
     1
 79
     5
176
     1
170
     0
176
     1
171
     0
176
     1
290
     0
176
     1
 93
        1
176
     1
 44
-50.0
176
     1
173
     0
176
     1
1001
ACAD
1000
AcDbSavedByObjectVersion
1070
     0
  0
VISUALSTYLE
  5
1C9
102
{ACAD_XDICTIONARY
360
3EB
102
}
102
{ACAD_REACTORS
330
2A
102
}
330
2A
100
AcDbVisualStyle
  2
EdgeColorOff
 70
    22
177
     2
291
     1
 71
     2
176
     0
 72
     2
176
     0
 73
     0
176
     0
 90
        0
176
     0
 40
0.6
176
     0
 41
30.0
176
     0
 63
     7
421
 16777215
176
     0
 74
     1
176
     0
 91
        4
176
     0
 64
     7
176
     0
 65
   257
176
     0
 75
     1
176
     0
175
     1
176
     0
 42
1.0
176
     0
 92
        8
176
     2
 66
     7
176
     0
 43
1.0
176
     0
 76
     1
176
     0
 77
     6
176
     0
 78
     2
176
     0
 67
     7
176
     0
 79
     5
176
     0
170
     0
176
     0
171
     0
176
     0
290
     0
176
     0
 93
        1
176
     0
 44
0.0
176
     0
173
     0
176
     0
1001
ACAD
1000
AcDbSavedByObjectVersion
1070
     0
  0
VISUALSTYLE
  5
39
102
{ACAD_XDICTIONARY
360
3D5
102
}
102
{ACAD_REACTORS
330
2A
102
}
330
2A
100
AcDbVisualStyle
  2
Facepattern
 70
    15
177
     2
291
     1
 71
     2
176
     1
 72
     2
176
     1
 73
     0
176
     1
 90
        0
176
     1
 40
0.6
176
     1
 41
30.0
176
     1
 63
     7
421
 16777215
176
     1
 74
     1
176
     1
 91
        4
176
     1
 64
     7
176
     1
 65
   257
176
     1
 75
     1
176
     1
175
     1
176
     1
 42
1.0
176
     1
 92
        8
176
     1
 66
     7
176
     1
 43
1.0
176
     1
 76
     1
176
     1
 77
     6
176
     1
 78
     2
176
     1
 67
     7
176
     1
 79
     5
176
     1
170
     0
176
     1
171
     0
176
     1
290
     0
176
     1
 93
        1
176
     1
 44
0.0
176
     1
173
     0
176
     1
1001
ACAD
1000
AcDbSavedByObjectVersion
1070
     0
  0
VISUALSTYLE
  5
2B
102
{ACAD_XDICTIONARY
360
3B9
102
}
102
{ACAD_REACTORS
330
2A
102
}
330
2A
100
AcDbVisualStyle
  2
Flat
 70
     0
177
     2
291
     1
 71
     2
176
     1
 72
     1
176
     1
 73
     1
176
     1
 90
        2
176
     1
 40
0.6
176
     1
 41
30.0
176
     1
 63
     7
421
 16777215
176
     1
 74
     0
176
     1
 91
        4
176
     1
 64
     7
176
     1
 65
   257
176
     1
 75
     1
176
     1
175
     1
176
     1
 42
1.0
176
     1
 92
        8
176
     1
 66
     7
176
     1
 43
1.0
176
     1
 76
     1
176
     1
 77
     6
176
     1
 78
     2
176
     1
 67
     7
176
     1
 79
     5
176
     1
170
     0
176
     1
171
     0
176
     1
290
     0
176
     1
 93
       13
176
     1
 44
0.0
176
     1
173
     0
176
     1
1001
ACAD
1000
AcDbSavedByObjectVersion
1070
     0
  0
VISUALSTYLE
  5
2C
102
{ACAD_XDICTIONARY
360
3BB
102
}
102
{ACAD_REACTORS
330
2A
102
}
330
2A
100
AcDbVisualStyle
  2
FlatWithEdges
 70
     1
177
     2
291
     1
 71
     2
176
     1
 72
     1
176
     1
 73
     1
176
     1
 90
        2
176
     1
 40
0.6
176
     1
 41
30.0
176
     1
 63
     7
421
 16777215
176
     1
 74
     1
176
     1
 91
        4
176
     1
 64
     7
176
     1
 65
   257
176
     1
 75
     1
176
     1
175
     1
176
     1
 42
1.0
176
     1
 92
        0
176
     1
 66
   257
176
     1
 43
1.0
176
     1
 76
     1
176
     1
 77
     6
176
     1
 78
     2
176
     1
 67
     7
176
     1
 79
     5
176
     1
170
     0
176
     1
171
     0
176
     1
290
     0
176
     1
 93
       13
176
     1
 44
0.0
176
     1
173
     0
176
     1
1001
ACAD
1000
AcDbSavedByObjectVersion
1070
     0
  0
VISUALSTYLE
  5
2D
102
{ACAD_XDICTIONARY
360
3BD
102
}
102
{ACAD_REACTORS
330
2A
102
}
330
2A
100
AcDbVisualStyle
  2
Gouraud
 70
     2
177
     2
291
     1
 71
     2
176
     1
 72
     2
176
     1
 73
     1
176
     1
 90
        2
176
     1
 40
0.6
176
     1
 41
30.0
176
     1
 63
     7
421
 16777215
176
     1
 74
     0
176
     1
 91
        4
176
     1
 64
     7
176
     1
 65
   257
176
     1
 75
     1
176
     1
175
     1
176
     1
 42
1.0
176
     1
 92
        0
176
     1
 66
     7
176
     1
 43
1.0
176
     1
 76
     1
176
     1
 77
     6
176
     1
 78
     2
176
     1
 67
     7
176
     1
 79
     5
176
     1
170
     0
176
     1
171
     0
176
     1
290
     0
176
     1
 93
       13
176
     1
 44
0.0
176
     1
173
     0
176
     1
1001
ACAD
1000
AcDbSavedByObjectVersion
1070
     0
  0
VISUALSTYLE
  5
2E
102
{ACAD_XDICTIONARY
360
3BF
102
}
102
{ACAD_REACTORS
330
2A
102
}
330
2A
100
AcDbVisualStyle
  2
GouraudWithEdges
 70
     3
177
     2
291
     1
 71
     2
176
     1
 72
     2
176
     1
 73
     1
176
     1
 90
        2
176
     1
 40
0.6
176
     1
 41
30.0
176
     1
 63
     7
421
 16777215
176
     1
 74
     1
176
     1
 91
        4
176
     1
 64
     7
176
     1
 65
   257
176
     1
 75
     1
176
     1
175
     1
176
     1
 42
1.0
176
     1
 92
        0
176
     1
 66
   257
176
     1
 43
1.0
176
     1
 76
     1
176
     1
 77
     6
176
     1
 78
     2
176
     1
 67
     7
176
     1
 79
     5
176
     1
170
     0
176
     1
171
     0
176
     1
290
     0
176
     1
 93
       13
176
     1
 44
0.0
176
     1
173
     0
176
     1
1001
ACAD
1000
AcDbSavedByObjectVersion
1070
     0
  0
VISUALSTYLE
  5
1C1
102
{ACAD_XDICTIONARY
360
3DB
102
}
102
{ACAD_REACTORS
330
2A
102
}
330
2A
100
AcDbVisualStyle
  2
Hidden
 70
     6
177
     2
291
     0
 71
     1
176
     1
 72
     2
176
     1
 73
     2
176
     1
 90
        0
176
     1
 40
0.6
176
     1
 41
30.0
176
     1
 63
     7
421
 16777215
176
     1
 74
     2
176
     1
 91
        2
176
     1
 64
     7
176
     1
 65
   257
176
     1
 75
     2
176
     1
175
     1
176
     1
 42
40.0
176
     1
 92
        0
176
     1
 66
   257
176
     1
 43
1.0
176
     1
 76
     1
176
     1
 77
     6
176
     1
 78
     2
176
     1
 67
     7
176
     1
 79
     3
176
     1
170
     0
176
     1
171
     0
176
     1
290
     0
176
     1
 93
        1
176
     1
 44
0.0
176
     1
173
     0
176
     1
1001
ACAD
1000
AcDbSavedByObjectVersion
1070
     0
  0
VISUALSTYLE
  5
1C7
102
{ACAD_XDICTIONARY
360
3E7
102
}
102
{ACAD_REACTORS
330
2A
102
}
330
2A
100
AcDbVisualStyle
  2
JitterOff
 70
    20
177
     2
291
     1
 71
     2
176
     0
 72
     2
176
     0
 73
     0
176
     0
 90
        0
176
     0
 40
0.6
176
     0
 41
30.0
176
     0
 63
     7
421
 16777215
176
     0
 74
     1
176
     0
 91
        4
176
     0
 64
     7
176
     0
 65
   257
176
     0
 75
     1
176
     0
175
     1
176
     0
 42
1.0
176
     0
 92
       10
176
     2
 66
     7
176
     0
 43
1.0
176
     0
 76
     1
176
     0
 77
     6
176
     0
 78
     2
176
     0
 67
     7
176
     0
 79
     5
176
     0
170
     0
176
     0
171
     0
176
     0
290
     0
176
     0
 93
        1
176
     0
 44
0.0
176
     0
173
     0
176
     0
1001
ACAD
1000
AcDbSavedByObjectVersion
1070
     0
  0
VISUALSTYLE
  5
38
102
{ACAD_XDICTIONARY
360
3D3
102
}
102
{ACAD_REACTORS
330
2A
102
}
330
2A
100
AcDbVisualStyle
  2
Linepattern
 70
    14
177
     2
291
     1
 71
     2
176
     1
 72
     2
176
     1
 73
     0
176
     1
 90
        0
176
     1
 40
0.6
176
     1
 41
30.0
176
     1
 63
     7
421
 16777215
176
     1
 74
     1
176
     1
 91
        4
176
     1
 64
     7
176
     1
 65
   257
176
     1
 75
     7
176
     1
175
     7
176
     1
 42
1.0
176
     1
 92
        8
176
     1
 66
     7
176
     1
 43
1.0
176
     1
 76
     1
176
     1
 77
     6
176
     1
 78
     2
176
     1
 67
     7
176
     1
 79
     5
176
     1
170
     0
176
     1
171
     0
176
     1
290
     0
176
     1
 93
        1
176
     1
 44
0.0
176
     1
173
     0
176
     1
1001
ACAD
1000
AcDbSavedByObjectVersion
1070
     0
  0
VISUALSTYLE
  5
1C8
102
{ACAD_XDICTIONARY
360
3E9
102
}
102
{ACAD_REACTORS
330
2A
102
}
330
2A
100
AcDbVisualStyle
  2
OverhangOff
 70
    21
177
     2
291
     1
 71
     2
176
     0
 72
     2
176
     0
 73
     0
176
     0
 90
        0
176
     0
 40
0.6
176
     0
 41
30.0
176
     0
 63
     7
421
 16777215
176
     0
 74
     1
176
     0
 91
        4
176
     0
 64
     7
176
     0
 65
   257
176
     0
 75
     1
176
     0
175
     1
176
     0
 42
1.0
176
     0
 92
        9
176
     2
 66
     7
176
     0
 43
1.0
176
     0
 76
     1
176
     0
 77
     6
176
     0
 78
     2
176
     0
 67
     7
176
     0
 79
     5
176
     0
170
     0
176
     0
171
     0
176
     0
290
     0
176
     0
 93
        1
176
     0
 44
0.0
176
     0
173
     0
176
     0
1001
ACAD
1000
AcDbSavedByObjectVersion
1070
     0
  0
VISUALSTYLE
  5
33
102
{ACAD_XDICTIONARY
360
3C9
102
}
102
{ACAD_REACTORS
330
2A
102
}
330
2A
100
AcDbVisualStyle
  2
Realistic
 70
     8
177
     2
291
     0
 71
     2
176
     1
 72
     2
176
     1
 73
     0
176
     1
 90
        0
176
     1
 40
0.6
176
     1
 41
30.0
176
     1
 63
     7
421
 16777215
176
     1
 74
     1
176
     1
 91
        0
176
     1
 64
     7
176
     1
 65
   257
176
     1
 75
     1
176
     1
175
     1
176
     1
 42
1.0
176
     1
 92
        8
176
     1
 66
     8
424
  7895160
176
     1
 43
1.0
176
     1
 76
     1
176
     1
 77
     6
176
     1
 78
     2
176
     1
 67
     7
176
     1
 79
     5
176
     1
170
     0
176
     1
171
     0
176
     1
290
     0
176
     1
 93
       13
176
     1
 44
0.0
176
     1
173
     0
176
     1
1001
ACAD
1000
AcDbSavedByObjectVersion
1070
     0
  0
VISUALSTYLE
  5
1C6
102
{ACAD_XDICTIONARY
360
3E5
102
}
102
{ACAD_REACTORS
330
2A
102
}
330
2A
100
AcDbVisualStyle
  2
Shaded
 70
    27
177
     2
291
     0
 71
     2
176
     1
 72
     2
176
     1
 73
     1
176
     1
 90
        2
176
     1
 40
0.6
176
     1
 41
30.0
176
     1
 63
     7
421
 16777215
176
     1
 74
     0
176
     1
 91
        4
176
     1
 64
     7
176
     1
 65
   257
176
     1
 75
     1
176
     1
175
     1
176
     1
 42
1.0
176
     1
 92
        8
176
     1
 66
   257
176
     1
 43
1.0
176
     1
 76
     1
176
     1
 77
     6
176
     1
 78
     2
176
     1
 67
     8
425
  7895160
176
     1
 79
     3
176
     1
170
     0
176
     1
171
     0
176
     1
290
     0
176
     1
 93
        5
176
     1
 44
0.0
176
     1
173
     0
176
     1
1001
ACAD
1000
AcDbSavedByObjectVersion
1070
     0
  0
VISUALSTYLE
  5
1C5
102
{ACAD_XDICTIONARY
360
3E3
102
}
102
{ACAD_REACTORS
330
2A
102
}
330
2A
100
AcDbVisualStyle
  2
Shaded with edges
 70
    26
177
     2
291
     0
 71
     2
176
     1
 72
     2
176
     1
 73
     1
176
     1
 90
        2
176
     1
 40
0.6
176
     1
 41
30.0
176
     1
 63
     7
421
 16777215
176
     1
 74
     1
176
     1
 91
        2
176
     1
 64
     7
176
     1
 65
   257
176
     1
 75
     2
176
     1
175
     1
176
     1
 42
1.0
176
     1
 92
        8
176
     1
 66
   257
176
     1
 43
1.0
176
     1
 76
     1
176
     1
 77
     6
176
     1
 78
     2
176
     1
 67
     7
176
     1
 79
     3
176
     1
170
     0
176
     1
171
     0
176
     1
290
     0
176
     1
 93
        5
176
     1
 44
0.0
176
     1
173
     0
176
     1
1001
ACAD
1000
AcDbSavedByObjectVersion
1070
     0
  0
VISUALSTYLE
  5
1C2
102
{ACAD_XDICTIONARY
360
3DD
102
}
102
{ACAD_REACTORS
330
2A
102
}
330
2A
100
AcDbVisualStyle
  2
Shades of Gray
 70
    23
177
     2
291
     0
 71
     2
176
     1
 72
     2
176
     1
 73
     3
176
     1
 90
        0
176
     1
 40
0.6
176
     1
 41
30.0
176
     1
 63
     7
421
 16777215
176
     1
 74
     2
176
     1
 91
        2
176
     1
 64
     7
176
     1
 65
     7
176
     1
 75
     1
176
     1
175
     1
176
     1
 42
40.0
176
     1
 92
        8
176
     1
 66
     7
176
     1
 43
1.0
176
     1
 76
     1
176
     1
 77
     6
176
     1
 78
     2
176
     1
 67
     7
176
     1
 79
     3
176
     1
170
     0
176
     1
171
     0
176
     1
290
     0
176
     1
 93
        1
176
     1
 44
0.0
176
     1
173
     0
176
     1
1001
ACAD
1000
AcDbSavedByObjectVersion
1070
     0
  0
VISUALSTYLE
  5
1C3
102
{ACAD_XDICTIONARY
360
3DF
102
}
102
{ACAD_REACTORS
330
2A
102
}
330
2A
100
AcDbVisualStyle
  2
Sketchy
 70
    24
177
     2
291
     0
 71
     1
176
     1
 72
     2
176
     1
 73
     2
176
     1
 90
        0
176
     1
 40
0.6
176
     1
 41
30.0
176
     1
 63
     7
421
 16777215
176
     1
 74
     2
176
     1
 91
        2
176
     1
 64
     7
176
     1
 65
     7
176
     1
 75
     1
176
     1
175
     1
176
     1
 42
40.0
176
     1
 92
       11
176
     1
 66
     7
176
     1
 43
1.0
176
     1
 76
     1
176
     1
 77
     6
176
     1
 78
     2
176
     1
 67
     7
176
     1
 79
     6
176
     1
170
     0
176
     1
171
     0
176
     1
290
     0
176
     1
 93
        1
176
     1
 44
0.0
176
     1
173
     0
176
     1
1001
ACAD
1000
AcDbSavedByObjectVersion
1070
     0
  0
VISUALSTYLE
  5
37
102
{ACAD_XDICTIONARY
360
3D1
102
}
102
{ACAD_REACTORS
330
2A
102
}
330
2A
100
AcDbVisualStyle
  2
Thicken
 70
    13
177
     2
291
     1
 71
     2
176
     1
 72
     2
176
     1
 73
     0
176
     1
 90
        0
176
     1
 40
0.6
176
     1
 41
30.0
176
     1
 63
     7
421
 16777215
176
     1
 74
     1
176
     1
 91
        4
176
     1
 64
     7
176
     1
 65
   257
176
     1
 75
     1
176
     1
175
     1
176
     1
 42
1.0
176
     1
 92
       12
176
     1
 66
     7
176
     1
 43
1.0
176
     1
 76
     1
176
     1
 77
     6
176
     1
 78
     2
176
     1
 67
     7
176
     1
 79
     5
176
     1
170
     0
176
     1
171
     0
176
     1
290
     0
176
     1
 93
        1
176
     1
 44
0.0
176
     1
173
     0
176
     1
1001
ACAD
1000
AcDbSavedByObjectVersion
1070
     0
  0
VISUALSTYLE
  5
1C0
102
{ACAD_XDICTIONARY
360
3D9
102
}
102
{ACAD_REACTORS
330
2A
102
}
330
2A
100
AcDbVisualStyle
  2
Wireframe
 70
     5
177
     2
291
     0
 71
     0
176
     1
 72
     2
176
     1
 73
     0
176
     1
 90
        0
176
     1
 40
0.6
176
     1
 41
30.0
176
     1
 63
     7
421
 16777215
176
     1
 74
     1
176
     1
 91
        4
176
     1
 64
     7
176
     1
 65
   257
176
     1
 75
     1
176
     1
175
     1
176
     1
 42
1.0
176
     1
 92
        0
176
     1
 66
   257
176
     1
 43
1.0
176
     1
 76
     1
176
     1
 77
     6
176
     1
 78
     2
176
     1
 67
     7
176
     1
 79
     3
176
     1
170
     0
176
     1
171
     0
176
     1
290
     0
176
     1
 93
        1
176
     1
 44
0.0
176
     1
173
     0
176
     1
1001
ACAD
1000
AcDbSavedByObjectVersion
1070
     0
  0
VISUALSTYLE
  5
1C4
102
{ACAD_XDICTIONARY
360
3E1
102
}
102
{ACAD_REACTORS
330
2A
102
}
330
2A
100
AcDbVisualStyle
  2
X-Ray
 70
    25
177
     2
291
     0
 71
     2
176
     1
 72
     2
176
     1
 73
     1
176
     1
 90
        1
176
     1
 40
0.5
176
     1
 41
30.0
176
     1
 63
     7
421
 16777215
176
     1
 74
     1
176
     1
 91
        0
176
     1
 64
     7
176
     1
 65
   257
176
     1
 75
     1
176
     1
175
     1
176
     1
 42
1.0
176
     1
 92
        8
176
     1
 66
     7
176
     1
 43
1.0
176
     1
 76
     1
176
     1
 77
     6
176
     1
 78
     2
176
     1
 67
     7
176
     1
 79
     3
176
     1
170
     0
176
     1
171
     0
176
     1
290
     0
176
     1
 93
       13
176
     1
 44
0.0
176
     1
173
     0
176
     1
1001
ACAD
1000
AcDbSavedByObjectVersion
1070
     0
  0
DICTIONARYVAR
  5
1BC
102
{ACAD_REACTORS
330
1BB
102
}
330
1BB
100
DictionaryVariables
280
     0
  1
1:1
  0
DICTIONARYVAR
  5
3AB
102
{ACAD_REACTORS
330
1BB
102
}
330
1BB
100
DictionaryVariables
280
     0
  1
STANDARD
  0
DICTIONARYVAR
  5
3AA
102
{ACAD_REACTORS
330
1BB
102
}
330
1BB
100
DictionaryVariables
280
     0
  1
STANDARD
  0
DICTIONARYVAR
  5
3AC
102
{ACAD_REACTORS
330
1BB
102
}
330
1BB
100
DictionaryVariables
280
     0
  1
Metric50
  0
DICTIONARYVAR
  5
3AD
102
{ACAD_REACTORS
330
1BB
102
}
330
1BB
100
DictionaryVariables
280
     0
  1
Metric50
  0
DICTIONARY
  5
3B8
102
{ACAD_REACTORS
330
3B6
102
}
330
3B6
100
AcDbDictionary
281
     1
  0
DICTIONARY
  5
3B7
102
{ACAD_REACTORS
330
3B6
102
}
330
3B6
100
AcDbDictionary
281
     1
  3
2508242849424
350
3B1
  3
2508242849440
350
3B2
  3
2508242849456
350
3B3
  3
2508242849472
350
3B4
  3
2508242849488
350
3B5
  0
DICTIONARY
  5
3F1
330
1D0
100
AcDbDictionary
280
     1
281
     1
  3
ACAD_XREC_ROUNDTRIP
360
3F2
  0
DICTIONARY
  5
3ED
330
1CC
100
AcDbDictionary
280
     1
281
     1
  3
ACAD_XREC_ROUNDTRIP
360
3EE
  0
DICTIONARY
  5
3EF
330
1CE
100
AcDbDictionary
280
     1
281
     1
  3
ACAD_XREC_ROUNDTRIP
360
3F0
  0
DICTIONARY
  5
3AE
330
1CB
100
AcDbDictionary
280
     1
281
     1
  3
ACAD_ROUNDTRIP_2008_TABLESTYLE_CELLSTYLEMAP
360
3AF
  0
DICTIONARY
  5
3C1
330
2F
100
AcDbDictionary
280
     1
281
     1
  3
ACAD_XREC_ROUNDTRIP
360
3C2
  0
DICTIONARY
  5
3C5
330
31
100
AcDbDictionary
280
     1
281
     1
  3
ACAD_XREC_ROUNDTRIP
360
3C6
  0
DICTIONARY
  5
3C3
330
30
100
AcDbDictionary
280
     1
281
     1
  3
ACAD_XREC_ROUNDTRIP
360
3C4
  0
DICTIONARY
  5
3C7
330
32
100
AcDbDictionary
280
     1
281
     1
  3
ACAD_XREC_ROUNDTRIP
360
3C8
  0
DICTIONARY
  5
3CF
330
36
100
AcDbDictionary
280
     1
281
     1
  3
ACAD_XREC_ROUNDTRIP
360
3D0
  0
DICTIONARY
  5
3D7
330
3A
100
AcDbDictionary
280
     1
281
     1
  3
ACAD_XREC_ROUNDTRIP
360
3D8
  0
DICTIONARY
  5
3CB
330
34
100
AcDbDictionary
280
     1
281
     1
  3
ACAD_XREC_ROUNDTRIP
360
3CC
  0
DICTIONARY
  5
3CD
330
35
100
AcDbDictionary
280
     1
281
     1
  3
ACAD_XREC_ROUNDTRIP
360
3CE
  0
DICTIONARY
  5
3EB
330
1C9
100
AcDbDictionary
280
     1
281
     1
  3
ACAD_XREC_ROUNDTRIP
360
3EC
  0
DICTIONARY
  5
3D5
330
39
100
AcDbDictionary
280
     1
281
     1
  3
ACAD_XREC_ROUNDTRIP
360
3D6
  0
DICTIONARY
  5
3B9
330
2B
100
AcDbDictionary
280
     1
281
     1
  3
ACAD_XREC_ROUNDTRIP
360
3BA
  0
DICTIONARY
  5
3BB
330
2C
100
AcDbDictionary
280
     1
281
     1
  3
ACAD_XREC_ROUNDTRIP
360
3BC
  0
DICTIONARY
  5
3BD
330
2D
100
AcDbDictionary
280
     1
281
     1
  3
ACAD_XREC_ROUNDTRIP
360
3BE
  0
DICTIONARY
  5
3BF
330
2E
100
AcDbDictionary
280
     1
281
     1
  3
ACAD_XREC_ROUNDTRIP
360
3C0
  0
DICTIONARY
  5
3DB
330
1C1
100
AcDbDictionary
280
     1
281
     1
  3
ACAD_XREC_ROUNDTRIP
360
3DC
  0
DICTIONARY
  5
3E7
330
1C7
100
AcDbDictionary
280
     1
281
     1
  3
ACAD_XREC_ROUNDTRIP
360
3E8
  0
DICTIONARY
  5
3D3
330
38
100
AcDbDictionary
280
     1
281
     1
  3
ACAD_XREC_ROUNDTRIP
360
3D4
  0
DICTIONARY
  5
3E9
330
1C8
100
AcDbDictionary
280
     1
281
     1
  3
ACAD_XREC_ROUNDTRIP
360
3EA
  0
DICTIONARY
  5
3C9
330
33
100
AcDbDictionary
280
     1
281
     1
  3
ACAD_XREC_ROUNDTRIP
360
3CA
  0
DICTIONARY
  5
3E5
330
1C6
100
AcDbDictionary
280
     1
281
     1
  3
ACAD_XREC_ROUNDTRIP
360
3E6
  0
DICTIONARY
  5
3E3
330
1C5
100
AcDbDictionary
280
     1
281
     1
  3
ACAD_XREC_ROUNDTRIP
360
3E4
  0
DICTIONARY
  5
3DD
330
1C2
100
AcDbDictionary
280
     1
281
     1
  3
ACAD_XREC_ROUNDTRIP
360
3DE
  0
DICTIONARY
  5
3DF
330
1C3
100
AcDbDictionary
280
     1
281
     1
  3
ACAD_XREC_ROUNDTRIP
360
3E0
  0
DICTIONARY
  5
3D1
330
37
100
AcDbDictionary
280
     1
281
     1
  3
ACAD_XREC_ROUNDTRIP
360
3D2
  0
DICTIONARY
  5
3D9
330
1C0
100
AcDbDictionary
280
     1
281
     1
  3
ACAD_XREC_ROUNDTRIP
360
3DA
  0
DICTIONARY
  5
3E1
330
1C4
100
AcDbDictionary
280
     1
281
     1
  3
ACAD_XREC_ROUNDTRIP
360
3E2
  0
XRECORD
  5
3B1
102
{ACAD_REACTORS
330
3B7
102
}
330
3B7
100
AcDbXrecord
280
     1
  1
AcDb_Thumbnail_Schema
102
{ATTRRECORD
341
3B2
  2
AcDbDs::TreatedAsObjectData
280
     1
291
     1
102
ATTRRECORD}
102
{ATTRRECORD
341
3B3
  2
AcDbDs::Legacy
280
     1
291
     1
102
ATTRRECORD}
  2
AcDbDs::ID
280
    10
 91
        8
102
{ATTRRECORD
341
3B4
  2
AcDs:Indexable
280
     1
291
     1
102
ATTRRECORD}
102
{ATTRRECORD
341
3B5
  2
AcDbDs::HandleAttribute
280
     7
282
     1
102
ATTRRECORD}
  2
Thumbnail_Data
280
    15
 91
        0
  0
XRECORD
  5
3B2
102
{ACAD_REACTORS
330
3B7
102
}
330
3B7
100
AcDbXrecord
280
     1
  1
AcDbDs::TreatedAsObjectDataSchema
  2
AcDbDs::TreatedAsObjectData
280
     1
 91
        0
  0
XRECORD
  5
3B3
102
{ACAD_REACTORS
330
3B7
102
}
330
3B7
100
AcDbXrecord
280
     1
  1
AcDbDs::LegacySchema
  2
AcDbDs::Legacy
280
     1
 91
        0
  0
XRECORD
  5
3B4
102
{ACAD_REACTORS
330
3B7
102
}
330
3B7
100
AcDbXrecord
280
     1
  1
AcDbDs::IndexedPropertySchema
  2
AcDs:Indexable
280
     1
 91
        0
  0
XRECORD
  5
3B5
102
{ACAD_REACTORS
330
3B7
102
}
330
3B7
100
AcDbXrecord
280
     1
  1
AcDbDs::HandleAttributeSchema
  2
AcDbDs::HandleAttribute
280
     7
 91
        1
284
     1
  0
XRECORD
  5
3F2
102
{ACAD_REACTORS
330
3F1
102
}
330
3F1
100
AcDbXrecord
280
     1
102
DISPLAYNAME
  1
Metric50
102
FLAGS
 90
        0
  0
XRECORD
  5
3EE
102
{ACAD_REACTORS
330
3ED
102
}
330
3ED
100
AcDbXrecord
280
     1
102
ACAD_ROUNDTRIP_2012_MLEADER_STYLE
298
     1
  0
XRECORD
  5
3F0
102
{ACAD_REACTORS
330
3EF
102
}
330
3EF
100
AcDbXrecord
280
     1
102
DISPLAYNAME
  1
Metric50
102
FLAGS
 90
        0
  0
CELLSTYLEMAP
  5
3AF
102
{ACAD_REACTORS
330
3AE
102
}
330
3AE
100
AcDbCellStyleMap
 90
        3
300
CELLSTYLE
  1
TABLEFORMAT_BEGIN
 90
        5
170
     1
 91
        0
 92
    32768
 62
   257
 93
        1
300
CONTENTFORMAT
  1
CONTENTFORMAT_BEGIN
 90
        0
 91
        0
 92
      512
 93
        0
300

 40
0.0
140
1.0
 94
        5
 62
     0
340
11
144
6.0
309
CONTENTFORMAT_END
171
     1
301
MARGIN
  1
CELLMARGIN_BEGIN
 40
1.5
 40
1.5
 40
1.5
 40
1.5
 40
4.5
 40
4.5
309
CELLMARGIN_END
 94
        6
 95
        1
302
GRIDFORMAT
  1
GRIDFORMAT_BEGIN
 90
        0
 91
        1
 62
     0
 92
       -2
340
0
 93
        0
 40
1.125
309
GRIDFORMAT_END
 95
        2
302
GRIDFORMAT
  1
GRIDFORMAT_BEGIN
 90
        0
 91
        1
 62
     0
 92
       -2
340
0
 93
        0
 40
1.125
309
GRIDFORMAT_END
 95
        4
302
GRIDFORMAT
  1
GRIDFORMAT_BEGIN
 90
        0
 91
        1
 62
     0
 92
       -2
340
0
 93
        0
 40
1.125
309
GRIDFORMAT_END
 95
        8
302
GRIDFORMAT
  1
GRIDFORMAT_BEGIN
 90
        0
 91
        1
 62
     0
 92
       -2
340
0
 93
        0
 40
1.125
309
GRIDFORMAT_END
 95
       16
302
GRIDFORMAT
  1
GRIDFORMAT_BEGIN
 90
        0
 91
        1
 62
     0
 92
       -2
340
0
 93
        0
 40
1.125
309
GRIDFORMAT_END
 95
       32
302
GRIDFORMAT
  1
GRIDFORMAT_BEGIN
 90
        0
 91
        1
 62
     0
 92
       -2
340
0
 93
        0
 40
1.125
309
GRIDFORMAT_END
309
TABLEFORMAT_END
  1
CELLSTYLE_BEGIN
 90
        1
 91
        1
300
_TITLE
309
CELLSTYLE_END
300
CELLSTYLE
  1
TABLEFORMAT_BEGIN
 90
        5
170
     1
 91
        0
 92
        0
 62
   257
 93
        1
300
CONTENTFORMAT
  1
CONTENTFORMAT_BEGIN
 90
        0
 91
        0
 92
      512
 93
        0
300

 40
0.0
140
1.0
 94
        5
 62
     0
340
11
144
4.5
309
CONTENTFORMAT_END
171
     1
301
MARGIN
  1
CELLMARGIN_BEGIN
 40
1.5
 40
1.5
 40
1.5
 40
1.5
 40
4.5
 40
4.5
309
CELLMARGIN_END
 94
        6
 95
        1
302
GRIDFORMAT
  1
GRIDFORMAT_BEGIN
 90
        0
 91
        1
 62
     0
 92
       -2
340
0
 93
        0
 40
1.125
309
GRIDFORMAT_END
 95
        2
302
GRIDFORMAT
  1
GRIDFORMAT_BEGIN
 90
        0
 91
        1
 62
     0
 92
       -2
340
0
 93
        0
 40
1.125
309
GRIDFORMAT_END
 95
        4
302
GRIDFORMAT
  1
GRIDFORMAT_BEGIN
 90
        0
 91
        1
 62
     0
 92
       -2
340
0
 93
        0
 40
1.125
309
GRIDFORMAT_END
 95
        8
302
GRIDFORMAT
  1
GRIDFORMAT_BEGIN
 90
        0
 91
        1
 62
     0
 92
       -2
340
0
 93
        0
 40
1.125
309
GRIDFORMAT_END
 95
       16
302
GRIDFORMAT
  1
GRIDFORMAT_BEGIN
 90
        0
 91
        1
 62
     0
 92
       -2
340
0
 93
        0
 40
1.125
309
GRIDFORMAT_END
 95
       32
302
GRIDFORMAT
  1
GRIDFORMAT_BEGIN
 90
        0
 91
        1
 62
     0
 92
       -2
340
0
 93
        0
 40
1.125
309
GRIDFORMAT_END
309
TABLEFORMAT_END
  1
CELLSTYLE_BEGIN
 90
        2
 91
        1
300
_HEADER
309
CELLSTYLE_END
300
CELLSTYLE
  1
TABLEFORMAT_BEGIN
 90
        5
170
     1
 91
        0
 92
        0
 62
   257
 93
        1
300
CONTENTFORMAT
  1
CONTENTFORMAT_BEGIN
 90
        0
 91
        0
 92
      512
 93
        0
300

 40
0.0
140
1.0
 94
        2
 62
     0
340
11
144
4.5
309
CONTENTFORMAT_END
171
     1
301
MARGIN
  1
CELLMARGIN_BEGIN
 40
1.5
 40
1.5
 40
1.5
 40
1.5
 40
4.5
 40
4.5
309
CELLMARGIN_END
 94
        6
 95
        1
302
GRIDFORMAT
  1
GRIDFORMAT_BEGIN
 90
        0
 91
        1
 62
     0
 92
       -2
340
0
 93
        0
 40
1.125
309
GRIDFORMAT_END
 95
        2
302
GRIDFORMAT
  1
GRIDFORMAT_BEGIN
 90
        0
 91
        1
 62
     0
 92
       -2
340
0
 93
        0
 40
1.125
309
GRIDFORMAT_END
 95
        4
302
GRIDFORMAT
  1
GRIDFORMAT_BEGIN
 90
        0
 91
        1
 62
     0
 92
       -2
340
0
 93
        0
 40
1.125
309
GRIDFORMAT_END
 95
        8
302
GRIDFORMAT
  1
GRIDFORMAT_BEGIN
 90
        0
 91
        1
 62
     0
 92
       -2
340
0
 93
        0
 40
1.125
309
GRIDFORMAT_END
 95
       16
302
GRIDFORMAT
  1
GRIDFORMAT_BEGIN
 90
        0
 91
        1
 62
     0
 92
       -2
340
0
 93
        0
 40
1.125
309
GRIDFORMAT_END
 95
       32
302
GRIDFORMAT
  1
GRIDFORMAT_BEGIN
 90
        0
 91
        1
 62
     0
 92
       -2
340
0
 93
        0
 40
1.125
309
GRIDFORMAT_END
309
TABLEFORMAT_END
  1
CELLSTYLE_BEGIN
 90
        3
 91
        2
300
_DATA
309
CELLSTYLE_END
  0
XRECORD
  5
3C2
102
{ACAD_REACTORS
330
3C1
102
}
330
3C1
100
AcDbXrecord
280
     1
102
RTVSPost2010Prop28
280
     1
102
RTVSPost2010PropOp28
 70
     1
102
RTVSPost2010Prop29
280
     1
102
RTVSPost2010PropOp29
 70
     1
102
RTVSPost2010Prop30
280
     0
102
RTVSPost2010PropOp30
 70
     1
102
RTVSPost2010Prop31
280
     0
102
RTVSPost2010PropOp31
 70
     1
102
RTVSPost2010Prop32
280
     0
102
RTVSPost2010PropOp32
 70
     1
102
RTVSPost2010Prop33
280
     0
102
RTVSPost2010PropOp33
 70
     1
102
RTVSPost2010Prop34
280
     0
102
RTVSPost2010PropOp34
 70
     1
102
RTVSPost2010Prop35
280
     0
102
RTVSPost2010PropOp35
 70
     1
102
RTVSPost2010Prop36
280
     0
102
RTVSPost2010PropOp36
 70
     1
102
RTVSPost2010Prop37
 90
       50
102
RTVSPost2010PropOp37
 70
     1
102
RTVSPost2010Prop38
140
0.0
102
RTVSPost2010PropOp38
 70
     1
102
RTVSPost2010Prop39
140
1.0
102
RTVSPost2010PropOp39
 70
     1
102
RTVSPost2010Prop40
 90
        0
102
RTVSPost2010PropOp40
 70
     1
102
RTVSPost2010Prop41ColorIndex
 90
       18
102
RTVSPost2010Prop41ColorRGB
 90
        0
102
RTVSPost2010PropOp41
 70
     1
102
RTVSPost2010Prop42
 90
       50
102
RTVSPost2010PropOp42
 70
     1
102
RTVSPost2010Prop43
 90
        3
102
RTVSPost2010PropOp43
 70
     1
102
RTVSPost2010Prop44ColorIndex
 90
        5
102
RTVSPost2010Prop44ColorRGB
 90
      255
102
RTVSPost2010PropOp44
 70
     1
102
RTVSPost2010Prop45
280
     0
102
RTVSPost2010PropOp45
 70
     1
102
RTVSPost2010Prop46
 90
       50
102
RTVSPost2010PropOp46
 70
     1
102
RTVSPost2010Prop47
 90
       50
102
RTVSPost2010PropOp47
 70
     1
102
RTVSPost2010Prop48
 90
       50
102
RTVSPost2010PropOp48
 70
     1
102
RTVSPost2010Prop49
280
     0
102
RTVSPost2010PropOp49
 70
     1
102
RTVSPost2010Prop50
 90
       50
102
RTVSPost2010PropOp50
 70
     1
102
RTVSPost2010Prop51ColorIndex
 90
      256
102
RTVSPost2010Prop51ColorRGB
 90
-16777216
102
RTVSPost2010PropOp51
 70
     0
102
RTVSPost2010Prop52
140
1.0
102
RTVSPost2010PropOp52
 70
     0
102
RTVSPost2010Prop53
 90
        2
102
RTVSPost2010PropOp53
 70
     1
102
RTVSPost2010Prop54
  1
strokes_ogs.tif
102
RTVSPost2010PropOp54
 70
     1
102
RTVSPost2010Prop55
280
     0
102
RTVSPost2010PropOp55
 70
     1
102
RTVSPost2010Prop56
140
1.0
102
RTVSPost2010PropOp56
 70
     1
102
RTVSPost2010Prop57
140
1.0
102
RTVSPost2010PropOp57
 70
     1
  0
XRECORD
  5
3C6
102
{ACAD_REACTORS
330
3C5
102
}
330
3C5
100
AcDbXrecord
280
     1
102
RTVSPost2010Prop28
280
     0
102
RTVSPost2010PropOp28
 70
     1
102
RTVSPost2010Prop29
280
     1
102
RTVSPost2010PropOp29
 70
     1
102
RTVSPost2010Prop30
280
     1
102
RTVSPost2010PropOp30
 70
     1
102
RTVSPost2010Prop31
280
     0
102
RTVSPost2010PropOp31
 70
     1
102
RTVSPost2010Prop32
280
     0
102
RTVSPost2010PropOp32
 70
     1
102
RTVSPost2010Prop33
280
     0
102
RTVSPost2010PropOp33
 70
     1
102
RTVSPost2010Prop34
280
     0
102
RTVSPost2010PropOp34
 70
     1
102
RTVSPost2010Prop35
280
     0
102
RTVSPost2010PropOp35
 70
     1
102
RTVSPost2010Prop36
280
     0
102
RTVSPost2010PropOp36
 70
     1
102
RTVSPost2010Prop37
 90
       50
102
RTVSPost2010PropOp37
 70
     1
102
RTVSPost2010Prop38
140
0.0
102
RTVSPost2010PropOp38
 70
     1
102
RTVSPost2010Prop39
140
1.0
102
RTVSPost2010PropOp39
 70
     1
102
RTVSPost2010Prop40
 90
        0
102
RTVSPost2010PropOp40
 70
     1
102
RTVSPost2010Prop41ColorIndex
 90
       18
102
RTVSPost2010Prop41ColorRGB
 90
        0
102
RTVSPost2010PropOp41
 70
     1
102
RTVSPost2010Prop42
 90
       50
102
RTVSPost2010PropOp42
 70
     1
102
RTVSPost2010Prop43
 90
        3
102
RTVSPost2010PropOp43
 70
     1
102
RTVSPost2010Prop44ColorIndex
 90
        5
102
RTVSPost2010Prop44ColorRGB
 90
      255
102
RTVSPost2010PropOp44
 70
     1
102
RTVSPost2010Prop45
280
     0
102
RTVSPost2010PropOp45
 70
     1
102
RTVSPost2010Prop46
 90
       50
102
RTVSPost2010PropOp46
 70
     1
102
RTVSPost2010Prop47
 90
       50
102
RTVSPost2010PropOp47
 70
     1
102
RTVSPost2010Prop48
 90
       50
102
RTVSPost2010PropOp48
 70
     1
102
RTVSPost2010Prop49
280
     0
102
RTVSPost2010PropOp49
 70
     1
102
RTVSPost2010Prop50
 90
       50
102
RTVSPost2010PropOp50
 70
     1
102
RTVSPost2010Prop51ColorIndex
 90
      256
102
RTVSPost2010Prop51ColorRGB
 90
-16777216
102
RTVSPost2010PropOp51
 70
     0
102
RTVSPost2010Prop52
140
1.0
102
RTVSPost2010PropOp52
 70
     0
102
RTVSPost2010Prop53
 90
        2
102
RTVSPost2010PropOp53
 70
     1
102
RTVSPost2010Prop54
  1
strokes_ogs.tif
102
RTVSPost2010PropOp54
 70
     1
102
RTVSPost2010Prop55
280
     0
102
RTVSPost2010PropOp55
 70
     1
102
RTVSPost2010Prop56
140
1.0
102
RTVSPost2010PropOp56
 70
     1
102
RTVSPost2010Prop57
140
1.0
102
RTVSPost2010PropOp57
 70
     1
  0
XRECORD
  5
3C4
102
{ACAD_REACTORS
330
3C3
102
}
330
3C3
100
AcDbXrecord
280
     1
102
RTVSPost2010Prop28
280
     0
102
RTVSPost2010PropOp28
 70
     1
102
RTVSPost2010Prop29
280
     1
102
RTVSPost2010PropOp29
 70
     1
102
RTVSPost2010Prop30
280
     1
102
RTVSPost2010PropOp30
 70
     1
102
RTVSPost2010Prop31
280
     0
102
RTVSPost2010PropOp31
 70
     1
102
RTVSPost2010Prop32
280
     0
102
RTVSPost2010PropOp32
 70
     1
102
RTVSPost2010Prop33
280
     0
102
RTVSPost2010PropOp33
 70
     1
102
RTVSPost2010Prop34
280
     0
102
RTVSPost2010PropOp34
 70
     1
102
RTVSPost2010Prop35
280
     0
102
RTVSPost2010PropOp35
 70
     1
102
RTVSPost2010Prop36
280
     0
102
RTVSPost2010PropOp36
 70
     1
102
RTVSPost2010Prop37
 90
       50
102
RTVSPost2010PropOp37
 70
     1
102
RTVSPost2010Prop38
140
0.0
102
RTVSPost2010PropOp38
 70
     1
102
RTVSPost2010Prop39
140
1.0
102
RTVSPost2010PropOp39
 70
     1
102
RTVSPost2010Prop40
 90
        0
102
RTVSPost2010PropOp40
 70
     1
102
RTVSPost2010Prop41ColorIndex
 90
       18
102
RTVSPost2010Prop41ColorRGB
 90
        0
102
RTVSPost2010PropOp41
 70
     1
102
RTVSPost2010Prop42
 90
       50
102
RTVSPost2010PropOp42
 70
     1
102
RTVSPost2010Prop43
 90
        3
102
RTVSPost2010PropOp43
 70
     1
102
RTVSPost2010Prop44ColorIndex
 90
        5
102
RTVSPost2010Prop44ColorRGB
 90
      255
102
RTVSPost2010PropOp44
 70
     1
102
RTVSPost2010Prop45
280
     0
102
RTVSPost2010PropOp45
 70
     1
102
RTVSPost2010Prop46
 90
       50
102
RTVSPost2010PropOp46
 70
     1
102
RTVSPost2010Prop47
 90
       50
102
RTVSPost2010PropOp47
 70
     1
102
RTVSPost2010Prop48
 90
       50
102
RTVSPost2010PropOp48
 70
     1
102
RTVSPost2010Prop49
280
     0
102
RTVSPost2010PropOp49
 70
     1
102
RTVSPost2010Prop50
 90
       50
102
RTVSPost2010PropOp50
 70
     1
102
RTVSPost2010Prop51ColorIndex
 90
      256
102
RTVSPost2010Prop51ColorRGB
 90
-16777216
102
RTVSPost2010PropOp51
 70
     0
102
RTVSPost2010Prop52
140
1.0
102
RTVSPost2010PropOp52
 70
     0
102
RTVSPost2010Prop53
 90
        2
102
RTVSPost2010PropOp53
 70
     1
102
RTVSPost2010Prop54
  1
strokes_ogs.tif
102
RTVSPost2010PropOp54
 70
     1
102
RTVSPost2010Prop55
280
     0
102
RTVSPost2010PropOp55
 70
     1
102
RTVSPost2010Prop56
140
1.0
102
RTVSPost2010PropOp56
 70
     1
102
RTVSPost2010Prop57
140
1.0
102
RTVSPost2010PropOp57
 70
     1
  0
XRECORD
  5
3C8
102
{ACAD_REACTORS
330
3C7
102
}
330
3C7
100
AcDbXrecord
280
     1
102
RTVSPost2010Prop28
280
     0
102
RTVSPost2010PropOp28
 70
     1
102
RTVSPost2010Prop29
280
     1
102
RTVSPost2010PropOp29
 70
     1
102
RTVSPost2010Prop30
280
     1
102
RTVSPost2010PropOp30
 70
     1
102
RTVSPost2010Prop31
280
     0
102
RTVSPost2010PropOp31
 70
     1
102
RTVSPost2010Prop32
280
     0
102
RTVSPost2010PropOp32
 70
     1
102
RTVSPost2010Prop33
280
     0
102
RTVSPost2010PropOp33
 70
     1
102
RTVSPost2010Prop34
280
     0
102
RTVSPost2010PropOp34
 70
     1
102
RTVSPost2010Prop35
280
     0
102
RTVSPost2010PropOp35
 70
     1
102
RTVSPost2010Prop36
280
     0
102
RTVSPost2010PropOp36
 70
     1
102
RTVSPost2010Prop37
 90
       50
102
RTVSPost2010PropOp37
 70
     1
102
RTVSPost2010Prop38
140
0.0
102
RTVSPost2010PropOp38
 70
     1
102
RTVSPost2010Prop39
140
1.0
102
RTVSPost2010PropOp39
 70
     1
102
RTVSPost2010Prop40
 90
        0
102
RTVSPost2010PropOp40
 70
     1
102
RTVSPost2010Prop41ColorIndex
 90
       18
102
RTVSPost2010Prop41ColorRGB
 90
        0
102
RTVSPost2010PropOp41
 70
     1
102
RTVSPost2010Prop42
 90
       50
102
RTVSPost2010PropOp42
 70
     1
102
RTVSPost2010Prop43
 90
        3
102
RTVSPost2010PropOp43
 70
     1
102
RTVSPost2010Prop44ColorIndex
 90
        5
102
RTVSPost2010Prop44ColorRGB
 90
      255
102
RTVSPost2010PropOp44
 70
     1
102
RTVSPost2010Prop45
280
     0
102
RTVSPost2010PropOp45
 70
     1
102
RTVSPost2010Prop46
 90
       50
102
RTVSPost2010PropOp46
 70
     1
102
RTVSPost2010Prop47
 90
       50
102
RTVSPost2010PropOp47
 70
     1
102
RTVSPost2010Prop48
 90
       50
102
RTVSPost2010PropOp48
 70
     1
102
RTVSPost2010Prop49
280
     0
102
RTVSPost2010PropOp49
 70
     1
102
RTVSPost2010Prop50
 90
       50
102
RTVSPost2010PropOp50
 70
     1
102
RTVSPost2010Prop51ColorIndex
 90
      256
102
RTVSPost2010Prop51ColorRGB
 90
-16777216
102
RTVSPost2010PropOp51
 70
     0
102
RTVSPost2010Prop52
140
1.0
102
RTVSPost2010PropOp52
 70
     0
102
RTVSPost2010Prop53
 90
        2
102
RTVSPost2010PropOp53
 70
     1
102
RTVSPost2010Prop54
  1
strokes_ogs.tif
102
RTVSPost2010PropOp54
 70
     1
102
RTVSPost2010Prop55
280
     0
102
RTVSPost2010PropOp55
 70
     1
102
RTVSPost2010Prop56
140
1.0
102
RTVSPost2010PropOp56
 70
     1
102
RTVSPost2010Prop57
140
1.0
102
RTVSPost2010PropOp57
 70
     1
  0
XRECORD
  5
3D0
102
{ACAD_REACTORS
330
3CF
102
}
330
3CF
100
AcDbXrecord
280
     1
102
RTVSPost2010Prop28
280
     0
102
RTVSPost2010PropOp28
 70
     1
102
RTVSPost2010Prop29
280
     1
102
RTVSPost2010PropOp29
 70
     1
102
RTVSPost2010Prop30
280
     1
102
RTVSPost2010PropOp30
 70
     1
102
RTVSPost2010Prop31
280
     0
102
RTVSPost2010PropOp31
 70
     1
102
RTVSPost2010Prop32
280
     0
102
RTVSPost2010PropOp32
 70
     1
102
RTVSPost2010Prop33
280
     0
102
RTVSPost2010PropOp33
 70
     1
102
RTVSPost2010Prop34
280
     0
102
RTVSPost2010PropOp34
 70
     1
102
RTVSPost2010Prop35
280
     0
102
RTVSPost2010PropOp35
 70
     1
102
RTVSPost2010Prop36
280
     0
102
RTVSPost2010PropOp36
 70
     1
102
RTVSPost2010Prop37
 90
       50
102
RTVSPost2010PropOp37
 70
     1
102
RTVSPost2010Prop38
140
0.0
102
RTVSPost2010PropOp38
 70
     1
102
RTVSPost2010Prop39
140
1.0
102
RTVSPost2010PropOp39
 70
     1
102
RTVSPost2010Prop40
 90
        0
102
RTVSPost2010PropOp40
 70
     1
102
RTVSPost2010Prop41ColorIndex
 90
       18
102
RTVSPost2010Prop41ColorRGB
 90
        0
102
RTVSPost2010PropOp41
 70
     1
102
RTVSPost2010Prop42
 90
       50
102
RTVSPost2010PropOp42
 70
     1
102
RTVSPost2010Prop43
 90
        3
102
RTVSPost2010PropOp43
 70
     1
102
RTVSPost2010Prop44ColorIndex
 90
        5
102
RTVSPost2010Prop44ColorRGB
 90
      255
102
RTVSPost2010PropOp44
 70
     1
102
RTVSPost2010Prop45
280
     0
102
RTVSPost2010PropOp45
 70
     1
102
RTVSPost2010Prop46
 90
       50
102
RTVSPost2010PropOp46
 70
     1
102
RTVSPost2010Prop47
 90
       50
102
RTVSPost2010PropOp47
 70
     1
102
RTVSPost2010Prop48
 90
       50
102
RTVSPost2010PropOp48
 70
     1
102
RTVSPost2010Prop49
280
     0
102
RTVSPost2010PropOp49
 70
     1
102
RTVSPost2010Prop50
 90
       50
102
RTVSPost2010PropOp50
 70
     1
102
RTVSPost2010Prop51ColorIndex
 90
      256
102
RTVSPost2010Prop51ColorRGB
 90
-16777216
102
RTVSPost2010PropOp51
 70
     0
102
RTVSPost2010Prop52
140
1.0
102
RTVSPost2010PropOp52
 70
     0
102
RTVSPost2010Prop53
 90
        2
102
RTVSPost2010PropOp53
 70
     1
102
RTVSPost2010Prop54
  1
strokes_ogs.tif
102
RTVSPost2010PropOp54
 70
     1
102
RTVSPost2010Prop55
280
     0
102
RTVSPost2010PropOp55
 70
     1
102
RTVSPost2010Prop56
140
1.0
102
RTVSPost2010PropOp56
 70
     1
102
RTVSPost2010Prop57
140
1.0
102
RTVSPost2010PropOp57
 70
     1
  0
XRECORD
  5
3D8
102
{ACAD_REACTORS
330
3D7
102
}
330
3D7
100
AcDbXrecord
280
     1
102
RTVSPost2010Prop28
280
     0
102
RTVSPost2010PropOp28
 70
     1
102
RTVSPost2010Prop29
280
     1
102
RTVSPost2010PropOp29
 70
     1
102
RTVSPost2010Prop30
280
     1
102
RTVSPost2010PropOp30
 70
     1
102
RTVSPost2010Prop31
280
     0
102
RTVSPost2010PropOp31
 70
     1
102
RTVSPost2010Prop32
280
     0
102
RTVSPost2010PropOp32
 70
     1
102
RTVSPost2010Prop33
280
     0
102
RTVSPost2010PropOp33
 70
     1
102
RTVSPost2010Prop34
280
     0
102
RTVSPost2010PropOp34
 70
     1
102
RTVSPost2010Prop35
280
     0
102
RTVSPost2010PropOp35
 70
     1
102
RTVSPost2010Prop36
280
     0
102
RTVSPost2010PropOp36
 70
     1
102
RTVSPost2010Prop37
 90
       50
102
RTVSPost2010PropOp37
 70
     1
102
RTVSPost2010Prop38
140
0.0
102
RTVSPost2010PropOp38
 70
     1
102
RTVSPost2010Prop39
140
1.0
102
RTVSPost2010PropOp39
 70
     1
102
RTVSPost2010Prop40
 90
        0
102
RTVSPost2010PropOp40
 70
     1
102
RTVSPost2010Prop41ColorIndex
 90
       18
102
RTVSPost2010Prop41ColorRGB
 90
        0
102
RTVSPost2010PropOp41
 70
     1
102
RTVSPost2010Prop42
 90
       50
102
RTVSPost2010PropOp42
 70
     1
102
RTVSPost2010Prop43
 90
        3
102
RTVSPost2010PropOp43
 70
     1
102
RTVSPost2010Prop44ColorIndex
 90
        5
102
RTVSPost2010Prop44ColorRGB
 90
      255
102
RTVSPost2010PropOp44
 70
     1
102
RTVSPost2010Prop45
280
     0
102
RTVSPost2010PropOp45
 70
     1
102
RTVSPost2010Prop46
 90
       50
102
RTVSPost2010PropOp46
 70
     1
102
RTVSPost2010Prop47
 90
       50
102
RTVSPost2010PropOp47
 70
     1
102
RTVSPost2010Prop48
 90
       50
102
RTVSPost2010PropOp48
 70
     1
102
RTVSPost2010Prop49
280
     0
102
RTVSPost2010PropOp49
 70
     1
102
RTVSPost2010Prop50
 90
       50
102
RTVSPost2010PropOp50
 70
     1
102
RTVSPost2010Prop51ColorIndex
 90
      256
102
RTVSPost2010Prop51ColorRGB
 90
-16777216
102
RTVSPost2010PropOp51
 70
     0
102
RTVSPost2010Prop52
140
1.0
102
RTVSPost2010PropOp52
 70
     0
102
RTVSPost2010Prop53
 90
        2
102
RTVSPost2010PropOp53
 70
     1
102
RTVSPost2010Prop54
  1
strokes_ogs.tif
102
RTVSPost2010PropOp54
 70
     1
102
RTVSPost2010Prop55
280
     0
102
RTVSPost2010PropOp55
 70
     1
102
RTVSPost2010Prop56
140
1.0
102
RTVSPost2010PropOp56
 70
     1
102
RTVSPost2010Prop57
140
1.0
102
RTVSPost2010PropOp57
 70
     1
  0
XRECORD
  5
3CC
102
{ACAD_REACTORS
330
3CB
102
}
330
3CB
100
AcDbXrecord
280
     1
102
RTVSPost2010Prop28
280
     0
102
RTVSPost2010PropOp28
 70
     1
102
RTVSPost2010Prop29
280
     1
102
RTVSPost2010PropOp29
 70
     1
102
RTVSPost2010Prop30
280
     1
102
RTVSPost2010PropOp30
 70
     1
102
RTVSPost2010Prop31
280
     0
102
RTVSPost2010PropOp31
 70
     1
102
RTVSPost2010Prop32
280
     0
102
RTVSPost2010PropOp32
 70
     1
102
RTVSPost2010Prop33
280
     0
102
RTVSPost2010PropOp33
 70
     1
102
RTVSPost2010Prop34
280
     0
102
RTVSPost2010PropOp34
 70
     1
102
RTVSPost2010Prop35
280
     0
102
RTVSPost2010PropOp35
 70
     1
102
RTVSPost2010Prop36
280
     0
102
RTVSPost2010PropOp36
 70
     1
102
RTVSPost2010Prop37
 90
       50
102
RTVSPost2010PropOp37
 70
     1
102
RTVSPost2010Prop38
140
0.0
102
RTVSPost2010PropOp38
 70
     1
102
RTVSPost2010Prop39
140
1.0
102
RTVSPost2010PropOp39
 70
     1
102
RTVSPost2010Prop40
 90
        0
102
RTVSPost2010PropOp40
 70
     1
102
RTVSPost2010Prop41ColorIndex
 90
       18
102
RTVSPost2010Prop41ColorRGB
 90
        0
102
RTVSPost2010PropOp41
 70
     1
102
RTVSPost2010Prop42
 90
       50
102
RTVSPost2010PropOp42
 70
     1
102
RTVSPost2010Prop43
 90
        3
102
RTVSPost2010PropOp43
 70
     1
102
RTVSPost2010Prop44ColorIndex
 90
        5
102
RTVSPost2010Prop44ColorRGB
 90
      255
102
RTVSPost2010PropOp44
 70
     1
102
RTVSPost2010Prop45
280
     0
102
RTVSPost2010PropOp45
 70
     1
102
RTVSPost2010Prop46
 90
       50
102
RTVSPost2010PropOp46
 70
     1
102
RTVSPost2010Prop47
 90
       50
102
RTVSPost2010PropOp47
 70
     1
102
RTVSPost2010Prop48
 90
       50
102
RTVSPost2010PropOp48
 70
     1
102
RTVSPost2010Prop49
280
     0
102
RTVSPost2010PropOp49
 70
     1
102
RTVSPost2010Prop50
 90
       50
102
RTVSPost2010PropOp50
 70
     1
102
RTVSPost2010Prop51ColorIndex
 90
      256
102
RTVSPost2010Prop51ColorRGB
 90
-16777216
102
RTVSPost2010PropOp51
 70
     0
102
RTVSPost2010Prop52
140
1.0
102
RTVSPost2010PropOp52
 70
     0
102
RTVSPost2010Prop53
 90
        2
102
RTVSPost2010PropOp53
 70
     1
102
RTVSPost2010Prop54
  1
strokes_ogs.tif
102
RTVSPost2010PropOp54
 70
     1
102
RTVSPost2010Prop55
280
     0
102
RTVSPost2010PropOp55
 70
     1
102
RTVSPost2010Prop56
140
1.0
102
RTVSPost2010PropOp56
 70
     1
102
RTVSPost2010Prop57
140
1.0
102
RTVSPost2010PropOp57
 70
     1
  0
XRECORD
  5
3CE
102
{ACAD_REACTORS
330
3CD
102
}
330
3CD
100
AcDbXrecord
280
     1
102
RTVSPost2010Prop28
280
     0
102
RTVSPost2010PropOp28
 70
     1
102
RTVSPost2010Prop29
280
     1
102
RTVSPost2010PropOp29
 70
     1
102
RTVSPost2010Prop30
280
     1
102
RTVSPost2010PropOp30
 70
     1
102
RTVSPost2010Prop31
280
     0
102
RTVSPost2010PropOp31
 70
     1
102
RTVSPost2010Prop32
280
     0
102
RTVSPost2010PropOp32
 70
     1
102
RTVSPost2010Prop33
280
     0
102
RTVSPost2010PropOp33
 70
     1
102
RTVSPost2010Prop34
280
     0
102
RTVSPost2010PropOp34
 70
     1
102
RTVSPost2010Prop35
280
     0
102
RTVSPost2010PropOp35
 70
     1
102
RTVSPost2010Prop36
280
     0
102
RTVSPost2010PropOp36
 70
     1
102
RTVSPost2010Prop37
 90
       50
102
RTVSPost2010PropOp37
 70
     1
102
RTVSPost2010Prop38
140
0.0
102
RTVSPost2010PropOp38
 70
     1
102
RTVSPost2010Prop39
140
1.0
102
RTVSPost2010PropOp39
 70
     1
102
RTVSPost2010Prop40
 90
        0
102
RTVSPost2010PropOp40
 70
     1
102
RTVSPost2010Prop41ColorIndex
 90
       18
102
RTVSPost2010Prop41ColorRGB
 90
        0
102
RTVSPost2010PropOp41
 70
     1
102
RTVSPost2010Prop42
 90
       50
102
RTVSPost2010PropOp42
 70
     1
102
RTVSPost2010Prop43
 90
        3
102
RTVSPost2010PropOp43
 70
     1
102
RTVSPost2010Prop44ColorIndex
 90
        5
102
RTVSPost2010Prop44ColorRGB
 90
      255
102
RTVSPost2010PropOp44
 70
     1
102
RTVSPost2010Prop45
280
     0
102
RTVSPost2010PropOp45
 70
     1
102
RTVSPost2010Prop46
 90
       50
102
RTVSPost2010PropOp46
 70
     1
102
RTVSPost2010Prop47
 90
       50
102
RTVSPost2010PropOp47
 70
     1
102
RTVSPost2010Prop48
 90
       50
102
RTVSPost2010PropOp48
 70
     1
102
RTVSPost2010Prop49
280
     0
102
RTVSPost2010PropOp49
 70
     1
102
RTVSPost2010Prop50
 90
       50
102
RTVSPost2010PropOp50
 70
     1
102
RTVSPost2010Prop51ColorIndex
 90
      256
102
RTVSPost2010Prop51ColorRGB
 90
-16777216
102
RTVSPost2010PropOp51
 70
     0
102
RTVSPost2010Prop52
140
1.0
102
RTVSPost2010PropOp52
 70
     0
102
RTVSPost2010Prop53
 90
        2
102
RTVSPost2010PropOp53
 70
     1
102
RTVSPost2010Prop54
  1
strokes_ogs.tif
102
RTVSPost2010PropOp54
 70
     1
102
RTVSPost2010Prop55
280
     0
102
RTVSPost2010PropOp55
 70
     1
102
RTVSPost2010Prop56
140
1.0
102
RTVSPost2010PropOp56
 70
     1
102
RTVSPost2010Prop57
140
1.0
102
RTVSPost2010PropOp57
 70
     1
  0
XRECORD
  5
3EC
102
{ACAD_REACTORS
330
3EB
102
}
330
3EB
100
AcDbXrecord
280
     1
102
RTVSPost2010Prop28
280
     0
102
RTVSPost2010PropOp28
 70
     0
102
RTVSPost2010Prop29
280
     1
102
RTVSPost2010PropOp29
 70
     0
102
RTVSPost2010Prop30
280
     1
102
RTVSPost2010PropOp30
 70
     0
102
RTVSPost2010Prop31
280
     0
102
RTVSPost2010PropOp31
 70
     0
102
RTVSPost2010Prop32
280
     0
102
RTVSPost2010PropOp32
 70
     0
102
RTVSPost2010Prop33
280
     0
102
RTVSPost2010PropOp33
 70
     0
102
RTVSPost2010Prop34
280
     0
102
RTVSPost2010PropOp34
 70
     0
102
RTVSPost2010Prop35
280
     0
102
RTVSPost2010PropOp35
 70
     0
102
RTVSPost2010Prop36
280
     0
102
RTVSPost2010PropOp36
 70
     0
102
RTVSPost2010Prop37
 90
       50
102
RTVSPost2010PropOp37
 70
     0
102
RTVSPost2010Prop38
140
0.0
102
RTVSPost2010PropOp38
 70
     0
102
RTVSPost2010Prop39
140
1.0
102
RTVSPost2010PropOp39
 70
     0
102
RTVSPost2010Prop40
 90
        0
102
RTVSPost2010PropOp40
 70
     0
102
RTVSPost2010Prop41ColorIndex
 90
       18
102
RTVSPost2010Prop41ColorRGB
 90
        0
102
RTVSPost2010PropOp41
 70
     0
102
RTVSPost2010Prop42
 90
       50
102
RTVSPost2010PropOp42
 70
     0
102
RTVSPost2010Prop43
 90
        3
102
RTVSPost2010PropOp43
 70
     0
102
RTVSPost2010Prop44ColorIndex
 90
        5
102
RTVSPost2010Prop44ColorRGB
 90
      255
102
RTVSPost2010PropOp44
 70
     0
102
RTVSPost2010Prop45
280
     0
102
RTVSPost2010PropOp45
 70
     0
102
RTVSPost2010Prop46
 90
       50
102
RTVSPost2010PropOp46
 70
     0
102
RTVSPost2010Prop47
 90
       50
102
RTVSPost2010PropOp47
 70
     0
102
RTVSPost2010Prop48
 90
       50
102
RTVSPost2010PropOp48
 70
     0
102
RTVSPost2010Prop49
280
     0
102
RTVSPost2010PropOp49
 70
     0
102
RTVSPost2010Prop50
 90
       50
102
RTVSPost2010PropOp50
 70
     0
102
RTVSPost2010Prop51ColorIndex
 90
      256
102
RTVSPost2010Prop51ColorRGB
 90
-16777216
102
RTVSPost2010PropOp51
 70
     0
102
RTVSPost2010Prop52
140
1.0
102
RTVSPost2010PropOp52
 70
     0
102
RTVSPost2010Prop53
 90
        2
102
RTVSPost2010PropOp53
 70
     0
102
RTVSPost2010Prop54
  1
strokes_ogs.tif
102
RTVSPost2010PropOp54
 70
     0
102
RTVSPost2010Prop55
280
     0
102
RTVSPost2010PropOp55
 70
     0
102
RTVSPost2010Prop56
140
1.0
102
RTVSPost2010PropOp56
 70
     0
102
RTVSPost2010Prop57
140
1.0
102
RTVSPost2010PropOp57
 70
     0
  0
XRECORD
  5
3D6
102
{ACAD_REACTORS
330
3D5
102
}
330
3D5
100
AcDbXrecord
280
     1
102
RTVSPost2010Prop28
280
     0
102
RTVSPost2010PropOp28
 70
     1
102
RTVSPost2010Prop29
280
     1
102
RTVSPost2010PropOp29
 70
     1
102
RTVSPost2010Prop30
280
     1
102
RTVSPost2010PropOp30
 70
     1
102
RTVSPost2010Prop31
280
     0
102
RTVSPost2010PropOp31
 70
     1
102
RTVSPost2010Prop32
280
     0
102
RTVSPost2010PropOp32
 70
     1
102
RTVSPost2010Prop33
280
     0
102
RTVSPost2010PropOp33
 70
     1
102
RTVSPost2010Prop34
280
     0
102
RTVSPost2010PropOp34
 70
     1
102
RTVSPost2010Prop35
280
     0
102
RTVSPost2010PropOp35
 70
     1
102
RTVSPost2010Prop36
280
     0
102
RTVSPost2010PropOp36
 70
     1
102
RTVSPost2010Prop37
 90
       50
102
RTVSPost2010PropOp37
 70
     1
102
RTVSPost2010Prop38
140
0.0
102
RTVSPost2010PropOp38
 70
     1
102
RTVSPost2010Prop39
140
1.0
102
RTVSPost2010PropOp39
 70
     1
102
RTVSPost2010Prop40
 90
        0
102
RTVSPost2010PropOp40
 70
     1
102
RTVSPost2010Prop41ColorIndex
 90
       18
102
RTVSPost2010Prop41ColorRGB
 90
        0
102
RTVSPost2010PropOp41
 70
     1
102
RTVSPost2010Prop42
 90
       50
102
RTVSPost2010PropOp42
 70
     1
102
RTVSPost2010Prop43
 90
        3
102
RTVSPost2010PropOp43
 70
     1
102
RTVSPost2010Prop44ColorIndex
 90
        5
102
RTVSPost2010Prop44ColorRGB
 90
      255
102
RTVSPost2010PropOp44
 70
     1
102
RTVSPost2010Prop45
280
     0
102
RTVSPost2010PropOp45
 70
     1
102
RTVSPost2010Prop46
 90
       50
102
RTVSPost2010PropOp46
 70
     1
102
RTVSPost2010Prop47
 90
       50
102
RTVSPost2010PropOp47
 70
     1
102
RTVSPost2010Prop48
 90
       50
102
RTVSPost2010PropOp48
 70
     1
102
RTVSPost2010Prop49
280
     0
102
RTVSPost2010PropOp49
 70
     1
102
RTVSPost2010Prop50
 90
       50
102
RTVSPost2010PropOp50
 70
     1
102
RTVSPost2010Prop51ColorIndex
 90
      256
102
RTVSPost2010Prop51ColorRGB
 90
-16777216
102
RTVSPost2010PropOp51
 70
     0
102
RTVSPost2010Prop52
140
1.0
102
RTVSPost2010PropOp52
 70
     0
102
RTVSPost2010Prop53
 90
        2
102
RTVSPost2010PropOp53
 70
     1
102
RTVSPost2010Prop54
  1
strokes_ogs.tif
102
RTVSPost2010PropOp54
 70
     1
102
RTVSPost2010Prop55
280
     0
102
RTVSPost2010PropOp55
 70
     1
102
RTVSPost2010Prop56
140
1.0
102
RTVSPost2010PropOp56
 70
     1
102
RTVSPost2010Prop57
140
1.0
102
RTVSPost2010PropOp57
 70
     1
  0
XRECORD
  5
3BA
102
{ACAD_REACTORS
330
3B9
102
}
330
3B9
100
AcDbXrecord
280
     1
102
RTVSPost2010Prop28
280
     0
102
RTVSPost2010PropOp28
 70
     1
102
RTVSPost2010Prop29
280
     1
102
RTVSPost2010PropOp29
 70
     1
102
RTVSPost2010Prop30
280
     1
102
RTVSPost2010PropOp30
 70
     1
102
RTVSPost2010Prop31
280
     0
102
RTVSPost2010PropOp31
 70
     1
102
RTVSPost2010Prop32
280
     0
102
RTVSPost2010PropOp32
 70
     1
102
RTVSPost2010Prop33
280
     0
102
RTVSPost2010PropOp33
 70
     1
102
RTVSPost2010Prop34
280
     0
102
RTVSPost2010PropOp34
 70
     1
102
RTVSPost2010Prop35
280
     0
102
RTVSPost2010PropOp35
 70
     1
102
RTVSPost2010Prop36
280
     0
102
RTVSPost2010PropOp36
 70
     1
102
RTVSPost2010Prop37
 90
       50
102
RTVSPost2010PropOp37
 70
     1
102
RTVSPost2010Prop38
140
0.0
102
RTVSPost2010PropOp38
 70
     1
102
RTVSPost2010Prop39
140
1.0
102
RTVSPost2010PropOp39
 70
     1
102
RTVSPost2010Prop40
 90
        0
102
RTVSPost2010PropOp40
 70
     1
102
RTVSPost2010Prop41ColorIndex
 90
       18
102
RTVSPost2010Prop41ColorRGB
 90
        0
102
RTVSPost2010PropOp41
 70
     1
102
RTVSPost2010Prop42
 90
       50
102
RTVSPost2010PropOp42
 70
     1
102
RTVSPost2010Prop43
 90
        3
102
RTVSPost2010PropOp43
 70
     1
102
RTVSPost2010Prop44ColorIndex
 90
        5
102
RTVSPost2010Prop44ColorRGB
 90
      255
102
RTVSPost2010PropOp44
 70
     1
102
RTVSPost2010Prop45
280
     0
102
RTVSPost2010PropOp45
 70
     1
102
RTVSPost2010Prop46
 90
       50
102
RTVSPost2010PropOp46
 70
     1
102
RTVSPost2010Prop47
 90
       50
102
RTVSPost2010PropOp47
 70
     1
102
RTVSPost2010Prop48
 90
       50
102
RTVSPost2010PropOp48
 70
     1
102
RTVSPost2010Prop49
280
     0
102
RTVSPost2010PropOp49
 70
     1
102
RTVSPost2010Prop50
 90
       50
102
RTVSPost2010PropOp50
 70
     1
102
RTVSPost2010Prop51ColorIndex
 90
      256
102
RTVSPost2010Prop51ColorRGB
 90
-16777216
102
RTVSPost2010PropOp51
 70
     0
102
RTVSPost2010Prop52
140
1.0
102
RTVSPost2010PropOp52
 70
     0
102
RTVSPost2010Prop53
 90
        2
102
RTVSPost2010PropOp53
 70
     1
102
RTVSPost2010Prop54
  1
strokes_ogs.tif
102
RTVSPost2010PropOp54
 70
     1
102
RTVSPost2010Prop55
280
     0
102
RTVSPost2010PropOp55
 70
     1
102
RTVSPost2010Prop56
140
1.0
102
RTVSPost2010PropOp56
 70
     1
102
RTVSPost2010Prop57
140
1.0
102
RTVSPost2010PropOp57
 70
     1
  0
XRECORD
  5
3BC
102
{ACAD_REACTORS
330
3BB
102
}
330
3BB
100
AcDbXrecord
280
     1
102
RTVSPost2010Prop28
280
     0
102
RTVSPost2010PropOp28
 70
     1
102
RTVSPost2010Prop29
280
     1
102
RTVSPost2010PropOp29
 70
     1
102
RTVSPost2010Prop30
280
     1
102
RTVSPost2010PropOp30
 70
     1
102
RTVSPost2010Prop31
280
     0
102
RTVSPost2010PropOp31
 70
     1
102
RTVSPost2010Prop32
280
     0
102
RTVSPost2010PropOp32
 70
     1
102
RTVSPost2010Prop33
280
     0
102
RTVSPost2010PropOp33
 70
     1
102
RTVSPost2010Prop34
280
     0
102
RTVSPost2010PropOp34
 70
     1
102
RTVSPost2010Prop35
280
     0
102
RTVSPost2010PropOp35
 70
     1
102
RTVSPost2010Prop36
280
     0
102
RTVSPost2010PropOp36
 70
     1
102
RTVSPost2010Prop37
 90
       50
102
RTVSPost2010PropOp37
 70
     1
102
RTVSPost2010Prop38
140
0.0
102
RTVSPost2010PropOp38
 70
     1
102
RTVSPost2010Prop39
140
1.0
102
RTVSPost2010PropOp39
 70
     1
102
RTVSPost2010Prop40
 90
        0
102
RTVSPost2010PropOp40
 70
     1
102
RTVSPost2010Prop41ColorIndex
 90
       18
102
RTVSPost2010Prop41ColorRGB
 90
        0
102
RTVSPost2010PropOp41
 70
     1
102
RTVSPost2010Prop42
 90
       50
102
RTVSPost2010PropOp42
 70
     1
102
RTVSPost2010Prop43
 90
        3
102
RTVSPost2010PropOp43
 70
     1
102
RTVSPost2010Prop44ColorIndex
 90
        5
102
RTVSPost2010Prop44ColorRGB
 90
      255
102
RTVSPost2010PropOp44
 70
     1
102
RTVSPost2010Prop45
280
     0
102
RTVSPost2010PropOp45
 70
     1
102
RTVSPost2010Prop46
 90
       50
102
RTVSPost2010PropOp46
 70
     1
102
RTVSPost2010Prop47
 90
       50
102
RTVSPost2010PropOp47
 70
     1
102
RTVSPost2010Prop48
 90
       50
102
RTVSPost2010PropOp48
 70
     1
102
RTVSPost2010Prop49
280
     0
102
RTVSPost2010PropOp49
 70
     1
102
RTVSPost2010Prop50
 90
       50
102
RTVSPost2010PropOp50
 70
     1
102
RTVSPost2010Prop51ColorIndex
 90
      256
102
RTVSPost2010Prop51ColorRGB
 90
-16777216
102
RTVSPost2010PropOp51
 70
     0
102
RTVSPost2010Prop52
140
1.0
102
RTVSPost2010PropOp52
 70
     0
102
RTVSPost2010Prop53
 90
        2
102
RTVSPost2010PropOp53
 70
     1
102
RTVSPost2010Prop54
  1
strokes_ogs.tif
102
RTVSPost2010PropOp54
 70
     1
102
RTVSPost2010Prop55
280
     0
102
RTVSPost2010PropOp55
 70
     1
102
RTVSPost2010Prop56
140
1.0
102
RTVSPost2010PropOp56
 70
     1
102
RTVSPost2010Prop57
140
1.0
102
RTVSPost2010PropOp57
 70
     1
  0
XRECORD
  5
3BE
102
{ACAD_REACTORS
330
3BD
102
}
330
3BD
100
AcDbXrecord
280
     1
102
RTVSPost2010Prop28
280
     0
102
RTVSPost2010PropOp28
 70
     1
102
RTVSPost2010Prop29
280
     1
102
RTVSPost2010PropOp29
 70
     1
102
RTVSPost2010Prop30
280
     1
102
RTVSPost2010PropOp30
 70
     1
102
RTVSPost2010Prop31
280
     0
102
RTVSPost2010PropOp31
 70
     1
102
RTVSPost2010Prop32
280
     0
102
RTVSPost2010PropOp32
 70
     1
102
RTVSPost2010Prop33
280
     0
102
RTVSPost2010PropOp33
 70
     1
102
RTVSPost2010Prop34
280
     0
102
RTVSPost2010PropOp34
 70
     1
102
RTVSPost2010Prop35
280
     0
102
RTVSPost2010PropOp35
 70
     1
102
RTVSPost2010Prop36
280
     0
102
RTVSPost2010PropOp36
 70
     1
102
RTVSPost2010Prop37
 90
       50
102
RTVSPost2010PropOp37
 70
     1
102
RTVSPost2010Prop38
140
0.0
102
RTVSPost2010PropOp38
 70
     1
102
RTVSPost2010Prop39
140
1.0
102
RTVSPost2010PropOp39
 70
     1
102
RTVSPost2010Prop40
 90
        0
102
RTVSPost2010PropOp40
 70
     1
102
RTVSPost2010Prop41ColorIndex
 90
       18
102
RTVSPost2010Prop41ColorRGB
 90
        0
102
RTVSPost2010PropOp41
 70
     1
102
RTVSPost2010Prop42
 90
       50
102
RTVSPost2010PropOp42
 70
     1
102
RTVSPost2010Prop43
 90
        3
102
RTVSPost2010PropOp43
 70
     1
102
RTVSPost2010Prop44ColorIndex
 90
        5
102
RTVSPost2010Prop44ColorRGB
 90
      255
102
RTVSPost2010PropOp44
 70
     1
102
RTVSPost2010Prop45
280
     0
102
RTVSPost2010PropOp45
 70
     1
102
RTVSPost2010Prop46
 90
       50
102
RTVSPost2010PropOp46
 70
     1
102
RTVSPost2010Prop47
 90
       50
102
RTVSPost2010PropOp47
 70
     1
102
RTVSPost2010Prop48
 90
       50
102
RTVSPost2010PropOp48
 70
     1
102
RTVSPost2010Prop49
280
     0
102
RTVSPost2010PropOp49
 70
     1
102
RTVSPost2010Prop50
 90
       50
102
RTVSPost2010PropOp50
 70
     1
102
RTVSPost2010Prop51ColorIndex
 90
      256
102
RTVSPost2010Prop51ColorRGB
 90
-16777216
102
RTVSPost2010PropOp51
 70
     0
102
RTVSPost2010Prop52
140
1.0
102
RTVSPost2010PropOp52
 70
     0
102
RTVSPost2010Prop53
 90
        2
102
RTVSPost2010PropOp53
 70
     1
102
RTVSPost2010Prop54
  1
strokes_ogs.tif
102
RTVSPost2010PropOp54
 70
     1
102
RTVSPost2010Prop55
280
     0
102
RTVSPost2010PropOp55
 70
     1
102
RTVSPost2010Prop56
140
1.0
102
RTVSPost2010PropOp56
 70
     1
102
RTVSPost2010Prop57
140
1.0
102
RTVSPost2010PropOp57
 70
     1
  0
XRECORD
  5
3C0
102
{ACAD_REACTORS
330
3BF
102
}
330
3BF
100
AcDbXrecord
280
     1
102
RTVSPost2010Prop28
280
     0
102
RTVSPost2010PropOp28
 70
     1
102
RTVSPost2010Prop29
280
     1
102
RTVSPost2010PropOp29
 70
     1
102
RTVSPost2010Prop30
280
     1
102
RTVSPost2010PropOp30
 70
     1
102
RTVSPost2010Prop31
280
     0
102
RTVSPost2010PropOp31
 70
     1
102
RTVSPost2010Prop32
280
     0
102
RTVSPost2010PropOp32
 70
     1
102
RTVSPost2010Prop33
280
     0
102
RTVSPost2010PropOp33
 70
     1
102
RTVSPost2010Prop34
280
     0
102
RTVSPost2010PropOp34
 70
     1
102
RTVSPost2010Prop35
280
     0
102
RTVSPost2010PropOp35
 70
     1
102
RTVSPost2010Prop36
280
     0
102
RTVSPost2010PropOp36
 70
     1
102
RTVSPost2010Prop37
 90
       50
102
RTVSPost2010PropOp37
 70
     1
102
RTVSPost2010Prop38
140
0.0
102
RTVSPost2010PropOp38
 70
     1
102
RTVSPost2010Prop39
140
1.0
102
RTVSPost2010PropOp39
 70
     1
102
RTVSPost2010Prop40
 90
        0
102
RTVSPost2010PropOp40
 70
     1
102
RTVSPost2010Prop41ColorIndex
 90
       18
102
RTVSPost2010Prop41ColorRGB
 90
        0
102
RTVSPost2010PropOp41
 70
     1
102
RTVSPost2010Prop42
 90
       50
102
RTVSPost2010PropOp42
 70
     1
102
RTVSPost2010Prop43
 90
        3
102
RTVSPost2010PropOp43
 70
     1
102
RTVSPost2010Prop44ColorIndex
 90
        5
102
RTVSPost2010Prop44ColorRGB
 90
      255
102
RTVSPost2010PropOp44
 70
     1
102
RTVSPost2010Prop45
280
     0
102
RTVSPost2010PropOp45
 70
     1
102
RTVSPost2010Prop46
 90
       50
102
RTVSPost2010PropOp46
 70
     1
102
RTVSPost2010Prop47
 90
       50
102
RTVSPost2010PropOp47
 70
     1
102
RTVSPost2010Prop48
 90
       50
102
RTVSPost2010PropOp48
 70
     1
102
RTVSPost2010Prop49
280
     0
102
RTVSPost2010PropOp49
 70
     1
102
RTVSPost2010Prop50
 90
       50
102
RTVSPost2010PropOp50
 70
     1
102
RTVSPost2010Prop51ColorIndex
 90
      256
102
RTVSPost2010Prop51ColorRGB
 90
-16777216
102
RTVSPost2010PropOp51
 70
     0
102
RTVSPost2010Prop52
140
1.0
102
RTVSPost2010PropOp52
 70
     0
102
RTVSPost2010Prop53
 90
        2
102
RTVSPost2010PropOp53
 70
     1
102
RTVSPost2010Prop54
  1
strokes_ogs.tif
102
RTVSPost2010PropOp54
 70
     1
102
RTVSPost2010Prop55
280
     0
102
RTVSPost2010PropOp55
 70
     1
102
RTVSPost2010Prop56
140
1.0
102
RTVSPost2010PropOp56
 70
     1
102
RTVSPost2010Prop57
140
1.0
102
RTVSPost2010PropOp57
 70
     1
  0
XRECORD
  5
3DC
102
{ACAD_REACTORS
330
3DB
102
}
330
3DB
100
AcDbXrecord
280
     1
102
RTVSPost2010Prop28
280
     0
102
RTVSPost2010PropOp28
 70
     1
102
RTVSPost2010Prop29
280
     1
102
RTVSPost2010PropOp29
 70
     1
102
RTVSPost2010Prop30
280
     1
102
RTVSPost2010PropOp30
 70
     1
102
RTVSPost2010Prop31
280
     0
102
RTVSPost2010PropOp31
 70
     1
102
RTVSPost2010Prop32
280
     0
102
RTVSPost2010PropOp32
 70
     1
102
RTVSPost2010Prop33
280
     0
102
RTVSPost2010PropOp33
 70
     1
102
RTVSPost2010Prop34
280
     0
102
RTVSPost2010PropOp34
 70
     1
102
RTVSPost2010Prop35
280
     0
102
RTVSPost2010PropOp35
 70
     1
102
RTVSPost2010Prop36
280
     0
102
RTVSPost2010PropOp36
 70
     1
102
RTVSPost2010Prop37
 90
       50
102
RTVSPost2010PropOp37
 70
     1
102
RTVSPost2010Prop38
140
0.0
102
RTVSPost2010PropOp38
 70
     1
102
RTVSPost2010Prop39
140
1.0
102
RTVSPost2010PropOp39
 70
     1
102
RTVSPost2010Prop40
 90
        0
102
RTVSPost2010PropOp40
 70
     1
102
RTVSPost2010Prop41ColorIndex
 90
       18
102
RTVSPost2010Prop41ColorRGB
 90
        0
102
RTVSPost2010PropOp41
 70
     1
102
RTVSPost2010Prop42
 90
       50
102
RTVSPost2010PropOp42
 70
     1
102
RTVSPost2010Prop43
 90
        3
102
RTVSPost2010PropOp43
 70
     1
102
RTVSPost2010Prop44ColorIndex
 90
        5
102
RTVSPost2010Prop44ColorRGB
 90
      255
102
RTVSPost2010PropOp44
 70
     1
102
RTVSPost2010Prop45
280
     0
102
RTVSPost2010PropOp45
 70
     1
102
RTVSPost2010Prop46
 90
       50
102
RTVSPost2010PropOp46
 70
     1
102
RTVSPost2010Prop47
 90
       50
102
RTVSPost2010PropOp47
 70
     1
102
RTVSPost2010Prop48
 90
       50
102
RTVSPost2010PropOp48
 70
     1
102
RTVSPost2010Prop49
280
     0
102
RTVSPost2010PropOp49
 70
     1
102
RTVSPost2010Prop50
 90
       50
102
RTVSPost2010PropOp50
 70
     1
102
RTVSPost2010Prop51ColorIndex
 90
      256
102
RTVSPost2010Prop51ColorRGB
 90
-16777216
102
RTVSPost2010PropOp51
 70
     0
102
RTVSPost2010Prop52
140
1.0
102
RTVSPost2010PropOp52
 70
     0
102
RTVSPost2010Prop53
 90
        2
102
RTVSPost2010PropOp53
 70
     1
102
RTVSPost2010Prop54
  1
strokes_ogs.tif
102
RTVSPost2010PropOp54
 70
     1
102
RTVSPost2010Prop55
280
     0
102
RTVSPost2010PropOp55
 70
     1
102
RTVSPost2010Prop56
140
1.0
102
RTVSPost2010PropOp56
 70
     1
102
RTVSPost2010Prop57
140
1.0
102
RTVSPost2010PropOp57
 70
     1
  0
XRECORD
  5
3E8
102
{ACAD_REACTORS
330
3E7
102
}
330
3E7
100
AcDbXrecord
280
     1
102
RTVSPost2010Prop28
280
     0
102
RTVSPost2010PropOp28
 70
     0
102
RTVSPost2010Prop29
280
     1
102
RTVSPost2010PropOp29
 70
     0
102
RTVSPost2010Prop30
280
     1
102
RTVSPost2010PropOp30
 70
     0
102
RTVSPost2010Prop31
280
     0
102
RTVSPost2010PropOp31
 70
     0
102
RTVSPost2010Prop32
280
     0
102
RTVSPost2010PropOp32
 70
     0
102
RTVSPost2010Prop33
280
     0
102
RTVSPost2010PropOp33
 70
     0
102
RTVSPost2010Prop34
280
     0
102
RTVSPost2010PropOp34
 70
     0
102
RTVSPost2010Prop35
280
     0
102
RTVSPost2010PropOp35
 70
     0
102
RTVSPost2010Prop36
280
     0
102
RTVSPost2010PropOp36
 70
     0
102
RTVSPost2010Prop37
 90
       50
102
RTVSPost2010PropOp37
 70
     0
102
RTVSPost2010Prop38
140
0.0
102
RTVSPost2010PropOp38
 70
     0
102
RTVSPost2010Prop39
140
1.0
102
RTVSPost2010PropOp39
 70
     0
102
RTVSPost2010Prop40
 90
        0
102
RTVSPost2010PropOp40
 70
     0
102
RTVSPost2010Prop41ColorIndex
 90
       18
102
RTVSPost2010Prop41ColorRGB
 90
        0
102
RTVSPost2010PropOp41
 70
     0
102
RTVSPost2010Prop42
 90
       50
102
RTVSPost2010PropOp42
 70
     0
102
RTVSPost2010Prop43
 90
        3
102
RTVSPost2010PropOp43
 70
     0
102
RTVSPost2010Prop44ColorIndex
 90
        5
102
RTVSPost2010Prop44ColorRGB
 90
      255
102
RTVSPost2010PropOp44
 70
     0
102
RTVSPost2010Prop45
280
     0
102
RTVSPost2010PropOp45
 70
     0
102
RTVSPost2010Prop46
 90
       50
102
RTVSPost2010PropOp46
 70
     0
102
RTVSPost2010Prop47
 90
       50
102
RTVSPost2010PropOp47
 70
     0
102
RTVSPost2010Prop48
 90
       50
102
RTVSPost2010PropOp48
 70
     0
102
RTVSPost2010Prop49
280
     0
102
RTVSPost2010PropOp49
 70
     0
102
RTVSPost2010Prop50
 90
       50
102
RTVSPost2010PropOp50
 70
     0
102
RTVSPost2010Prop51ColorIndex
 90
      256
102
RTVSPost2010Prop51ColorRGB
 90
-16777216
102
RTVSPost2010PropOp51
 70
     0
102
RTVSPost2010Prop52
140
1.0
102
RTVSPost2010PropOp52
 70
     0
102
RTVSPost2010Prop53
 90
        2
102
RTVSPost2010PropOp53
 70
     0
102
RTVSPost2010Prop54
  1
strokes_ogs.tif
102
RTVSPost2010PropOp54
 70
     0
102
RTVSPost2010Prop55
280
     0
102
RTVSPost2010PropOp55
 70
     0
102
RTVSPost2010Prop56
140
1.0
102
RTVSPost2010PropOp56
 70
     0
102
RTVSPost2010Prop57
140
1.0
102
RTVSPost2010PropOp57
 70
     0
  0
XRECORD
  5
3D4
102
{ACAD_REACTORS
330
3D3
102
}
330
3D3
100
AcDbXrecord
280
     1
102
RTVSPost2010Prop28
280
     0
102
RTVSPost2010PropOp28
 70
     1
102
RTVSPost2010Prop29
280
     1
102
RTVSPost2010PropOp29
 70
     1
102
RTVSPost2010Prop30
280
     1
102
RTVSPost2010PropOp30
 70
     1
102
RTVSPost2010Prop31
280
     0
102
RTVSPost2010PropOp31
 70
     1
102
RTVSPost2010Prop32
280
     0
102
RTVSPost2010PropOp32
 70
     1
102
RTVSPost2010Prop33
280
     0
102
RTVSPost2010PropOp33
 70
     1
102
RTVSPost2010Prop34
280
     0
102
RTVSPost2010PropOp34
 70
     1
102
RTVSPost2010Prop35
280
     0
102
RTVSPost2010PropOp35
 70
     1
102
RTVSPost2010Prop36
280
     0
102
RTVSPost2010PropOp36
 70
     1
102
RTVSPost2010Prop37
 90
       50
102
RTVSPost2010PropOp37
 70
     1
102
RTVSPost2010Prop38
140
0.0
102
RTVSPost2010PropOp38
 70
     1
102
RTVSPost2010Prop39
140
1.0
102
RTVSPost2010PropOp39
 70
     1
102
RTVSPost2010Prop40
 90
        0
102
RTVSPost2010PropOp40
 70
     1
102
RTVSPost2010Prop41ColorIndex
 90
       18
102
RTVSPost2010Prop41ColorRGB
 90
        0
102
RTVSPost2010PropOp41
 70
     1
102
RTVSPost2010Prop42
 90
       50
102
RTVSPost2010PropOp42
 70
     1
102
RTVSPost2010Prop43
 90
        3
102
RTVSPost2010PropOp43
 70
     1
102
RTVSPost2010Prop44ColorIndex
 90
        5
102
RTVSPost2010Prop44ColorRGB
 90
      255
102
RTVSPost2010PropOp44
 70
     1
102
RTVSPost2010Prop45
280
     0
102
RTVSPost2010PropOp45
 70
     1
102
RTVSPost2010Prop46
 90
       50
102
RTVSPost2010PropOp46
 70
     1
102
RTVSPost2010Prop47
 90
       50
102
RTVSPost2010PropOp47
 70
     1
102
RTVSPost2010Prop48
 90
       50
102
RTVSPost2010PropOp48
 70
     1
102
RTVSPost2010Prop49
280
     0
102
RTVSPost2010PropOp49
 70
     1
102
RTVSPost2010Prop50
 90
       50
102
RTVSPost2010PropOp50
 70
     1
102
RTVSPost2010Prop51ColorIndex
 90
      256
102
RTVSPost2010Prop51ColorRGB
 90
-16777216
102
RTVSPost2010PropOp51
 70
     0
102
RTVSPost2010Prop52
140
1.0
102
RTVSPost2010PropOp52
 70
     0
102
RTVSPost2010Prop53
 90
        2
102
RTVSPost2010PropOp53
 70
     1
102
RTVSPost2010Prop54
  1
strokes_ogs.tif
102
RTVSPost2010PropOp54
 70
     1
102
RTVSPost2010Prop55
280
     0
102
RTVSPost2010PropOp55
 70
     1
102
RTVSPost2010Prop56
140
1.0
102
RTVSPost2010PropOp56
 70
     1
102
RTVSPost2010Prop57
140
1.0
102
RTVSPost2010PropOp57
 70
     1
  0
XRECORD
  5
3EA
102
{ACAD_REACTORS
330
3E9
102
}
330
3E9
100
AcDbXrecord
280
     1
102
RTVSPost2010Prop28
280
     0
102
RTVSPost2010PropOp28
 70
     0
102
RTVSPost2010Prop29
280
     1
102
RTVSPost2010PropOp29
 70
     0
102
RTVSPost2010Prop30
280
     1
102
RTVSPost2010PropOp30
 70
     0
102
RTVSPost2010Prop31
280
     0
102
RTVSPost2010PropOp31
 70
     0
102
RTVSPost2010Prop32
280
     0
102
RTVSPost2010PropOp32
 70
     0
102
RTVSPost2010Prop33
280
     0
102
RTVSPost2010PropOp33
 70
     0
102
RTVSPost2010Prop34
280
     0
102
RTVSPost2010PropOp34
 70
     0
102
RTVSPost2010Prop35
280
     0
102
RTVSPost2010PropOp35
 70
     0
102
RTVSPost2010Prop36
280
     0
102
RTVSPost2010PropOp36
 70
     0
102
RTVSPost2010Prop37
 90
       50
102
RTVSPost2010PropOp37
 70
     0
102
RTVSPost2010Prop38
140
0.0
102
RTVSPost2010PropOp38
 70
     0
102
RTVSPost2010Prop39
140
1.0
102
RTVSPost2010PropOp39
 70
     0
102
RTVSPost2010Prop40
 90
        0
102
RTVSPost2010PropOp40
 70
     0
102
RTVSPost2010Prop41ColorIndex
 90
       18
102
RTVSPost2010Prop41ColorRGB
 90
        0
102
RTVSPost2010PropOp41
 70
     0
102
RTVSPost2010Prop42
 90
       50
102
RTVSPost2010PropOp42
 70
     0
102
RTVSPost2010Prop43
 90
        3
102
RTVSPost2010PropOp43
 70
     0
102
RTVSPost2010Prop44ColorIndex
 90
        5
102
RTVSPost2010Prop44ColorRGB
 90
      255
102
RTVSPost2010PropOp44
 70
     0
102
RTVSPost2010Prop45
280
     0
102
RTVSPost2010PropOp45
 70
     0
102
RTVSPost2010Prop46
 90
       50
102
RTVSPost2010PropOp46
 70
     0
102
RTVSPost2010Prop47
 90
       50
102
RTVSPost2010PropOp47
 70
     0
102
RTVSPost2010Prop48
 90
       50
102
RTVSPost2010PropOp48
 70
     0
102
RTVSPost2010Prop49
280
     0
102
RTVSPost2010PropOp49
 70
     0
102
RTVSPost2010Prop50
 90
       50
102
RTVSPost2010PropOp50
 70
     0
102
RTVSPost2010Prop51ColorIndex
 90
      256
102
RTVSPost2010Prop51ColorRGB
 90
-16777216
102
RTVSPost2010PropOp51
 70
     0
102
RTVSPost2010Prop52
140
1.0
102
RTVSPost2010PropOp52
 70
     0
102
RTVSPost2010Prop53
 90
        2
102
RTVSPost2010PropOp53
 70
     0
102
RTVSPost2010Prop54
  1
strokes_ogs.tif
102
RTVSPost2010PropOp54
 70
     0
102
RTVSPost2010Prop55
280
     0
102
RTVSPost2010PropOp55
 70
     0
102
RTVSPost2010Prop56
140
1.0
102
RTVSPost2010PropOp56
 70
     0
102
RTVSPost2010Prop57
140
1.0
102
RTVSPost2010PropOp57
 70
     0
  0
XRECORD
  5
3CA
102
{ACAD_REACTORS
330
3C9
102
}
330
3C9
100
AcDbXrecord
280
     1
102
RTVSPost2010Prop28
280
     0
102
RTVSPost2010PropOp28
 70
     1
102
RTVSPost2010Prop29
280
     1
102
RTVSPost2010PropOp29
 70
     1
102
RTVSPost2010Prop30
280
     1
102
RTVSPost2010PropOp30
 70
     1
102
RTVSPost2010Prop31
280
     0
102
RTVSPost2010PropOp31
 70
     1
102
RTVSPost2010Prop32
280
     0
102
RTVSPost2010PropOp32
 70
     1
102
RTVSPost2010Prop33
280
     0
102
RTVSPost2010PropOp33
 70
     1
102
RTVSPost2010Prop34
280
     0
102
RTVSPost2010PropOp34
 70
     1
102
RTVSPost2010Prop35
280
     0
102
RTVSPost2010PropOp35
 70
     1
102
RTVSPost2010Prop36
280
     0
102
RTVSPost2010PropOp36
 70
     1
102
RTVSPost2010Prop37
 90
       50
102
RTVSPost2010PropOp37
 70
     1
102
RTVSPost2010Prop38
140
0.0
102
RTVSPost2010PropOp38
 70
     1
102
RTVSPost2010Prop39
140
1.0
102
RTVSPost2010PropOp39
 70
     1
102
RTVSPost2010Prop40
 90
        0
102
RTVSPost2010PropOp40
 70
     1
102
RTVSPost2010Prop41ColorIndex
 90
       18
102
RTVSPost2010Prop41ColorRGB
 90
        0
102
RTVSPost2010PropOp41
 70
     1
102
RTVSPost2010Prop42
 90
       50
102
RTVSPost2010PropOp42
 70
     1
102
RTVSPost2010Prop43
 90
        3
102
RTVSPost2010PropOp43
 70
     1
102
RTVSPost2010Prop44ColorIndex
 90
        5
102
RTVSPost2010Prop44ColorRGB
 90
      255
102
RTVSPost2010PropOp44
 70
     1
102
RTVSPost2010Prop45
280
     0
102
RTVSPost2010PropOp45
 70
     1
102
RTVSPost2010Prop46
 90
       50
102
RTVSPost2010PropOp46
 70
     1
102
RTVSPost2010Prop47
 90
       50
102
RTVSPost2010PropOp47
 70
     1
102
RTVSPost2010Prop48
 90
       50
102
RTVSPost2010PropOp48
 70
     1
102
RTVSPost2010Prop49
280
     0
102
RTVSPost2010PropOp49
 70
     1
102
RTVSPost2010Prop50
 90
       50
102
RTVSPost2010PropOp50
 70
     1
102
RTVSPost2010Prop51ColorIndex
 90
      256
102
RTVSPost2010Prop51ColorRGB
 90
-16777216
102
RTVSPost2010PropOp51
 70
     0
102
RTVSPost2010Prop52
140
1.0
102
RTVSPost2010PropOp52
 70
     0
102
RTVSPost2010Prop53
 90
        2
102
RTVSPost2010PropOp53
 70
     1
102
RTVSPost2010Prop54
  1
strokes_ogs.tif
102
RTVSPost2010PropOp54
 70
     1
102
RTVSPost2010Prop55
280
     0
102
RTVSPost2010PropOp55
 70
     1
102
RTVSPost2010Prop56
140
1.0
102
RTVSPost2010PropOp56
 70
     1
102
RTVSPost2010Prop57
140
1.0
102
RTVSPost2010PropOp57
 70
     1
  0
XRECORD
  5
3E6
102
{ACAD_REACTORS
330
3E5
102
}
330
3E5
100
AcDbXrecord
280
     1
102
RTVSPost2010Prop28
280
     0
102
RTVSPost2010PropOp28
 70
     1
102
RTVSPost2010Prop29
280
     1
102
RTVSPost2010PropOp29
 70
     1
102
RTVSPost2010Prop30
280
     1
102
RTVSPost2010PropOp30
 70
     1
102
RTVSPost2010Prop31
280
     0
102
RTVSPost2010PropOp31
 70
     1
102
RTVSPost2010Prop32
280
     0
102
RTVSPost2010PropOp32
 70
     1
102
RTVSPost2010Prop33
280
     0
102
RTVSPost2010PropOp33
 70
     1
102
RTVSPost2010Prop34
280
     0
102
RTVSPost2010PropOp34
 70
     1
102
RTVSPost2010Prop35
280
     0
102
RTVSPost2010PropOp35
 70
     1
102
RTVSPost2010Prop36
280
     0
102
RTVSPost2010PropOp36
 70
     1
102
RTVSPost2010Prop37
 90
       50
102
RTVSPost2010PropOp37
 70
     1
102
RTVSPost2010Prop38
140
0.0
102
RTVSPost2010PropOp38
 70
     1
102
RTVSPost2010Prop39
140
1.0
102
RTVSPost2010PropOp39
 70
     1
102
RTVSPost2010Prop40
 90
        0
102
RTVSPost2010PropOp40
 70
     1
102
RTVSPost2010Prop41ColorIndex
 90
       18
102
RTVSPost2010Prop41ColorRGB
 90
        0
102
RTVSPost2010PropOp41
 70
     1
102
RTVSPost2010Prop42
 90
       50
102
RTVSPost2010PropOp42
 70
     1
102
RTVSPost2010Prop43
 90
        3
102
RTVSPost2010PropOp43
 70
     1
102
RTVSPost2010Prop44ColorIndex
 90
        5
102
RTVSPost2010Prop44ColorRGB
 90
      255
102
RTVSPost2010PropOp44
 70
     1
102
RTVSPost2010Prop45
280
     0
102
RTVSPost2010PropOp45
 70
     1
102
RTVSPost2010Prop46
 90
       50
102
RTVSPost2010PropOp46
 70
     1
102
RTVSPost2010Prop47
 90
       50
102
RTVSPost2010PropOp47
 70
     1
102
RTVSPost2010Prop48
 90
       50
102
RTVSPost2010PropOp48
 70
     1
102
RTVSPost2010Prop49
280
     0
102
RTVSPost2010PropOp49
 70
     1
102
RTVSPost2010Prop50
 90
       50
102
RTVSPost2010PropOp50
 70
     1
102
RTVSPost2010Prop51ColorIndex
 90
      256
102
RTVSPost2010Prop51ColorRGB
 90
-16777216
102
RTVSPost2010PropOp51
 70
     0
102
RTVSPost2010Prop52
140
1.0
102
RTVSPost2010PropOp52
 70
     0
102
RTVSPost2010Prop53
 90
        2
102
RTVSPost2010PropOp53
 70
     1
102
RTVSPost2010Prop54
  1
strokes_ogs.tif
102
RTVSPost2010PropOp54
 70
     1
102
RTVSPost2010Prop55
280
     0
102
RTVSPost2010PropOp55
 70
     1
102
RTVSPost2010Prop56
140
1.0
102
RTVSPost2010PropOp56
 70
     1
102
RTVSPost2010Prop57
140
1.0
102
RTVSPost2010PropOp57
 70
     1
  0
XRECORD
  5
3E4
102
{ACAD_REACTORS
330
3E3
102
}
330
3E3
100
AcDbXrecord
280
     1
102
RTVSPost2010Prop28
280
     0
102
RTVSPost2010PropOp28
 70
     1
102
RTVSPost2010Prop29
280
     1
102
RTVSPost2010PropOp29
 70
     1
102
RTVSPost2010Prop30
280
     1
102
RTVSPost2010PropOp30
 70
     1
102
RTVSPost2010Prop31
280
     0
102
RTVSPost2010PropOp31
 70
     1
102
RTVSPost2010Prop32
280
     0
102
RTVSPost2010PropOp32
 70
     1
102
RTVSPost2010Prop33
280
     0
102
RTVSPost2010PropOp33
 70
     1
102
RTVSPost2010Prop34
280
     0
102
RTVSPost2010PropOp34
 70
     1
102
RTVSPost2010Prop35
280
     0
102
RTVSPost2010PropOp35
 70
     1
102
RTVSPost2010Prop36
280
     0
102
RTVSPost2010PropOp36
 70
     1
102
RTVSPost2010Prop37
 90
       50
102
RTVSPost2010PropOp37
 70
     1
102
RTVSPost2010Prop38
140
0.0
102
RTVSPost2010PropOp38
 70
     1
102
RTVSPost2010Prop39
140
1.0
102
RTVSPost2010PropOp39
 70
     1
102
RTVSPost2010Prop40
 90
        0
102
RTVSPost2010PropOp40
 70
     1
102
RTVSPost2010Prop41ColorIndex
 90
       18
102
RTVSPost2010Prop41ColorRGB
 90
        0
102
RTVSPost2010PropOp41
 70
     1
102
RTVSPost2010Prop42
 90
       50
102
RTVSPost2010PropOp42
 70
     1
102
RTVSPost2010Prop43
 90
        3
102
RTVSPost2010PropOp43
 70
     1
102
RTVSPost2010Prop44ColorIndex
 90
        5
102
RTVSPost2010Prop44ColorRGB
 90
      255
102
RTVSPost2010PropOp44
 70
     1
102
RTVSPost2010Prop45
280
     0
102
RTVSPost2010PropOp45
 70
     1
102
RTVSPost2010Prop46
 90
       50
102
RTVSPost2010PropOp46
 70
     1
102
RTVSPost2010Prop47
 90
       50
102
RTVSPost2010PropOp47
 70
     1
102
RTVSPost2010Prop48
 90
       50
102
RTVSPost2010PropOp48
 70
     1
102
RTVSPost2010Prop49
280
     0
102
RTVSPost2010PropOp49
 70
     1
102
RTVSPost2010Prop50
 90
       50
102
RTVSPost2010PropOp50
 70
     1
102
RTVSPost2010Prop51ColorIndex
 90
      256
102
RTVSPost2010Prop51ColorRGB
 90
-16777216
102
RTVSPost2010PropOp51
 70
     0
102
RTVSPost2010Prop52
140
1.0
102
RTVSPost2010PropOp52
 70
     0
102
RTVSPost2010Prop53
 90
        2
102
RTVSPost2010PropOp53
 70
     1
102
RTVSPost2010Prop54
  1
strokes_ogs.tif
102
RTVSPost2010PropOp54
 70
     1
102
RTVSPost2010Prop55
280
     0
102
RTVSPost2010PropOp55
 70
     1
102
RTVSPost2010Prop56
140
1.0
102
RTVSPost2010PropOp56
 70
     1
102
RTVSPost2010Prop57
140
1.0
102
RTVSPost2010PropOp57
 70
     1
  0
XRECORD
  5
3DE
102
{ACAD_REACTORS
330
3DD
102
}
330
3DD
100
AcDbXrecord
280
     1
102
RTVSPost2010Prop28
280
     0
102
RTVSPost2010PropOp28
 70
     1
102
RTVSPost2010Prop29
280
     1
102
RTVSPost2010PropOp29
 70
     1
102
RTVSPost2010Prop30
280
     1
102
RTVSPost2010PropOp30
 70
     1
102
RTVSPost2010Prop31
280
     0
102
RTVSPost2010PropOp31
 70
     1
102
RTVSPost2010Prop32
280
     0
102
RTVSPost2010PropOp32
 70
     1
102
RTVSPost2010Prop33
280
     0
102
RTVSPost2010PropOp33
 70
     1
102
RTVSPost2010Prop34
280
     0
102
RTVSPost2010PropOp34
 70
     1
102
RTVSPost2010Prop35
280
     0
102
RTVSPost2010PropOp35
 70
     1
102
RTVSPost2010Prop36
280
     0
102
RTVSPost2010PropOp36
 70
     1
102
RTVSPost2010Prop37
 90
       50
102
RTVSPost2010PropOp37
 70
     1
102
RTVSPost2010Prop38
140
0.0
102
RTVSPost2010PropOp38
 70
     1
102
RTVSPost2010Prop39
140
1.0
102
RTVSPost2010PropOp39
 70
     1
102
RTVSPost2010Prop40
 90
        0
102
RTVSPost2010PropOp40
 70
     1
102
RTVSPost2010Prop41ColorIndex
 90
       18
102
RTVSPost2010Prop41ColorRGB
 90
        0
102
RTVSPost2010PropOp41
 70
     1
102
RTVSPost2010Prop42
 90
       50
102
RTVSPost2010PropOp42
 70
     1
102
RTVSPost2010Prop43
 90
        3
102
RTVSPost2010PropOp43
 70
     1
102
RTVSPost2010Prop44ColorIndex
 90
        5
102
RTVSPost2010Prop44ColorRGB
 90
      255
102
RTVSPost2010PropOp44
 70
     1
102
RTVSPost2010Prop45
280
     0
102
RTVSPost2010PropOp45
 70
     1
102
RTVSPost2010Prop46
 90
       50
102
RTVSPost2010PropOp46
 70
     1
102
RTVSPost2010Prop47
 90
       50
102
RTVSPost2010PropOp47
 70
     1
102
RTVSPost2010Prop48
 90
       50
102
RTVSPost2010PropOp48
 70
     1
102
RTVSPost2010Prop49
280
     0
102
RTVSPost2010PropOp49
 70
     1
102
RTVSPost2010Prop50
 90
       50
102
RTVSPost2010PropOp50
 70
     1
102
RTVSPost2010Prop51ColorIndex
 90
      256
102
RTVSPost2010Prop51ColorRGB
 90
-16777216
102
RTVSPost2010PropOp51
 70
     0
102
RTVSPost2010Prop52
140
1.0
102
RTVSPost2010PropOp52
 70
     0
102
RTVSPost2010Prop53
 90
        2
102
RTVSPost2010PropOp53
 70
     1
102
RTVSPost2010Prop54
  1
strokes_ogs.tif
102
RTVSPost2010PropOp54
 70
     1
102
RTVSPost2010Prop55
280
     0
102
RTVSPost2010PropOp55
 70
     1
102
RTVSPost2010Prop56
140
1.0
102
RTVSPost2010PropOp56
 70
     1
102
RTVSPost2010Prop57
140
1.0
102
RTVSPost2010PropOp57
 70
     1
  0
XRECORD
  5
3E0
102
{ACAD_REACTORS
330
3DF
102
}
330
3DF
100
AcDbXrecord
280
     1
102
RTVSPost2010Prop28
280
     0
102
RTVSPost2010PropOp28
 70
     1
102
RTVSPost2010Prop29
280
     1
102
RTVSPost2010PropOp29
 70
     1
102
RTVSPost2010Prop30
280
     1
102
RTVSPost2010PropOp30
 70
     1
102
RTVSPost2010Prop31
280
     0
102
RTVSPost2010PropOp31
 70
     1
102
RTVSPost2010Prop32
280
     0
102
RTVSPost2010PropOp32
 70
     1
102
RTVSPost2010Prop33
280
     0
102
RTVSPost2010PropOp33
 70
     1
102
RTVSPost2010Prop34
280
     0
102
RTVSPost2010PropOp34
 70
     1
102
RTVSPost2010Prop35
280
     0
102
RTVSPost2010PropOp35
 70
     1
102
RTVSPost2010Prop36
280
     0
102
RTVSPost2010PropOp36
 70
     1
102
RTVSPost2010Prop37
 90
       50
102
RTVSPost2010PropOp37
 70
     1
102
RTVSPost2010Prop38
140
0.0
102
RTVSPost2010PropOp38
 70
     1
102
RTVSPost2010Prop39
140
1.0
102
RTVSPost2010PropOp39
 70
     1
102
RTVSPost2010Prop40
 90
        0
102
RTVSPost2010PropOp40
 70
     1
102
RTVSPost2010Prop41ColorIndex
 90
       18
102
RTVSPost2010Prop41ColorRGB
 90
        0
102
RTVSPost2010PropOp41
 70
     1
102
RTVSPost2010Prop42
 90
       50
102
RTVSPost2010PropOp42
 70
     1
102
RTVSPost2010Prop43
 90
        3
102
RTVSPost2010PropOp43
 70
     1
102
RTVSPost2010Prop44ColorIndex
 90
        5
102
RTVSPost2010Prop44ColorRGB
 90
      255
102
RTVSPost2010PropOp44
 70
     1
102
RTVSPost2010Prop45
280
     0
102
RTVSPost2010PropOp45
 70
     1
102
RTVSPost2010Prop46
 90
       50
102
RTVSPost2010PropOp46
 70
     1
102
RTVSPost2010Prop47
 90
       50
102
RTVSPost2010PropOp47
 70
     1
102
RTVSPost2010Prop48
 90
       50
102
RTVSPost2010PropOp48
 70
     1
102
RTVSPost2010Prop49
280
     0
102
RTVSPost2010PropOp49
 70
     1
102
RTVSPost2010Prop50
 90
       50
102
RTVSPost2010PropOp50
 70
     1
102
RTVSPost2010Prop51ColorIndex
 90
      256
102
RTVSPost2010Prop51ColorRGB
 90
-16777216
102
RTVSPost2010PropOp51
 70
     0
102
RTVSPost2010Prop52
140
1.0
102
RTVSPost2010PropOp52
 70
     0
102
RTVSPost2010Prop53
 90
        2
102
RTVSPost2010PropOp53
 70
     1
102
RTVSPost2010Prop54
  1
strokes_ogs.tif
102
RTVSPost2010PropOp54
 70
     1
102
RTVSPost2010Prop55
280
     0
102
RTVSPost2010PropOp55
 70
     1
102
RTVSPost2010Prop56
140
1.0
102
RTVSPost2010PropOp56
 70
     1
102
RTVSPost2010Prop57
140
1.0
102
RTVSPost2010PropOp57
 70
     1
  0
XRECORD
  5
3D2
102
{ACAD_REACTORS
330
3D1
102
}
330
3D1
100
AcDbXrecord
280
     1
102
RTVSPost2010Prop28
280
     0
102
RTVSPost2010PropOp28
 70
     1
102
RTVSPost2010Prop29
280
     1
102
RTVSPost2010PropOp29
 70
     1
102
RTVSPost2010Prop30
280
     1
102
RTVSPost2010PropOp30
 70
     1
102
RTVSPost2010Prop31
280
     0
102
RTVSPost2010PropOp31
 70
     1
102
RTVSPost2010Prop32
280
     0
102
RTVSPost2010PropOp32
 70
     1
102
RTVSPost2010Prop33
280
     0
102
RTVSPost2010PropOp33
 70
     1
102
RTVSPost2010Prop34
280
     0
102
RTVSPost2010PropOp34
 70
     1
102
RTVSPost2010Prop35
280
     0
102
RTVSPost2010PropOp35
 70
     1
102
RTVSPost2010Prop36
280
     0
102
RTVSPost2010PropOp36
 70
     1
102
RTVSPost2010Prop37
 90
       50
102
RTVSPost2010PropOp37
 70
     1
102
RTVSPost2010Prop38
140
0.0
102
RTVSPost2010PropOp38
 70
     1
102
RTVSPost2010Prop39
140
1.0
102
RTVSPost2010PropOp39
 70
     1
102
RTVSPost2010Prop40
 90
        0
102
RTVSPost2010PropOp40
 70
     1
102
RTVSPost2010Prop41ColorIndex
 90
       18
102
RTVSPost2010Prop41ColorRGB
 90
        0
102
RTVSPost2010PropOp41
 70
     1
102
RTVSPost2010Prop42
 90
       50
102
RTVSPost2010PropOp42
 70
     1
102
RTVSPost2010Prop43
 90
        3
102
RTVSPost2010PropOp43
 70
     1
102
RTVSPost2010Prop44ColorIndex
 90
        5
102
RTVSPost2010Prop44ColorRGB
 90
      255
102
RTVSPost2010PropOp44
 70
     1
102
RTVSPost2010Prop45
280
     0
102
RTVSPost2010PropOp45
 70
     1
102
RTVSPost2010Prop46
 90
       50
102
RTVSPost2010PropOp46
 70
     1
102
RTVSPost2010Prop47
 90
       50
102
RTVSPost2010PropOp47
 70
     1
102
RTVSPost2010Prop48
 90
       50
102
RTVSPost2010PropOp48
 70
     1
102
RTVSPost2010Prop49
280
     0
102
RTVSPost2010PropOp49
 70
     1
102
RTVSPost2010Prop50
 90
       50
102
RTVSPost2010PropOp50
 70
     1
102
RTVSPost2010Prop51ColorIndex
 90
      256
102
RTVSPost2010Prop51ColorRGB
 90
-16777216
102
RTVSPost2010PropOp51
 70
     0
102
RTVSPost2010Prop52
140
1.0
102
RTVSPost2010PropOp52
 70
     0
102
RTVSPost2010Prop53
 90
        2
102
RTVSPost2010PropOp53
 70
     1
102
RTVSPost2010Prop54
  1
strokes_ogs.tif
102
RTVSPost2010PropOp54
 70
     1
102
RTVSPost2010Prop55
280
     0
102
RTVSPost2010PropOp55
 70
     1
102
RTVSPost2010Prop56
140
1.0
102
RTVSPost2010PropOp56
 70
     1
102
RTVSPost2010Prop57
140
1.0
102
RTVSPost2010PropOp57
 70
     1
  0
XRECORD
  5
3DA
102
{ACAD_REACTORS
330
3D9
102
}
330
3D9
100
AcDbXrecord
280
     1
102
RTVSPost2010Prop28
280
     0
102
RTVSPost2010PropOp28
 70
     1
102
RTVSPost2010Prop29
280
     1
102
RTVSPost2010PropOp29
 70
     1
102
RTVSPost2010Prop30
280
     1
102
RTVSPost2010PropOp30
 70
     1
102
RTVSPost2010Prop31
280
     0
102
RTVSPost2010PropOp31
 70
     1
102
RTVSPost2010Prop32
280
     0
102
RTVSPost2010PropOp32
 70
     1
102
RTVSPost2010Prop33
280
     0
102
RTVSPost2010PropOp33
 70
     1
102
RTVSPost2010Prop34
280
     0
102
RTVSPost2010PropOp34
 70
     1
102
RTVSPost2010Prop35
280
     0
102
RTVSPost2010PropOp35
 70
     1
102
RTVSPost2010Prop36
280
     0
102
RTVSPost2010PropOp36
 70
     1
102
RTVSPost2010Prop37
 90
       50
102
RTVSPost2010PropOp37
 70
     1
102
RTVSPost2010Prop38
140
0.0
102
RTVSPost2010PropOp38
 70
     1
102
RTVSPost2010Prop39
140
1.0
102
RTVSPost2010PropOp39
 70
     1
102
RTVSPost2010Prop40
 90
        0
102
RTVSPost2010PropOp40
 70
     1
102
RTVSPost2010Prop41ColorIndex
 90
       18
102
RTVSPost2010Prop41ColorRGB
 90
        0
102
RTVSPost2010PropOp41
 70
     1
102
RTVSPost2010Prop42
 90
       50
102
RTVSPost2010PropOp42
 70
     1
102
RTVSPost2010Prop43
 90
        3
102
RTVSPost2010PropOp43
 70
     1
102
RTVSPost2010Prop44ColorIndex
 90
        5
102
RTVSPost2010Prop44ColorRGB
 90
      255
102
RTVSPost2010PropOp44
 70
     1
102
RTVSPost2010Prop45
280
     0
102
RTVSPost2010PropOp45
 70
     1
102
RTVSPost2010Prop46
 90
       50
102
RTVSPost2010PropOp46
 70
     1
102
RTVSPost2010Prop47
 90
       50
102
RTVSPost2010PropOp47
 70
     1
102
RTVSPost2010Prop48
 90
       50
102
RTVSPost2010PropOp48
 70
     1
102
RTVSPost2010Prop49
280
     0
102
RTVSPost2010PropOp49
 70
     1
102
RTVSPost2010Prop50
 90
       50
102
RTVSPost2010PropOp50
 70
     1
102
RTVSPost2010Prop51ColorIndex
 90
      256
102
RTVSPost2010Prop51ColorRGB
 90
-16777216
102
RTVSPost2010PropOp51
 70
     0
102
RTVSPost2010Prop52
140
1.0
102
RTVSPost2010PropOp52
 70
     0
102
RTVSPost2010Prop53
 90
        2
102
RTVSPost2010PropOp53
 70
     1
102
RTVSPost2010Prop54
  1
strokes_ogs.tif
102
RTVSPost2010PropOp54
 70
     1
102
RTVSPost2010Prop55
280
     0
102
RTVSPost2010PropOp55
 70
     1
102
RTVSPost2010Prop56
140
1.0
102
RTVSPost2010PropOp56
 70
     1
102
RTVSPost2010Prop57
140
1.0
102
RTVSPost2010PropOp57
 70
     1
  0
XRECORD
  5
3E2
102
{ACAD_REACTORS
330
3E1
102
}
330
3E1
100
AcDbXrecord
280
     1
102
RTVSPost2010Prop28
280
     0
102
RTVSPost2010PropOp28
 70
     1
102
RTVSPost2010Prop29
280
     1
102
RTVSPost2010PropOp29
 70
     1
102
RTVSPost2010Prop30
280
     1
102
RTVSPost2010PropOp30
 70
     1
102
RTVSPost2010Prop31
280
     0
102
RTVSPost2010PropOp31
 70
     1
102
RTVSPost2010Prop32
280
     0
102
RTVSPost2010PropOp32
 70
     1
102
RTVSPost2010Prop33
280
     0
102
RTVSPost2010PropOp33
 70
     1
102
RTVSPost2010Prop34
280
     0
102
RTVSPost2010PropOp34
 70
     1
102
RTVSPost2010Prop35
280
     0
102
RTVSPost2010PropOp35
 70
     1
102
RTVSPost2010Prop36
280
     0
102
RTVSPost2010PropOp36
 70
     1
102
RTVSPost2010Prop37
 90
       50
102
RTVSPost2010PropOp37
 70
     1
102
RTVSPost2010Prop38
140
0.0
102
RTVSPost2010PropOp38
 70
     1
102
RTVSPost2010Prop39
140
1.0
102
RTVSPost2010PropOp39
 70
     1
102
RTVSPost2010Prop40
 90
        0
102
RTVSPost2010PropOp40
 70
     1
102
RTVSPost2010Prop41ColorIndex
 90
       18
102
RTVSPost2010Prop41ColorRGB
 90
        0
102
RTVSPost2010PropOp41
 70
     1
102
RTVSPost2010Prop42
 90
       50
102
RTVSPost2010PropOp42
 70
     1
102
RTVSPost2010Prop43
 90
        3
102
RTVSPost2010PropOp43
 70
     1
102
RTVSPost2010Prop44ColorIndex
 90
        5
102
RTVSPost2010Prop44ColorRGB
 90
      255
102
RTVSPost2010PropOp44
 70
     1
102
RTVSPost2010Prop45
280
     0
102
RTVSPost2010PropOp45
 70
     1
102
RTVSPost2010Prop46
 90
       50
102
RTVSPost2010PropOp46
 70
     1
102
RTVSPost2010Prop47
 90
       50
102
RTVSPost2010PropOp47
 70
     1
102
RTVSPost2010Prop48
 90
       50
102
RTVSPost2010PropOp48
 70
     1
102
RTVSPost2010Prop49
280
     0
102
RTVSPost2010PropOp49
 70
     1
102
RTVSPost2010Prop50
 90
       50
102
RTVSPost2010PropOp50
 70
     1
102
RTVSPost2010Prop51ColorIndex
 90
      256
102
RTVSPost2010Prop51ColorRGB
 90
-16777216
102
RTVSPost2010PropOp51
 70
     0
102
RTVSPost2010Prop52
140
1.0
102
RTVSPost2010PropOp52
 70
     0
102
RTVSPost2010Prop53
 90
        2
102
RTVSPost2010PropOp53
 70
     1
102
RTVSPost2010Prop54
  1
strokes_ogs.tif
102
RTVSPost2010PropOp54
 70
     1
102
RTVSPost2010Prop55
280
     0
102
RTVSPost2010PropOp55
 70
     1
102
RTVSPost2010Prop56
140
1.0
102
RTVSPost2010PropOp56
 70
     1
102
RTVSPost2010Prop57
140
1.0
102
RTVSPost2010PropOp57
 70
     1
  0
ENDSEC
  0
EOF
